#TITLE:Feeling Isolator;
#SUBTITLE:;
#ARTIST:Tsukasa;
#TITLETRANSLIT:;
#SUBTITLETRANSLIT:;
#ARTISTTRANSLIT:;
#GENRE:;
#CREDIT:Ace Of Arrows;
#BANNER:Feeling Isolator - Bn.png;
#BACKGROUND:Feeling Isolator - Bg.jpg;
#LYRICSPATH:;
#CDTITLE:Ace Of Arrows.png;
#MUSIC:Feeling Isolator.ogg;
#OFFSET:1.720;
#SAMPLESTART:56.300;
#SAMPLELENGTH:12.000;
#SELECTABLE:YES;
#BPMS:0.000=132.000;
#STOPS:;
#BGCHANGES:;
#KEYSOUNDS:;

//---------------dance-single - Ace Of Arrows (2019)----------------
#NOTES:
     dance-single:
     Ace Of Arrows (2019):
     Hard:
     7:
     0.492,0.000,0.155,0.982,0.009:
0000
0000
0000
0000
,
0000
0000
0000
0000
,
0000
0000
0000
0000
,
1002
0000
0023
0000
0230
0000
1300
0002
,
0000
0203
0000
0000
0300
0000
0000
0000
,
0010
1000
0001
1000
0200
0000
0300
0000
,
0010
0001
0010
0100
2000
0000
3002
0003
,
0201
0000
0000
0320
0000
0000
1030
0002
,
0000
0000
0003
1000
0100
0010
0100
1000
,
0002
0000
0103
0020
0000
0000
1030
0002
,
0000
0000
0043
0030
,
0210
0000
0000
2300
0000
0000
3001
0020
,
0000
0000
0000
0000
0030
0000
0001
0000
2000
0000
0000
3020
0000
0000
0130
0000
,
0002
0000
1003
0200
0000
0000
0300
0000
,
1000
0001
0100
0001
4000
0000
3000
0000
,
1020
0000
0000
0230
0000
0000
0301
2000
,
0000
0000
3000
0001
0010
0100
1000
0100
,
0020
0000
0031
2000
0000
0000
3010
0200
,
0000
0000
0304
0003
,
2001
0000
0000
3200
0000
0000
0310
0002
,
0000
0000
0000
0000
0003
0000
1000
0000
0020
0000
0000
0230
0000
0000
0301
0000
,
2000
0000
3001
0200
0000
0000
0300
0000
,
0001
1000
0010
1000
0004
0000
0003
0000
,
0021
0000
0230
0000
1300
0002
0000
0103
,
0000
0010
1000
0001
2000
0000
3020
0030
,
0210
0000
0302
0000
1003
0200
0000
0310
,
0000
0001
0010
0100
0010
0001
0010
0100
,
2000
0000
3002
0000
0103
0020
0000
1030
,
0000
0001
0010
0001
2000
0000
3020
0030
,
0210
0000
0301
2000
0000
3200
0000
0320
,
0000
0130
1000
0002
0000
0000
0003
0000
,
0000
1000
0010
0100
0010
1000
0002
0003
,
0021
0000
0230
0000
2300
0000
3001
0200
,
0000
0320
0000
0000
0030
1000
0001
0200
,
0000
0301
1000
0002
0000
0003
0000
0010
,
0100
1000
0100
0010
0001
1000
0002
0003
,
0201
0000
0320
0000
2030
0000
3001
0020
,
0000
0230
0000
0000
0300
1000
0001
0020
,
0000
0031
1000
0200
0000
0000
0300
1000
,
0001
0100
0001
1000
0010
1000
0002
0003
,
0021
0000
0230
0000
2300
0000
3001
0200
,
0000
0320
0000
0000
0030
1000
0001
2000
,
0000
3010
0100
0002
0000
0003
0000
1000
,
0100
0010
0001
1000
0001
0010
0200
0300
,
2100
0000
3002
0000
0203
0000
0310
2000
,
0000
3002
0000
0000
0003
0010
0100
2000
,
0000
3100
0010
0002
0000
0003
0000
1000
,
0010
0100
0001
1000
0001
0100
0020
0030
,
2010
0000
0000
3002
0000
0023
0000
0000
,
0100
0000
0100
0000
0230
0300
1100
0000
,
1002
0000
0203
0000
0320
0000
1030
0002
,
0000
0023
0000
0000
0430
0000
0300
0000
,
1000
0001
0100
0001
2000
0000
3002
0000
,
0013
0100
1000
0100
0040
0000
0030
0000
,
0012
0000
2003
0000
3020
0000
0130
0002
,
0000
2003
0000
0000
3400
0000
0300
0000
,
0010
0001
0010
0100
2000
0000
3002
0000
,
1003
0010
0100
0010
4000
0000
3000
0000
,
1002
0000
0023
0000
0230
0000
1300
0002
,
0000
0200
0000
0000
0303
0000
0000
0000
;

//---------------dance-single - Ace Of Arrows (2019)----------------
#NOTES:
     dance-single:
     Ace Of Arrows (2019):
     Challenge:
     9:
     0.713,0.000,0.591,1.000,0.095: // measure 1
0000
0000
0000
0000
,  // measure 2
0000
0000
0000
0000
,  // measure 3
0000
0000
0000
0000
,  // measure 4
2001
0000
3020
0000
0230
0000
0301
2001
,  // measure 5
0000
3200
0310
0002
0000
1003
0010
0100
,  // measure 6
0001
1000
0100
0010
0002
1003
0010
0100
,  // measure 7
0002
1003
0100
0010
0200
1300
0001
0100
,  // measure 8
0120
0000
0000
2030
0000
0000
3001
0010
,  // measure 9
0210
1300
0001
0100
0010
1000
0001
1000
,  // measure 10
1200
0000
0310
0002
0000
0000
1003
0010
,  // measure 11
0210
0000
0301
0000
1000
0000
0100
0000
0010
0100
0010
0000
0001
0000
1000
0000
,  // measure 12
1020
0000
0000
0230
0000
0000
0301
1000
,  // measure 13
1200
0000
0310
0000
0001
0000
1000
0000
1020
0000
0000
0230
0000
0000
0301
0000
,  // measure 14
2001
3100
0010
0002
0000
1003
0010
0100
,  // measure 15
0010
0000
1000
0000
0001
0000
0010
0000
0001
1000
0001
0000
1000
0100
0010
0100
,  // measure 16
2000
3001
0100
0020
0000
1030
0001
0100
,  // measure 17
0120
1030
0001
0010
0100
0010
0001
1000
,  // measure 18
1020
0130
0001
2000
0000
3100
0010
0012
,  // measure 19
1003
0000
0010
0000
0100
0000
0001
0000
1000
0100
1000
0000
0001
0000
0010
0000
,  // measure 20
0210
1300
0001
0200
0000
0310
1000
0001
,  // measure 21
0201
0000
0310
0000
1000
0000
0001
0000
0021
0000
0000
0230
0000
0000
1300
0000
,  // measure 22
1002
0103
0010
1000
0002
0013
0100
0010
,  // measure 23
0001
0000
1000
0000
0010
0000
1000
0000
0001
0100
0001
0000
1000
0000
0100
0000
,  // measure 24
0120
0000
0032
0003
1001
2000
3000
1020
,  // measure 25
0000
0000
0130
M00M
0100
0000
0010
M00M
0020
0000
0000
0030
2010
0000
3000
0000
,  // measure 26
1002
0000
0023
0030
0110
0200
0300
2100
,  // measure 27
0000
0000
3100
M00M
0100
0000
0010
M00M
0010
0000
0100
M00M
0100
0000
0001
0000
,  // measure 28
2001
0000
3020
0030
0110
0200
0300
0102
,  // measure 29
0003
0000
0100
M00M
0100
0000
0010
M00M
0020
0000
0030
0000
2010
0000
3000
0000
,  // measure 30
1002
0000
0013
0210
0000
2300
0000
3001
,  // measure 31
0201
0310
1000
1002
0000
0013
0100
2000
,  // measure 32
3000
0001
0100
0010
1000
0001
0020
0030
,  // measure 33
0210
0000
2300
0000
3002
0000
0103
0120
,  // measure 34
0000
0000
1030
0000
0001
0000
0010
0000
0001
1000
0001
0000
0100
0000
0120
0000
,  // measure 35
0000
1030
0001
0021
0130
1000
0001
1000
,  // measure 36
1200
0310
0001
1000
0010
0100
0101
0000
,  // measure 37
2001
0000
3200
0000
0320
0000
0031
2001
,  // measure 38
0000
0000
3020
0000
0130
0000
0002
0000
1003
0100
1000
0000
0001
0000
0201
0000
,  // measure 39
0000
0310
1000
0001
0021
0130
1000
0001
,  // measure 40
0201
0310
1000
0001
0010
0100
2000
3000
,  // measure 41
1002
0000
0203
0000
0320
0000
1030
1002
,  // measure 42
0000
0000
0023
0000
0130
0000
2000
0000
3001
0010
0001
0000
1000
0000
1020
0000
,  // measure 43
0000
0130
0001
1000
1200
0310
0001
1000
,  // measure 44
1020
0130
0001
1000
0100
0010
0011
0000
,  // measure 45
2001
0000
3020
0000
0230
0000
0301
2001
,  // measure 46
0000
0000
3100
0000
0010
0000
0001
0000
1000
0010
1000
0000
0001
0000
0021
0000
,  // measure 47
0000
0130
1000
0001
0201
0310
1000
0001
,  // measure 48
0021
0130
1000
0001
0100
0001
1000
0000
,  // measure 49
1200
0000
0310
0012
0000
2000
0000
0003
,  // measure 50
0010
0000
0001
0000
0011
3000
1011
0000
,  // measure 51
0201
0000
0320
0000
2030
0000
3001
0202
,  // measure 52
0000
0020
0000
0000
0333
0000
0001
1000
,  // measure 53
0100
0010
0100
1000
0002
0103
0010
1000
,  // measure 54
0020
0000
0130
0000
0001
0000
2000
0000
3001
0100
0001
0000
1000
0000
0100
0000
,  // measure 55
0120
0000
0032
0000
0023
0000
0130
2200
,  // measure 56
0000
0020
0000
0000
3330
0000
1000
0001
,  // measure 57
0100
0010
1000
0010
0200
0301
1000
0001
,  // measure 58
0021
0000
0130
0000
1000
0000
0001
0000
0100
0010
0100
0000
0001
0000
1000
0000
,  // measure 59
1200
0000
0320
0000
0032
0000
1003
2002
,  // measure 60
0000
0020
0000
0000
3033
0000
0000
0000
;

//---------------dance-single - Ace Of Arrows (2019)----------------
#NOTES:
     dance-single:
     Ace Of Arrows (2019):
     Medium:
     5:
     0.374,0.000,0.000,0.927,0.000:
0000
0000
0000
0000
,
0000
0000
0000
0000
,
0000
0000
0000
0000
,
2000
0000
3200
0000
2300
0000
3001
0020
,
0000
0032
0000
0000
0003
0000
0000
0000
,
1000
0010
2000
3000
,
0001
0100
0002
0003
,
2000
0000
0000
3200
0000
0000
1300
0002
,
0000
0003
1000
0010
,
2000
0000
3001
0020
0000
0000
0031
2000
,
0000
0000
3000
0000
,
0002
0000
0000
0203
0000
0000
0301
2000
,
0000
0000
0000
3001
0020
0000
0000
0031
,
2000
0000
3001
0200
0000
0000
0300
0000
,
0001
1000
0002
0003
,
0020
0000
0000
0230
0000
0000
0310
0002
,
0000
0003
1000
0010
,
2000
0000
3001
0020
0000
0000
0031
2000
,
0000
0000
3000
0000
,
0020
0000
0000
2030
0000
0000
3010
0200
,
0000
0000
0300
0010
2000
0000
0000
3001
,
0020
0000
0031
2000
0000
0000
3000
0000
,
0001
0100
0002
0003
,
1000
0000
0002
0000
1003
0200
0000
1300
,
0000
0001
0020
0030
,
0001
0000
2000
0000
3001
0200
0000
0301
,
0000
1000
0020
0030
,
0100
0000
0010
0000
0100
0002
0000
0103
,
0000
0010
1000
0010
,
2000
0000
3001
0020
0000
0032
0000
2003
,
0000
0000
3001
0020
0000
0000
0030
0000
,
0000
0001
2000
3000
,
0020
0000
2030
0000
3020
0000
1030
0002
,
0000
2003
0000
0000
3000
0000
0001
0020
,
0000
0000
0031
2000
0000
0000
3000
0010
,
2000
3001
0020
0030
,
0002
0000
2003
0000
3002
0000
0103
0020
,
0000
0230
0000
0000
0300
0000
0001
2000
,
0000
0000
3001
0020
0000
0000
0030
0001
,
2000
0000
3001
0020
0000
0031
1000
0000
,
0002
0000
0023
0000
0032
0000
1003
0200
,
0000
2300
0000
0000
3000
0000
0001
0200
,
0000
0000
0301
2000
0000
0000
3000
0001
,
0020
0000
0031
2000
0000
3001
0100
0000
,
0020
0000
2030
0000
3020
0000
1030
0002
,
0000
2003
0000
0000
3000
0000
0001
0020
,
0000
0000
0031
2000
0000
0000
3000
0001
,
0200
0000
0301
2000
0000
3001
0010
0000
,
0200
0000
0000
2300
0000
3200
0000
0000
,
0000
0300
0000
0000
,
0020
0000
0032
0000
0023
0000
0031
2000
,
0000
3002
0000
0000
0003
0000
0000
0000
,
1000
0000
0010
0000
1000
0000
0000
0002
,
0000
1003
0100
0000
,
0020
0000
0230
0000
0320
0000
0130
2000
,
0000
3002
0000
0000
0003
0000
0000
0000
,
1000
0000
0001
0000
1000
0000
0000
0200
,
0000
0310
0001
0000
,
2000
0000
3020
0000
2030
0000
3001
0200
,
0000
0320
0000
0000
0030
0000
0000
0000
;

//---------------dance-single - Ace Of Arrows (2019)----------------
#NOTES:
     dance-single:
     Ace Of Arrows (2019):
     Easy:
     3:
     0.260,0.000,0.000,0.500,0.000:
0000
0000
0000
0000
,
0000
0000
0000
0000
,
0000
0000
0000
0000
,
1000
0000
1000
0000
1000
0000
0000
0001
,
0000
0002
0000
0000
0003
0000
0000
0000
,
0010
0010
0010
0000
,
0100
0100
0200
0300
,
1000
0000
0000
2000
0000
3000
0000
2000
,
0000
3000
0000
0000
0001
0000
0001
0000
,
0001
0000
0000
0200
0000
0300
0000
0200
,
0000
0000
0300
0000
,
0010
0000
0000
0020
0000
0030
0000
0020
,
0000
0030
2000
3000
,
1000
0000
0000
2000
0000
0000
3000
0000
,
0001
0001
0002
0003
,
0010
0000
0000
0020
0000
0030
0000
0020
,
0000
0030
0000
0000
0100
0000
0100
0000
,
0100
0000
0000
2000
0000
3000
0000
2000
,
0000
0000
3000
0000
,
0001
0000
0000
0002
0000
0003
0000
0002
,
0000
0003
0000
0000
0100
0000
0100
0000
,
0100
0000
0000
0200
0000
0000
0300
0000
,
0010
0010
0020
0030
,
1000
0000
1000
0000
2000
0000
0000
3000
,
0000
0001
0002
0003
,
0010
0000
0010
0000
0020
0000
0000
0030
,
0000
0100
0200
0300
,
1000
0000
1000
0000
2000
0000
0000
3000
,
0000
0001
0002
0003
,
0100
0000
0000
0100
0000
0100
0000
0200
,
0000
0300
0000
0020
0000
0000
0030
0000
,
0000
1000
2000
3000
,
0010
0000
0010
0000
0020
0000
0030
0100
,
0000
0200
0000
0000
0300
0000
0000
0001
,
0000
0001
0000
0002
0000
0003
0000
0000
,
1000
1000
2000
3000
,
0100
0000
0100
0000
0200
0000
0300
0010
,
0000
0020
0000
0000
0030
0000
0000
0001
,
0000
0001
0000
0002
0000
0003
0000
0000
,
1000
1000
2000
3000
,
0010
0000
0010
0000
0020
0000
0030
0100
,
0000
0200
0000
0000
0300
0000
0000
0001
,
0000
0001
0000
0002
0000
0003
0000
0000
,
0010
0010
0020
0030
,
0100
0000
0100
0000
0200
0000
0300
1000
,
0000
2000
0000
0000
3000
0000
0000
0001
,
0000
0001
0000
0002
0000
0003
0000
0000
,
0100
0100
0200
0300
,
0010
0000
0000
0010
0000
0020
0000
0000
,
0000
0030
0000
0000
,
1000
0000
1000
0000
2000
0000
3001
0001
,
0000
0002
0000
0000
0003
0000
0000
0000
,
0010
0010
0020
0030
,
0001
0001
0002
0003
,
0010
0000
0010
0000
0020
0000
0130
0100
,
0000
0200
0000
0000
0300
0000
0000
0000
,
1000
1000
2000
3000
,
0001
0001
0002
0003
,
1000
0000
1000
0000
2000
0000
3010
0010
,
0000
0020
0000
0000
0030
0000
0000
0000
;

//---------------dance-single - Ace Of Arrows (2019)----------------
#NOTES:
     dance-single:
     Ace Of Arrows (2019):
     Beginner:
     1:
     0.142,0.000,0.000,0.309,0.000:
0000
0000
0000
0000
,
0000
0000
0000
0000
,
0000
0000
0000
0000
,
0001
0000
0001
0000
,
0002
0000
0003
0000
,
1000
0000
1000
0000
,
2000
0000
3000
0000
,
0010
0000
0010
0000
,
0020
0000
0030
0000
,
0100
0000
0100
0000
,
0200
0000
0300
0000
,
0001
0000
0001
0000
,
0002
0000
0003
0000
,
1000
0000
2000
0000
,
3000
0000
0000
0000
,
0001
0000
0001
0000
,
0002
0000
0003
0000
,
0010
0000
0010
0000
,
0020
0000
0030
0000
,
0100
0000
0100
0000
,
0200
0000
0300
0000
,
0010
0000
0020
0000
,
0030
0000
0000
0000
,
0001
0000
0001
0000
,
0002
0000
0003
0000
,
1000
0000
1000
0000
,
2000
0000
3000
0000
,
0100
0000
0100
0000
,
0200
0000
0300
0000
,
0010
0000
0010
0000
,
0020
0000
0000
0000
,
0030
0000
0000
0000
,
0001
0000
0001
0000
,
0002
0000
0003
0000
,
2000
0000
3000
0000
,
2000
0000
3000
0000
,
0100
0000
0100
0000
,
0200
0000
0300
0000
,
0020
0000
0030
0000
,
0020
0000
0030
0000
,
0001
0000
0001
0000
,
0002
0000
0003
0000
,
2000
0000
3000
0000
,
2000
0000
3000
0000
,
0010
0000
0010
0000
,
0020
0000
0030
0000
,
0200
0000
0300
0000
,
0200
0000
0300
0000
,
0001
0000
0002
0000
,
0000
0000
0003
0000
,
1000
0000
1000
0000
,
2000
0000
3000
0000
,
0200
0000
0300
0000
,
0200
0000
0300
0000
,
0010
0000
0010
0000
,
0020
0000
0030
0000
,
0002
0000
0003
0000
,
0002
0000
0003
0000
,
1000
0000
1000
0000
,
2000
0000
3000
0000
;
