#TITLE:Doremifa Rondo;
#SUBTITLE:;
#ARTIST:Miku Hatsune;
#TITLETRANSLIT:;
#SUBTITLETRANSLIT:;
#ARTISTTRANSLIT:;
#GENRE:;
#CREDIT:Ace Of Arrows;
#BANNER:Doremifa Rondo - Bn.png;
#BACKGROUND:Domerifa Rondo - Bg.jpg;
#LYRICSPATH:;
#CDTITLE:Ace Of Arrows.png;
#MUSIC:Domerifa Rondo.ogg;
#OFFSET:1.676;
#SAMPLESTART:57.700;
#SAMPLELENGTH:12.000;
#SELECTABLE:YES;
#BPMS:0.000=125.000;
#STOPS:;
#BGCHANGES:3.500=Domerifa Rondo Video.avi=1.000=0=0=1=====,
99999=-nosongbg-=1.000=0=0=0 // don't automatically add -songbackground-
;
#KEYSOUNDS:;

//---------------dance-single - AceOfArrows (2019)----------------
#NOTES:
     dance-single:
     AceOfArrows (2019):
     Hard:
     8:
     0.566,0.205,0.060,0.710,0.692: // measure 1
0000
0000
0000
0000
,  // measure 2
0000
0000
0000
0000
,  // measure 3
1010
0000
0110
0000
,  // measure 4
0100
0001
1001
0000
,  // measure 5
1000
0100
0010
0001
0000
1000
0020
0000
0000
0230
0000
0000
,  // measure 6
0301
0100
0010
1000
0000
0001
0020
0000
0000
0230
0000
0000
,  // measure 7
1300
0100
0010
0001
0000
1000
0020
0000
0000
0130
0000
0001
,  // measure 8
2000
0000
3001
0020
0000
0031
2000
0000
0000
3020
0000
0000
,  // measure 9
1030
0010
0100
0001
0000
1000
0200
0000
0000
0320
0000
0000
,  // measure 10
0031
0010
0100
1000
0000
0001
0200
0000
0000
0320
0000
0000
,  // measure 11
1030
0010
0100
0001
0000
1000
0200
0000
0000
0320
0000
0031
,  // measure 12
2000
0000
3001
0200
0000
0301
2000
0000
0000
3020
0000
0030
,  // measure 13
0110
0000
0101
0000
,  // measure 14
0001
1000
1100
0000
,  // measure 15
0200
0000
0310
0001
0000
0001
1000
0000
1000
0010
0000
0010
,  // measure 16
0100
0000
0100
0001
0000
0001
2000
0000
0000
3200
0000
0000
,  // measure 17
0320
0000
0031
1000
0000
1000
0010
0000
0010
0100
0000
0100
,  // measure 18
0001
0000
0001
1000
0000
1000
0200
0000
0000
0320
0000
0000
,  // measure 19
0032
0000
1003
0100
0000
0100
1000
0000
1000
0001
0000
0001
,  // measure 20
0100
0000
0100
0010
0000
0010
2000
0000
3002
0000
0000
0013
,  // measure 21
0100
0000
0100
1000
0000
1000
0002
0000
0000
0013
0000
0200
,  // measure 22
0000
0000
0000
0000
0000
0000
0300
0000
0000
0000
0000
1000
,  // measure 23
0001
0000
0001
0100
0000
0100
0020
0000
2030
0000
0000
3001
,  // measure 24
0010
0000
0010
0001
0000
0001
2000
0000
3020
0000
0000
0130
,  // measure 25
0001
0000
0001
1000
0000
1000
0100
0000
0100
0010
0000
0010
,  // measure 26
0002
0000
0000
0023
0000
0000
0230
0000
0000
2300
0000
3001
,  // measure 27
0100
0000
0100
0010
0000
0010
2000
0000
3002
0000
0000
0013
,  // measure 28
0100
0000
0100
1000
0000
1000
0002
0000
0203
0000
0000
0310
,  // measure 29
1000
0000
1000
0001
0000
0001
0010
0000
0000
0200
0000
2300
,  // measure 30
0000
0000
3000
0000
,  // measure 31
0001
1000
1001
0000
,  // measure 32
0001
0010
0100
1000
0000
0001
0200
0000
0000
0320
0000
0000
,  // measure 33
1030
0010
0100
0001
0000
1000
0200
0000
0000
0320
0000
0000
,  // measure 34
0031
0010
0100
1000
0000
0001
0200
0000
0000
0320
0000
1030
,  // measure 35
0001
0000
0001
0010
0000
0010
0200
0000
0000
2300
0000
0000
,  // measure 36
3001
0100
0010
1000
0000
0001
0020
0000
0000
0230
0000
0000
,  // measure 37
1300
0100
0010
0001
0000
1000
0020
0000
0000
0230
0000
0000
,  // measure 38
0301
0100
0010
1000
0000
0001
0020
0000
0000
0230
0000
1300
,  // measure 39
0001
0000
0001
0100
0000
0100
0020
0000
0000
1030
0000
0001
,  // measure 40
1000
0100
1000
0100
0000
1000
0002
0000
0000
0203
0000
0000
,  // measure 41
0310
1000
0010
1000
0000
0001
0020
0000
0000
0230
0000
0000
,  // measure 42
1300
0001
1000
0001
0000
0100
0020
0000
0000
2030
0000
3001
,  // measure 43
0100
0000
0100
0010
0000
0010
2000
0000
0000
3002
0000
0003
,  // measure 44
0011
0000
0110
0000
,  // measure 45
0100
1000
1001
0000
,  // measure 46
0001
0000
0001
0100
0000
0100
0010
0000
0010
1000
0000
1000
,  // measure 47
0001
0000
0001
0010
0000
0010
0200
0000
0000
2300
0000
0000
,  // measure 48
3100
0000
0100
0010
0000
0010
0001
0000
0001
1000
0000
1000
,  // measure 49
0010
0000
0010
0100
0000
0100
0002
0000
0000
2003
0000
0000
,  // measure 50
3001
0000
0001
0010
0000
0010
0100
0000
0100
1000
0000
1000
,  // measure 51
0001
0000
0001
0100
0000
0100
0020
0000
0230
0000
0000
0301
,  // measure 52
1000
0000
1000
0100
0000
0100
0010
0000
0010
0001
0000
2000
,  // measure 53
0000
0000
0000
0000
0000
0000
3000
0000
0000
0000
0000
0010
,  // measure 54
0100
0000
0100
0001
0000
0001
2000
0000
3200
0000
0000
0310
,  // measure 55
0100
0000
0100
1000
0000
1000
0002
0000
0203
0000
0000
0310
,  // measure 56
1000
0000
1000
0001
0000
0001
0010
0000
0010
0100
0000
0100
,  // measure 57
2000
0000
0000
3002
0000
0000
0203
0000
0000
0320
0000
1030
,  // measure 58
0001
0000
0001
0010
0000
0010
0200
0000
2300
0000
0000
3001
,  // measure 59
0100
0000
0100
0010
0000
0010
2000
0000
3002
0000
0000
1003
,  // measure 60
0100
0000
0100
0010
0000
0010
0001
0000
0001
1000
0000
1000
,  // measure 61
0020
0230
0302
2003
,  // measure 62
3200
0000
0000
0000
0000
0300
0110
0000
0000
0000
0000
0000
,  // measure 63
0010
0001
1001
0000
,  // measure 64
1000
0010
0100
0001
0000
1000
0200
0000
0000
0320
0000
0000
,  // measure 65
0031
0010
0100
1000
0000
0001
0200
0000
0000
0302
0000
0000
,  // measure 66
1003
0010
0100
0001
0000
1000
0200
0000
0000
2300
0000
3001
,  // measure 67
0100
0000
0100
0010
0000
0010
2000
0000
0000
3002
0000
0000
,  // measure 68
0013
0000
0010
0100
0000
0100
2000
0000
0000
3002
0000
0000
,  // measure 69
0103
0000
0100
0010
0000
0010
2000
0000
0000
3020
0000
0000
,  // measure 70
0130
0000
0100
0001
0000
0001
2000
0000
0000
3020
0000
0130
,  // measure 71
0001
0000
0001
1000
0000
1000
0200
0000
0000
0310
0000
0002
,  // measure 72
0000
0000
1003
0400
0000
0000
0310
0000
0100
4000
0000
0000
,  // measure 73
3001
0000
0100
0010
0000
0010
1000
0000
0000
0000
0000
0000
,  // measure 74
0001
0000
0010
0004
0000
0000
1003
0000
0100
0040
0000
0000
,  // measure 75
0031
0000
0001
1000
0000
1000
0010
0000
0000
0000
0000
0000
,  // measure 76
0100
0000
0100
0010
0000
0010
1000
0000
1000
0001
0000
0001
,  // measure 77
0010
0000
0010
0100
0000
0100
1000
0000
1000
0001
0000
0001
,  // measure 78
0100
0000
0100
0010
0000
0010
1000
0000
1000
0001
0000
0001
,  // measure 79
0010
0000
0010
0100
0000
0100
1000
0000
1000
0001
0000
0001
,  // measure 80
0100
0000
0100
0010
0000
0010
1000
0000
1000
0001
0000
0001
,  // measure 81
0010
0000
0010
0100
0000
0100
1000
0000
1000
0001
0000
0001
,  // measure 82
0100
0000
0100
0010
0000
0010
0100
0000
0100
0001
0000
0001
,  // measure 83
1000
0000
1000
0001
0000
0001
0010
0000
0010
0100
0000
0100
,  // measure 84
1000
0001
1000
0001
0000
0001
0020
0000
0000
0230
0000
0000
,  // measure 85
1300
0100
0010
0001
0000
1000
0020
0000
0000
0230
0000
0000
,  // measure 86
0301
0100
0010
1000
0000
0001
0020
0000
0000
0230
0000
1300
,  // measure 87
0001
0000
0001
0100
0000
0100
0020
0000
0000
2030
0000
0000
,  // measure 88
3001
0000
0001
0010
0000
0010
0200
0000
0000
2300
0000
0000
,  // measure 89
3001
0000
0001
1000
0000
1000
0200
0000
0000
0320
0000
0000
,  // measure 90
0031
0000
0001
1000
0000
1000
0020
0000
0000
0230
0000
0301
,  // measure 91
1000
0000
1000
0100
0000
0100
0020
0000
0000
0130
0000
0020
,  // measure 92
0000
0000
0000
0030
,  // measure 93
0001
0010
0100
1000
0000
0001
0200
0000
0000
0320
0000
0000
,  // measure 94
1030
0010
0100
0001
0000
1000
0200
0000
0000
0320
0000
0000
,  // measure 95
0031
0010
0100
1000
0000
0001
2000
0000
0000
3200
0000
0310
,  // measure 96
0001
0000
0001
1000
0000
1000
0020
0000
0000
0230
0000
0000
,  // measure 97
0301
0100
0010
1000
0000
0001
0020
0000
0000
0230
0000
0000
,  // measure 98
1300
0100
0010
0001
0000
1000
0020
0000
0000
2030
0000
0000
,  // measure 99
3001
0100
0010
1000
0000
0001
0020
0000
0000
0032
0000
1003
,  // measure 100
0010
0000
0010
0100
0000
0100
0002
0000
0000
2003
0000
3100
,  // measure 101
0010
0000
0010
0100
0000
0100
2000
0000
0000
3002
0000
0103
,  // measure 102
0010
0000
0010
1000
0000
1000
0002
0000
0000
0013
0000
0100
,  // measure 103
1000
0000
0001
0010
0100
0010
0001
0000
0000
1000
0000
0000
;

//---------------dance-single - Ace Of Arrows (2019)----------------
#NOTES:
     dance-single:
     Ace Of Arrows (2019):
     Challenge:
     10:
     0.770,0.489,0.620,0.830,0.987:
0000
0000
0000
0000
,
0000
0000
0000
0000
,
1100
0000
0100
0040
0000
0030
0011
0000
0001
4000
0000
3000
,
1010
0000
0010
0100
0001
1000
1100
0000
0000
0120
0000
0030
,
0011
0010
0100
1000
0100
0010
0012
0000
0000
2003
0000
3000
,
1010
0010
0100
0001
0100
0010
2010
0000
0000
3002
0000
0003
,
1001
1000
0100
0010
0100
1000
1200
0000
0000
0320
0000
0031
,
2001
0000
3010
0200
0000
0301
1000
0100
0010
0002
0000
1003
,
1010
0010
0100
0001
0100
0010
2010
0000
0000
3002
0000
0003
,
0011
0010
0100
1000
0100
0010
0012
0000
0000
2003
0000
3000
,
1100
0100
0010
0001
0010
0100
2100
0000
0000
3002
0000
0103
,
0120
0000
1030
0002
0000
0013
0100
1000
0100
0020
0000
0030
,
0011
0000
0001
1000
0010
1000
1001
0000
0001
0010
0100
1000
,
1001
0000
0001
0101
0100
0010
1010
0000
0000
1000
0000
0000
,
0001
0010
0100
0020
0000
0031
1000
0010
1000
0002
0000
1003
,
0100
0010
0100
2000
0000
3001
0201
0000
0000
0320
0000
0030
,
1010
1000
0001
0020
0000
0130
1000
0100
0010
0002
0000
1003
,
0010
0100
0010
2000
0000
3001
0201
0000
0000
0320
0000
0030
,
2010
0000
3001
0020
0030
0010
0200
0300
0100
2000
3000
1000
,
0002
0003
0001
0200
0300
0100
0020
0000
2030
0000
3000
0001
,
0020
0000
0031
2000
0000
3010
0200
0000
0000
0301
0000
2000
,
3100
0000
0010
0001
0010
0100
1100
0000
1000
0002
0000
1003
,
0010
0000
0010
0100
0000
0100
0002
0000
2003
0000
0000
3001
,
0010
0000
0010
0100
0000
0100
2000
0000
3002
0000
0000
1003
,
0010
0000
0010
0100
0000
0100
0001
0000
0001
1000
0000
1000
,
0002
0000
0000
0200
0000
0000
0010
0000
0000
1000
0303
0001
,
1000
0000
1000
0100
0000
0100
0020
0000
0032
0000
0000
1003
,
0010
0000
0010
0100
0000
0100
0001
1000
0002
0000
0000
0103
,
0010
0000
0010
1000
0000
1000
0001
0000
0001
0020
0000
0130
,
1100
0000
1000
0001
0100
0010
1010
0000
1000
0001
0010
0100
,
1100
0000
1000
1001
0001
0100
0110
0000
0000
2010
0000
3000
,
1001
0001
0010
0100
0000
1000
1002
0000
0000
0203
0000
0300
,
0110
0010
1000
0001
0000
0010
0210
0000
0000
2300
0000
3000
,
1001
0001
0100
0010
0000
1000
1002
0000
0000
0023
0000
0130
,
2100
0000
3001
0100
0000
0100
0110
0010
1000
0002
0000
0003
,
0011
0010
0100
1000
0001
0100
0120
0000
0000
2030
0000
3000
,
1001
0001
0100
0010
1000
0001
0021
0000
0000
0230
0000
0300
,
1100
1000
0001
0100
0010
1000
1002
0000
0000
0023
0000
0130
,
2100
0000
3001
0200
0000
0310
2010
0000
0000
3001
0000
0200
,
0310
1000
0010
0100
0001
0100
0120
0000
0000
2030
0000
0000
,
3001
0010
0001
1000
0100
1000
1002
0000
0000
0203
0000
0000
,
0310
0100
0010
1000
0001
1000
1200
0000
0000
0320
0000
0031
,
1000
0000
1000
0010
0000
0010
0100
0001
1000
0200
0000
0310
,
0011
0000
0001
1000
0010
0100
0101
0000
0001
1000
0100
0010
,
0011
0000
0001
1001
1000
0010
0110
0000
0000
0100
0000
0000
,
0101
0001
1000
0200
0000
0310
0011
0001
1000
0020
0000
0130
,
0101
0001
1000
0200
0000
0310
0012
0000
0000
2003
0000
3000
,
1010
0010
0100
0002
0000
1003
1100
0100
0010
0002
0000
1003
,
1010
0010
0100
0002
0000
1003
1020
0000
0000
0230
0000
0300
,
0102
0000
1003
0200
0300
0100
0020
0030
0010
0002
0003
0001
,
2000
3000
1000
0020
0030
0010
0100
0001
0200
0000
0300
0010
,
2010
0000
3001
0100
0000
0100
0010
0000
0010
2000
0000
3001
,
0011
0000
0010
0100
1000
0100
0110
0000
0010
0002
0000
1003
,
0010
0000
0010
0100
0000
0100
0002
0000
2003
0000
0000
3100
,
0010
0000
0010
0100
0000
0100
1000
0001
2000
0000
0000
3010
,
0100
0000
0100
0010
0000
0010
1000
0000
1000
0001
0000
0001
,
2000
0000
0000
0200
0000
0000
0010
0000
0000
0001
3300
1000
,
0001
0000
0001
0100
0000
0100
0020
0000
2030
0000
0000
3001
,
0010
0000
0010
0100
0000
0100
2000
0000
3002
0000
0000
0103
,
0010
0000
0010
1000
0000
1000
0001
0000
0001
0010
0000
0010
,
0210
0000
0000
2300
0000
3000
1001
0001
0100
0020
0000
1030
,
1001
0000
0001
0010
0100
1000
1001
0000
0001
0100
0010
1000
,
1001
0000
0001
0101
0100
0010
1010
0000
0000
2000
0000
3000
,
1001
0001
0100
0010
0000
0010
2010
0000
0000
3002
0000
0003
,
0011
0010
0100
1000
0000
1000
1002
0000
0000
0203
0000
0300
,
0110
0010
1000
0001
0000
0001
0021
0000
0000
0230
0000
1300
,
1002
0000
0103
0010
0000
0010
1010
1000
0001
0010
0000
0100
,
1100
1000
0001
0100
0000
0100
0120
0000
0000
2030
0000
3000
,
1001
0001
0100
0010
0000
0010
2010
0000
0000
3002
0000
0003
,
0011
0010
0100
1000
0000
1000
1002
0000
0000
0203
0000
0310
,
2010
0000
3001
0010
0000
0010
0110
0100
1000
0001
0000
0100
,
0110
0000
0010
4000
0000
3000
1001
0000
0001
0040
0000
0030
,
0110
0000
0100
1000
0001
0100
0110
0000
0010
4000
0000
3000
,
1001
0000
0001
0400
0000
0300
0110
0000
0010
4000
0000
3000
,
1001
0000
0001
0010
0100
1000
1001
0000
0001
0200
0000
0000
,
0310
0000
0010
1000
0000
1000
0100
0000
0100
0001
0000
0001
,
0100
0000
0100
1000
0000
1000
0001
0000
0001
0100
0000
0100
,
0010
0000
0010
0001
0000
0001
0010
0000
0010
1000
0000
1000
,
0001
0000
0001
1000
0000
1000
0001
0010
0100
1000
0000
1000
,
0001
0000
0001
1000
0000
1000
0010
0000
0010
0001
0000
0001
,
0010
0000
0010
1000
0000
1000
0001
0000
0001
0010
0000
0010
,
0100
0000
0100
1000
0000
1000
0001
0000
0001
0100
0000
0100
,
1000
0000
1000
0100
0000
0100
0001
1000
0100
0010
0000
0010
,
0001
0010
0100
1000
0000
1000
0002
0000
0000
0203
0000
0000
,
0310
1000
0001
0010
0000
0010
0200
0000
0000
2300
0000
0000
,
3001
0100
0010
1000
0000
1000
0002
0000
0000
0023
0000
0130
,
1000
0000
1000
0001
0000
0001
0200
0000
0000
0320
0000
0000
,
1030
0001
0010
0100
0010
0001
2000
0000
0000
3020
0000
0000
,
0130
0001
1000
0100
0010
0100
2000
0000
0000
3002
0000
0000
,
0103
0010
1000
0001
0000
0001
2000
0000
0000
3200
0000
0310
,
0001
0000
0001
1000
0000
1000
0020
0000
0000
0130
0000
0002
,
0000
0000
1003
0100
0010
0100
1000
0000
0000
1002
0000
0003
,
0101
0100
0010
1000
0000
1000
1002
0000
0000
0023
0000
0030
,
0110
0100
1000
0001
0000
0001
0201
0000
0000
0320
0000
0030
,
1010
1000
0001
0010
0000
0010
0210
0000
0000
2300
0000
3001
,
0201
0000
0310
2000
0000
3001
0011
0010
0100
1000
0000
1000
,
1001
0001
0100
0010
0000
0010
2010
0000
0000
3002
0000
0003
,
0011
0010
0100
1000
0000
1000
1002
0000
0000
0203
0000
0300
,
0110
0010
1000
0001
0010
0100
2100
0000
0000
3002
0000
0103
,
0120
0000
1030
0001
0000
0001
0021
0000
0000
0230
0000
1300
,
1002
0000
0103
0010
0000
0010
1010
1000
0001
0010
0000
0010
,
0210
0000
1300
0001
0000
0001
0201
0000
0000
0320
0000
1030
,
1001
0000
0001
0010
0100
2000
0002
0000
0000
0010
0000
0000
,
3003
0000
0000
0000
;

//---------------dance-single - Ace Of Arrows (2019)----------------
#NOTES:
     dance-single:
     Ace Of Arrows (2019):
     Medium:
     6:
     0.540,0.128,0.000,1.000,0.272:
0000
0000
0000
0000
,
0000
0000
0000
0000
,
0001
0000
0010
0000
,
0001
1000
0001
0000
,
2000
0000
3010
1000
0000
0000
0002
0000
0000
0023
0000
0000
,
0230
0000
1300
0001
0000
0000
2000
0000
0000
3002
0000
0000
,
2003
0000
3010
0100
0000
0000
0002
0000
0000
2003
0000
0000
,
3200
0000
0000
0320
0000
0031
2000
0000
0000
3002
0000
0000
,
0203
0000
0310
1000
0000
0000
0002
0000
0000
0023
0000
0000
,
0230
0000
1300
0001
0000
0000
2000
0000
0000
3020
0000
0000
,
0230
0000
0301
1000
0000
0000
0002
0000
0000
0023
0000
0000
,
0230
0000
0000
2300
0000
3001
0200
0000
0000
0302
0000
0000
,
1003
0000
0001
0000
,
0010
0100
0010
0000
,
0001
0000
1000
0200
0000
0000
0320
0000
0130
2000
0000
0000
,
3002
0000
0000
0203
0000
0310
2000
0000
0000
3002
0000
0000
,
0023
0000
0130
2000
0000
0000
3200
0000
0310
0002
0000
0000
,
2003
0000
0000
3002
0000
0103
0020
0000
0000
2030
0000
0000
,
3002
0000
0013
0200
0000
0000
0320
0000
0000
0032
0000
0000
,
2003
0000
3010
0200
0000
0000
0320
0000
2030
0000
3000
0000
,
0002
0000
0013
0200
0000
0000
0320
0000
0000
0031
0000
2000
,
0000
0000
3000
0000
,
0002
0000
0103
0020
0000
0000
0230
0000
0302
0000
0003
0000
,
2000
0000
3001
0020
0000
0000
0032
0000
2003
0000
3000
0000
,
0020
0000
0130
0002
0000
0000
2003
0000
0000
3002
0000
0013
,
0200
2300
3002
2003
,
3020
0000
0130
0002
0000
0000
2003
0000
3200
0000
0300
0000
,
0020
0000
0130
2000
0000
0000
3002
0000
0203
0000
0300
0000
,
0020
0000
0130
0002
0000
0000
2003
0000
0000
3020
0000
0230
,
0000
0000
0300
0000
,
0001
1000
0001
0000
,
0020
0000
0130
1000
0000
0000
0002
0000
0000
0203
0000
0000
,
0320
0000
1030
0001
0000
0000
0020
0000
0000
0230
0000
0000
,
2300
0000
3001
0100
0000
0000
0020
0000
0000
0230
0000
0000
,
0302
0000
1003
0100
0000
0000
0020
0000
0000
0230
0000
0000
,
2300
0000
3001
0010
0000
0000
0002
0000
0000
2003
0000
0000
,
3020
0000
0130
0001
0000
0000
2000
0000
0000
3200
0000
0000
,
0320
0000
0130
1000
0000
0000
0002
0000
0000
0203
0000
0000
,
0320
0000
0000
2030
0000
3001
0020
0000
0000
0130
0000
2000
,
0000
0000
3000
0000
,
0002
0000
0013
0100
0000
0000
0020
0000
0000
0032
0000
0000
,
2003
0000
3010
0100
0000
0000
0020
0000
0000
2030
0000
0000
,
3002
0000
0013
0100
0000
0000
2000
0000
0000
3002
0000
0000
,
0103
0000
0010
0000
,
1000
0001
1000
0000
,
0002
0000
0013
0200
0000
0000
2300
0000
3001
0200
0000
0000
,
0302
0000
0000
2003
0000
3010
0200
0000
0000
0302
0000
0000
,
2003
0000
3100
0020
0000
0000
0230
0000
1300
0002
0000
0000
,
2003
0000
0000
3020
0000
1030
0002
0000
0000
0023
0000
0000
,
0230
0000
1300
0002
0000
0000
2003
0000
3010
0200
0000
0000
,
0302
0000
1003
0200
0000
0000
0320
0000
0032
0000
0000
1003
,
0020
0000
0000
0230
0000
0301
2000
0000
0000
3002
0000
0023
,
0000
0000
0030
0000
,
0200
0000
1300
0002
0000
0000
2003
0000
3020
0000
0030
0000
,
2000
0000
3001
0020
0000
0000
0230
0000
2300
0000
3000
0000
,
0002
0000
0103
0020
0000
0000
0230
0000
0301
2000
0000
0000
,
3002
0023
0230
2300
,
3002
0000
1003
0020
0000
0000
0230
0000
0302
0000
0003
0000
,
2000
0000
3100
0020
0000
0000
0230
0000
2300
0000
3000
0000
,
0002
0000
0103
0020
0000
0000
0230
0000
0301
2000
0000
0000
,
3002
0203
0320
2030
,
3002
0000
0003
0000
,
1000
0100
1000
0000
,
0002
0000
0013
0100
0000
0000
2000
0000
0000
3002
0000
0000
,
0203
0000
0310
1000
0000
0000
0002
0000
0000
0023
0000
0000
,
0230
0000
1300
0001
0000
0000
2000
0000
0000
3020
0000
0000
,
2030
0000
0000
3002
0000
0013
0200
0000
0000
2300
0000
0000
,
3002
0000
0103
0010
0000
0000
2000
0000
0000
3002
0000
0000
,
0023
0000
0130
1000
0000
0000
0002
0000
0000
0203
0000
0000
,
0320
0000
1030
0001
0000
0000
0020
0000
0000
0230
0000
0000
,
2300
0000
0000
3002
0000
0000
0203
0000
0000
0310
0000
2000
,
0000
3004
0013
0400
,
1300
0001
1000
0004
,
0103
0040
1030
0004
,
1003
0100
1000
0000
,
0002
0000
0013
0200
0000
0000
2300
0000
0000
3002
0000
0000
,
2003
0000
3010
0200
0000
0000
0302
0000
0000
2003
0000
0000
,
3002
0000
0013
0200
0000
0000
2300
0000
0000
3002
0000
0000
,
0203
0000
0310
2000
0000
0000
3002
0000
1003
0010
0000
0000
,
2000
0000
3001
0020
0000
0000
0230
0000
0000
2300
0000
0000
,
3002
0000
1003
0020
0000
0000
0230
0000
0000
0302
0000
0000
,
2003
0000
3001
0200
0000
0000
0320
0000
0000
2030
0000
0000
,
3002
0000
0013
0200
0000
0000
0320
0000
0031
1000
0000
0000
,
0002
0000
0103
0010
0000
0000
2000
0000
0000
3002
0000
0000
,
0023
0000
0130
1000
0000
0000
0002
0000
0000
2003
0000
0000
,
3020
0000
0130
0001
0000
0000
0200
0000
0000
0320
0000
0000
,
2030
0000
3001
0010
0000
0000
0200
0000
0000
2300
0000
0000
,
3002
0000
0103
0010
0000
0000
0200
0000
0000
0302
0000
0000
,
2003
0000
3001
0010
0000
0000
0200
0000
0000
2300
0000
0000
,
3002
0000
0103
0010
0000
0000
0200
0000
0000
0302
0000
0000
,
2003
0000
0000
3200
0000
0310
0002
0000
0000
1003
0000
0020
,
0000
0000
0030
0000
,
0200
0000
0301
1000
0000
0000
0200
0000
0000
0320
0000
0000
,
0032
0000
1003
0010
0000
0000
2000
0000
0000
3002
0000
0000
,
0023
0000
0130
1000
0000
0000
0002
0000
0000
0203
0000
0000
,
0320
0000
0000
2030
0000
3001
0020
0000
0000
0230
0000
0000
,
2300
0000
3001
0100
0000
0000
0020
0000
0000
0230
0000
0000
,
0302
0000
1003
0100
0000
0000
0020
0000
0000
0230
0000
0000
,
2300
0000
3001
0100
0000
0000
0020
0000
0000
2030
0000
0000
,
3002
0000
0013
0100
0000
0010
0200
0000
0000
2300
0000
0000
,
3002
0000
1003
0010
0000
1000
0020
0000
0000
0230
0000
0000
,
0302
0000
1003
0100
0000
1000
0200
0000
0000
0310
0000
0002
,
0000
1003
0001
0010
;

//---------------dance-single - Ace Of Arrows (2019)----------------
#NOTES:
     dance-single:
     Ace Of Arrows (2019):
     Easy:
     3:
     0.241,0.128,0.000,0.325,0.000:
0000
0000
0000
0000
,
0000
0000
0000
0000
,
1000
0000
1000
0000
,
0001
0001
0001
0000
,
0100
0100
0200
0300
,
0010
0010
0020
0030
,
0100
0100
0200
0300
,
0001
0001
0002
0003
,
1000
1000
2000
3000
,
0100
0100
0200
0300
,
0010
0010
0020
0030
,
0001
0001
0002
0003
,
1000
0000
1000
0000
,
0100
0100
0100
0000
,
0010
0010
0010
0000
,
0001
0001
0002
0003
,
1000
1000
1000
0000
,
0010
0010
0020
0030
,
0100
0100
0200
0300
,
0001
0001
0001
0000
,
1000
1000
1000
0000
,
2000
0000
3000
0000
,
0100
0100
0100
0000
,
0010
0010
0010
0000
,
0001
0001
0001
0000
,
2000
0000
3000
0000
,
0010
0010
0010
0000
,
0100
0100
0100
0000
,
0001
0001
0001
0000
,
0200
0000
0300
0000
,
0010
0010
0010
0000
,
1000
1000
2000
3000
,
0001
0001
0002
0003
,
0010
0010
0020
0030
,
0200
0000
0300
0000
,
1000
1000
2000
3000
,
0001
0001
0002
0003
,
0100
0100
0200
0300
,
0010
0010
0010
0000
,
2000
0000
3000
0000
,
0001
0001
0002
0003
,
0010
0010
0020
0030
,
0100
0100
0200
0300
,
1000
0000
1000
0000
,
0001
0001
0001
0000
,
0100
0100
0100
0000
,
0010
0010
0020
0030
,
1000
1000
1000
0000
,
0001
0001
0002
0003
,
0010
0010
0020
0030
,
0100
0100
0100
0000
,
1000
1000
1000
0000
,
0002
0000
0003
0000
,
1000
1000
1000
0000
,
0010
0010
0020
0030
,
0100
0100
0100
0000
,
0002
0000
0003
0000
,
1000
1000
1000
0000
,
0100
0100
0100
0000
,
0010
0010
0010
0000
,
0001
0001
0001
0000
,
2000
0000
3000
0000
,
0010
0010
0010
0000
,
0100
0100
0200
0300
,
0001
0001
0002
0003
,
1000
1000
2000
3000
,
0200
0000
0300
0000
,
0010
0010
0020
0030
,
0001
0001
0002
0003
,
1000
1000
2000
3000
,
0010
0010
0010
0000
,
0400
0000
0000
0300
,
0001
0001
0001
0000
,
4000
0000
0000
3000
,
0100
0100
0100
0000
,
0010
0010
0020
0030
,
0001
0001
0002
0003
,
1000
1000
2000
3000
,
0010
0010
0020
0030
,
0100
0100
0200
0300
,
0001
0001
0002
0003
,
1000
1000
2000
3000
,
0100
0100
0200
0300
,
0010
0010
0020
0030
,
0100
0100
0200
0300
,
1000
1000
2000
3000
,
0002
0000
0003
0000
,
0100
0100
0200
0300
,
0010
0010
0020
0030
,
1000
1000
2000
3000
,
0001
0001
0001
0000
,
0020
0000
0030
0000
,
0100
0100
0200
0300
,
1000
1000
2000
3000
,
0001
0001
0002
0003
,
0100
0100
0200
0300
,
0010
0010
0020
0030
,
1000
1000
2000
3000
,
0001
0001
0002
0003
,
0010
0010
0020
0030
,
0100
0100
0200
0300
,
1000
1000
1000
0000
,
0002
0000
0003
1000
;

//---------------dance-single - Ace Of Arrows (2019)----------------
#NOTES:
     dance-single:
     Ace Of Arrows (2019):
     Beginner:
     1:
     0.136,0.102,0.000,0.245,0.000:
0000
0000
0000
0000
,
0000
0000
0000
0000
,
0001
0000
0001
0000
,
0002
0000
0003
0000
,
0010
0000
0000
0000
,
0010
0000
0000
0000
,
0010
0000
0000
0000
,
0020
0000
0030
0000
,
0100
0000
0000
0000
,
0100
0000
0000
0000
,
0100
0000
0000
0000
,
0200
0000
0300
0000
,
1000
0000
1000
0000
,
2000
0000
3000
0000
,
0001
0000
0001
0000
,
0002
0000
0003
0000
,
0100
0000
0100
0000
,
0200
0000
0300
0000
,
0010
0000
0010
0000
,
0020
0000
0030
0000
,
1000
0000
1000
0000
,
2000
0000
3000
0000
,
0001
0000
0001
0000
,
0002
0000
0003
0000
,
0010
0000
0010
0000
,
0020
0000
0030
0000
,
0100
0000
0100
0000
,
0200
0000
0300
0000
,
1000
0000
1000
0000
,
2000
0000
3000
0000
,
0002
0000
0003
0000
,
0100
0000
0100
0000
,
0200
0000
0300
0000
,
0010
0000
0010
0000
,
0020
0000
0030
0000
,
1000
0000
1000
0000
,
2000
0000
3000
0000
,
0001
0000
0001
0000
,
0002
0000
0003
0000
,
1000
0000
0000
0000
,
1000
0000
0000
0000
,
1000
0000
0000
0000
,
2000
0000
3000
0000
,
0100
0000
0100
0000
,
0200
0000
0300
0000
,
0010
0000
0010
0000
,
0020
0000
0030
0000
,
0001
0000
0001
0000
,
0002
0000
0003
0000
,
1000
0000
1000
0000
,
2000
0000
3000
0000
,
0010
0000
0010
0000
,
0020
0000
0030
0000
,
0100
0000
0100
0000
,
0200
0000
0300
0000
,
0001
0000
0001
0000
,
0002
0000
0003
0000
,
1000
0000
1000
0000
,
2000
0000
3000
0000
,
0100
0000
0100
0000
,
0200
0000
0300
0000
,
0010
0000
0010
0000
,
0020
0000
0030
0000
,
0001
0000
0001
0000
,
0002
0000
0003
0000
,
1000
0000
1000
0000
,
2000
0000
3000
0000
,
0010
0000
0010
0000
,
0020
0000
0030
0000
,
1000
0000
1000
0000
,
2000
0000
3000
0000
,
0004
0000
0003
0000
,
0002
0000
0003
0000
,
0040
0000
0030
0000
,
0020
0000
0030
0000
,
0100
0000
0100
0000
,
0200
0000
0300
0000
,
1000
0000
1000
0000
,
2000
0000
3000
0000
,
0001
0000
0001
0000
,
0002
0000
0003
0000
,
0100
0000
0100
0000
,
0200
0000
0300
0000
,
0010
0000
0010
0000
,
0020
0000
0030
0000
,
1000
0000
1000
0000
,
2000
0000
3000
0000
,
0001
0000
0001
0000
,
0002
0000
0003
0000
,
0010
0000
0010
0000
,
0020
0000
0030
0000
,
0200
0000
0300
0000
,
1000
0000
1000
0000
,
2000
0000
3000
0000
,
0001
0000
0001
0000
,
0002
0000
0003
0000
,
0100
0000
0100
0000
,
0200
0000
0300
0000
,
0001
0000
0001
0000
,
0002
0000
0003
0000
,
0002
0000
0003
0000
,
0002
0000
0003
0000
,
1000
0000
1000
0000
;
