#TITLE:Dolphin and Broadcast;
#SUBTITLE:;
#ARTIST:Ono feat. Uranyan;
#TITLETRANSLIT:;
#SUBTITLETRANSLIT:;
#ARTISTTRANSLIT:;
#GENRE:;
#CREDIT:Ace Of Arrows;
#BANNER:Dolphin and Broadcast - Bn.png;
#BACKGROUND:Dolphin and Broadcast - Bg.jpg;
#LYRICSPATH:;
#CDTITLE:Ace Of Arrows.png;
#MUSIC:Dolphin and Broadcast.ogg;
#OFFSET:0.870;
#SAMPLESTART:85.300;
#SAMPLELENGTH:12.000;
#SELECTABLE:YES;
#BPMS:0.000=128.000;
#STOPS:;
#BGCHANGES:;
#KEYSOUNDS:;

//---------------dance-single - Ace Of Arrows (2019)----------------
#NOTES:
     dance-single:
     Ace Of Arrows (2019):
     Challenge:
     9:
     0.694,0.000,0.695,1.000,0.246:
0000
0000
0000
0000
,
0000
0000
0000
0000
,
0000
0000
0000
0000
,
0000
0000
0000
0000
,
2000
0000
0000
3000
,
1002
0000
0103
0010
0100
0000
0001
0000
1000
0000
0100
0010
0000
0010
0001
0000
,
1001
0000
1000
0000
0010
0000
0200
0000
0000
0000
0301
1000
0001
0000
0010
0000
,
0210
0000
0000
1300
0000
0000
1002
0000
0000
0000
0103
0010
0100
0000
0001
0000
,
1001
0000
1000
0000
0100
0000
0020
0000
0000
0000
0130
0010
0100
0000
1000
0000
,
1002
0000
0000
0103
0000
0000
0120
0000
0000
0000
1030
0001
1000
0000
0100
0000
,
0110
0000
0010
0000
0001
0000
2000
0000
0000
0000
3001
0100
0001
0000
1000
0000
,
1200
0000
0000
0310
0000
0000
0012
0000
0000
0000
1003
0000
0010
0000
0100
0000
,
0000
0020
0030
2010
0000
3002
0000
0013
,
0210
0000
1300
0000
0001
0000
0200
0000
0310
1000
0010
0000
1000
0001
1000
0000
,
1200
0000
0310
0100
1000
0002
0003
1000
,
1010
0000
0010
0000
0100
0000
0002
0000
0000
0000
1003
0100
0010
0001
0010
0100
,
1000
0000
0001
0100
0010
2000
3000
0001
,
0101
0000
0100
0000
0010
0000
2000
0000
0000
0000
3001
0100
0010
1000
0010
0100
,
0001
0000
1000
0100
0010
0200
0300
1000
,
1001
0000
0001
0000
0100
0000
0020
0000
0000
0000
1030
0001
0100
0001
1000
0100
,
1000
0002
0000
0203
0000
0320
0030
2010
,
0000
0000
3001
0010
0001
0000
2001
0000
0000
0000
3000
0000
1010
0000
0000
0000
,
0102
0000
1003
0100
0010
0100
0000
1000
,
1001
0000
0001
0000
0100
0000
0020
0000
0000
0000
1030
0010
1000
0000
0001
0000
,
0021
0000
0130
1000
1001
0001
0000
0100
,
0110
0000
0010
0000
1000
0000
0002
0000
0000
0000
1003
0100
1000
0000
0001
0000
,
0101
0000
0100
0010
1010
1000
0000
0001
,
0011
0000
0010
0000
0100
0000
2000
0000
0000
0000
3001
0100
0001
0000
1000
0000
,
1100
0200
0000
0320
0000
0032
0003
1000
,
1020
0000
0130
0000
0001
0000
2000
0000
3001
0010
0100
0010
0001
0000
1000
0000
,
1020
0000
0000
0230
0000
0000
0302
0000
0000
0000
0003
0000
0000
0000
1000
0000
,
1200
0310
0001
2002
0000
0000
3003
1000
,
1020
0000
0000
0230
0000
0000
0302
0000
0000
0000
2003
0000
3000
0000
1200
0000
,
0000
0310
0001
2002
0000
0000
3003
1000
,
1020
0000
0000
0230
0000
0300
0202
0000
0000
0000
0000
0000
0303
0000
0001
0000
,
2001
3100
0010
0022
0033
0001
1000
1200
,
0000
0320
0030
0012
0000
1003
0010
0220
,
0030
0000
0000
0000
0000
0000
0301
0000
0000
1000
0000
0000
0000
0000
0000
1000
0000
0000
0100
0000
0000
0010
0000
0000
0001
0000
0000
0000
0010
0000
0000
0000
0100
0000
0000
0000
1000
0000
0000
0001
0000
0000
1000
0000
0000
0000
0000
0000
,
1020
0000
0000
0230
0000
0300
0202
0000
0000
0000
0000
0000
0303
0000
0001
0000
,
2001
3100
0010
0022
0000
0033
0000
0001
,
2001
0000
0000
3020
0000
0030
0210
0000
0000
0000
0302
0000
0000
0003
2001
0000
,
0000
3010
0100
0202
0000
0000
0303
0001
,
2001
0000
0000
3200
0000
0300
0220
0000
0000
0000
0000
0000
0330
0000
0010
0000
,
0012
1003
0010
0200
0300
0001
1000
1020
,
0000
0000
0230
0000
0000
0300
0102
0000
0000
0000
1003
0000
0100
0000
0220
0000
,
0300
0000
0031
0010
0001
0000
1000
0010
1000
0001
0010
0001
1000
0001
0010
0000
,
0210
1300
0001
0202
0000
0000
0303
0100
,
0120
0000
0000
2030
0000
3000
2002
0000
0000
0000
0000
0000
3003
0000
0000
0000
,
0021
0130
1000
2002
0000
0000
3003
0001
,
0201
0000
0000
0310
0000
0000
2020
0000
0000
0000
0000
0000
3030
0000
0000
0000
,
1002
0013
0100
2200
0000
0000
3300
1000
,
1002
0000
0000
0203
0000
0300
0120
0000
0000
0000
1030
0000
0001
0000
0022
0000
,
0033
0020
0030
0210
0000
2300
0000
3001
,
0201
0000
0310
0000
1000
0000
2002
0000
3000
0000
1003
0001
0010
0001
1000
0100
;

//---------------dance-single - Ace Of Arrows (2019)----------------
#NOTES:
     dance-single:
     Ace Of Arrows (2019):
     Hard:
     7:
     0.448,0.000,0.010,0.782,0.087: // measure 1
0000
0000
0000
0000
,  // measure 2
0000
0000
0000
0000
,  // measure 3
0000
0000
0000
0000
,  // measure 4
0000
0000
0000
0000
,  // measure 5
0000
0000
0000
0000
,  // measure 6
2000
0000
0000
0000
0000
0000
0000
0000
3001
0000
0010
0100
0000
0010
0100
0000
,  // measure 7
1000
0001
0100
0020
0000
0000
0030
1000
,  // measure 8
0002
0000
0000
0013
0000
0000
0200
0000
0000
0000
0000
0000
0300
0000
0000
0000
,  // measure 9
1000
0001
0100
0002
0000
0000
0003
1000
,  // measure 10
0020
0000
0000
0130
0000
0000
0002
0000
0000
0000
0000
0000
0003
0000
0000
0000
,  // measure 11
1000
0100
0010
0200
0000
0000
0300
1000
,  // measure 12
0002
0000
0000
1003
0000
0000
0020
0000
0000
0000
0130
0000
0001
0000
1000
0000
,  // measure 13
0000
0200
0000
0320
0000
0032
0000
1003
,  // measure 14
0010
1000
0001
0200
0000
0000
0300
0000
,  // measure 15
0002
0000
1003
0100
0010
0100
0000
1000
,  // measure 16
0001
0100
0001
2000
0000
3004
0000
0000
,  // measure 17
0003
0000
0010
0100
1000
0100
0000
0010
,  // measure 18
0001
1000
0001
0200
0000
0320
0000
0000
,  // measure 19
0030
0000
1000
0001
0010
0001
0000
0010
,  // measure 20
0100
1000
0001
0200
0000
0340
0000
1030
,  // measure 21
0001
0020
0000
0230
0000
1300
0000
0002
,  // measure 22
0000
0103
0010
0200
0000
0300
0101
0000
,  // measure 23
0002
0000
1003
0010
0100
0010
0000
1000
,  // measure 24
0001
0010
0100
0020
0000
0430
0000
0000
,  // measure 25
0300
0000
1000
0001
0100
0001
0000
1000
,  // measure 26
0010
0100
0001
2000
0000
3200
0000
0000
,  // measure 27
0300
0000
0010
0001
1000
0001
0000
1000
,  // measure 28
0010
0100
0010
2000
0000
3004
0000
0013
,  // measure 29
0100
2000
0000
3002
0000
0203
0300
0010
,  // measure 30
1000
0001
0010
0200
0000
1300
0001
0100
,  // measure 31
0020
0000
0000
0130
0000
0000
0002
0000
0000
0000
0000
0000
0003
0000
1000
0000
,  // measure 32
0100
0010
0100
2000
0000
0000
3000
0001
,  // measure 33
0200
0000
0000
0320
0000
0000
2030
0000
0000
0000
3002
0000
0000
0000
0023
0000
,  // measure 34
0000
0130
1000
0002
0000
0000
0003
1000
,  // measure 35
0020
0000
0000
2030
0000
0000
3002
0000
0000
0000
0000
0000
0003
0000
0010
0000
,  // measure 36
0100
0010
0001
1000
0000
0001
0100
0020
,  // measure 37
0000
2030
0000
3002
0000
0013
0100
2000
,  // measure 38
0000
0000
0000
3004
0000
0000
0000
0000
0000
0000
0000
0000
1003
0000
0100
0000
0010
0000
0001
0000
0000
0000
0000
0000
,  // measure 39
2000
0000
0000
3020
0000
0000
0230
0000
0000
0000
0000
0000
0300
0000
0001
0000
,  // measure 40
1000
0100
0010
0200
0000
0000
0300
1000
,  // measure 41
0002
0000
0000
0203
0000
0000
0320
0000
0000
0000
2030
0000
0000
0000
3002
0000
,  // measure 42
0000
1003
0100
0020
0000
0000
0030
0100
,  // measure 43
2000
0000
0000
3002
0000
0000
0203
0000
0000
0000
0000
0000
0300
0000
0010
0000
,  // measure 44
1000
0001
0010
0100
0000
0010
0001
2000
,  // measure 45
0000
3002
0000
0203
0000
0310
1000
0002
,  // measure 46
0000
0000
0000
0000
0000
0000
1003
0000
0000
0000
0000
0000
0001
0000
0010
0000
0100
0000
1000
0000
0000
0001
0000
0000
,  // measure 47
0100
0010
0100
0002
0000
0000
0003
1000
,  // measure 48
0200
0000
0000
0320
0000
0000
0032
0000
0000
0000
0000
0000
0003
0000
0000
0000
,  // measure 49
1000
0010
1000
0002
0000
0000
0003
0010
,  // measure 50
0200
0000
0000
2300
0000
0000
3002
0000
0000
0000
0000
0000
0003
0000
0000
0000
,  // measure 51
1000
0010
0100
0020
0000
0000
0030
1000
,  // measure 52
0002
0000
0000
0023
0000
0000
0230
0000
0000
0000
1300
0000
0001
0000
0100
0000
,  // measure 53
0000
0020
0000
2030
0000
3002
0000
1003
,  // measure 54
0010
0100
0001
2000
0000
3001
0010
0100
;

//---------------dance-single - Ace Of Arrows (2019)----------------
#NOTES:
     dance-single:
     Ace Of Arrows (2019):
     Medium:
     5:
     0.367,0.000,0.000,0.898,0.000:
0000
0000
0000
0000
,
0000
0000
0000
0000
,
0000
0000
0000
0000
,
0000
0000
0000
0000
,
0000
0000
0000
0000
,
0002
0000
4003
3000
,
0002
0000
0103
0020
0000
0000
0030
1000
,
0002
0000
0003
0020
0000
0000
0030
0000
,
0002
0000
1003
0200
0000
0000
0300
0010
,
0002
0000
0003
2000
0000
0000
3000
0000
,
0020
0000
0130
0002
0000
0000
0003
1000
,
0200
0000
0300
0020
0000
0000
0130
1000
,
0000
0002
0000
2003
0000
3020
0000
0130
,
0002
0000
1003
0200
0000
0000
0300
0000
,
0000
0000
0010
0000
0001
1000
0000
0100
,
0010
0000
0001
0020
0000
0000
0000
0030
,
0000
0000
0100
0000
1000
0001
0000
1000
,
0020
0000
0130
0002
0000
2003
0000
0000
,
3000
0000
0001
0000
0010
0100
0000
0010
,
0002
0000
1003
0020
0000
0130
0000
0000
,
0001
2000
0000
3200
0000
0320
0000
0032
,
0000
0000
1003
0020
0000
0000
0030
0000
,
0000
0000
2000
0000
3001
0010
0000
0001
,
2000
0000
3100
0020
0000
0000
0000
0000
,
0030
0000
0002
0000
1003
0010
0000
1000
,
0002
0000
0013
0200
0000
2300
0000
0000
,
3000
0000
0002
0000
0103
0010
0000
1000
,
0002
0000
0013
0200
0000
1300
0000
0000
,
0001
0020
0000
0032
0000
2003
0000
3010
,
0200
0000
0301
2000
0000
0000
3000
0000
,
0002
0000
0000
0023
0000
0000
0000
0130
,
2000
0000
3001
0200
0000
0000
0000
0310
,
2000
0000
0000
3002
0000
0023
0000
0230
,
0000
0000
1300
0002
0000
0000
0000
1003
,
0020
0000
0000
0230
0000
0000
0000
0301
,
2000
0000
3001
0010
0000
0000
0100
2000
,
0000
3002
0000
0203
0000
0000
0310
4000
,
0000
3000
0004
0003
,
0020
0000
0000
0230
0000
0000
0300
1000
,
0002
0000
0103
0020
0000
0000
0030
1000
,
0002
0000
0000
0023
0000
0230
0000
2300
,
0000
0000
3001
0200
0000
0000
0300
0010
,
2000
0000
0000
3002
0000
0000
0003
0010
,
0200
0000
0310
0002
0000
1003
0000
0020
,
0000
2030
0000
3002
0000
0000
0013
0200
,
0000
0000
4300
3000
,
0002
0000
0103
0020
0000
0000
0030
1000
,
0002
0000
0000
0023
0000
0000
0030
0000
,
0200
0000
1300
0002
0000
0000
0003
1000
,
0020
0000
0000
0230
0000
0000
0300
0000
,
0020
0000
1030
0002
0000
0000
0003
0010
,
0200
0000
0000
2300
0000
0000
3001
0100
,
0000
0020
0000
0230
0000
0302
0000
1003
,
0200
0000
0310
0002
0000
0000
1003
0010
;

//---------------dance-single - Ace Of Arrows (2019)----------------
#NOTES:
     dance-single:
     Ace Of Arrows (2019):
     Easy:
     4:
     0.199,0.000,0.000,0.367,0.000:
0000
0000
0000
0000
,
0000
0000
0000
0000
,
0000
0000
0000
0000
,
0000
0000
0000
0000
,
0000
0000
0000
0000
,
2000
0000
3000
0000
,
0001
0000
0000
0002
0000
0000
0003
0000
,
0010
0000
0000
0020
0000
0000
0030
0000
,
0100
0000
0000
0200
0000
0000
0300
0000
,
1000
0000
0000
2000
0000
0000
3000
0000
,
0001
0000
0000
0002
0000
0000
0003
0000
,
0100
0000
0000
0200
0000
0000
0300
0000
,
0000
0010
0000
0020
0000
0000
0030
0000
,
1000
0000
0000
2000
0000
0000
3000
0000
,
0000
0001
0001
0000
,
0010
0000
0000
0020
0000
0000
0030
0000
,
0000
0100
0100
0000
,
1000
0000
0000
1000
0000
2000
0000
0000
,
3000
0001
0001
0000
,
0100
0000
0000
0100
0000
0100
0000
0000
,
0010
0000
0000
0020
0000
0030
0000
1000
,
0000
1000
0000
2000
0000
0000
3000
0000
,
0000
0001
0001
0000
,
0010
0000
0000
0020
0000
0000
0030
0000
,
0000
0100
0100
0000
,
1000
0000
0000
1000
0000
2000
0000
0000
,
3000
0001
0001
0000
,
0100
0000
0000
0100
0000
0100
0000
0000
,
0010
0000
0000
0010
0000
0010
0000
0000
,
0100
0000
0000
0200
0000
0000
0300
0000
,
0001
0000
0000
0002
0000
0000
0003
0000
,
1000
0000
0000
2000
0000
0000
3000
0000
,
0100
0000
0000
0200
0000
0000
0300
0010
,
0000
0010
0000
0020
0000
0000
0030
0000
,
0001
0000
0000
0002
0000
0000
0003
0000
,
1000
0000
0000
1000
0000
0000
0000
0020
,
0000
0030
0000
0100
0000
0100
0000
0200
,
0000
0000
0300
0000
,
0001
0000
0000
0002
0000
0000
0003
0000
,
1000
0000
0000
2000
0000
0000
3000
0000
,
0100
0000
0000
0200
0000
0300
0000
0010
,
0000
0010
0000
0020
0000
0000
0030
0000
,
0001
0000
0000
0002
0000
0000
0003
0000
,
0010
0000
0000
0010
0000
0000
0000
0100
,
0000
0100
0000
0200
0000
0300
0000
2000
,
0000
0000
3000
0000
,
0001
0000
0000
0002
0000
0000
0003
0000
,
0100
0000
0000
0200
0000
0000
0300
0000
,
0010
0000
0000
0020
0000
0000
0030
0000
,
1000
0000
0000
2000
0000
0000
3000
0000
,
0001
0000
0000
0002
0000
0000
0003
0000
,
0010
0000
0000
0020
0000
0030
0000
0100
,
0000
0100
0000
0200
0000
0300
0000
0000
,
1000
0000
0000
2000
0000
0000
3000
0000
;

//---------------dance-single - Ace Of Arrows (2019)----------------
#NOTES:
     dance-single:
     Ace Of Arrows (2019):
     Beginner:
     1:
     0.128,0.000,0.000,0.232,0.000:
0000
0000
0000
0000
,
0000
0000
0000
0000
,
0000
0000
0000
0000
,
0000
0000
0000
0000
,
0000
0000
0000
0000
,
0000
0000
0000
0000
,
1000
0000
1000
0000
,
2000
0000
3000
0000
,
0010
0000
0010
0000
,
0020
0000
0030
0000
,
0100
0000
0100
0000
,
0200
0000
0000
0000
,
0300
0000
0001
0000
,
0002
0000
0000
0000
,
0003
0000
1000
0000
,
1000
0000
2000
0000
,
3000
0000
0100
0000
,
0100
0000
0200
0000
,
0300
0000
0010
0000
,
0020
0000
0030
0000
,
0001
0000
0001
0000
,
0002
0000
0000
0000
,
0003
0000
1000
0000
,
1000
0000
2000
0000
,
3000
0000
0010
0000
,
0010
0000
0020
0000
,
0030
0000
0100
0000
,
0200
0000
0300
0000
,
0001
0000
0001
0000
,
0002
0000
0003
0000
,
1000
0000
1000
0000
,
2000
0000
3000
0000
,
0010
0000
0010
0000
,
0020
0000
0030
0000
,
0100
0000
0100
0000
,
0200
0000
0300
0000
,
0001
0000
0001
0000
,
0002
0000
0003
0000
,
1000
0000
1000
0000
,
2000
0000
3000
0000
,
0100
0000
0100
0000
,
0200
0000
0300
0000
,
0010
0000
0010
0000
,
0020
0000
0030
0000
,
0001
0000
0001
0000
,
0002
0000
0003
0000
,
0010
0000
0010
0000
,
0020
0000
0030
0000
,
0100
0000
0100
0000
,
0200
0000
0300
0000
,
1000
0000
1000
0000
,
2000
0000
3000
0000
,
0001
0000
0001
0000
,
0002
0000
0003
0000
;
