#TITLE:Cotton-Eye Joe;
#SUBTITLE:;
#ARTIST:Rednex;
#TITLETRANSLIT:;
#SUBTITLETRANSLIT:;
#ARTISTTRANSLIT:;
#GENRE:;
#CREDIT:Ace Of Arrows;
#BANNER:Cotton-Eye Joe - Bn.png;
#BACKGROUND:Cotton-Eye Joe - Bg.png;
#LYRICSPATH:;
#CDTITLE:Ace Of Arrows.png;
#MUSIC:Cotton-Eye Joe.ogg;
#OFFSET:0.425;
#SAMPLESTART:66.800;
#SAMPLELENGTH:12.000;
#SELECTABLE:YES;
#BPMS:0.000=132.000;
#STOPS:;
#BGCHANGES:0.750=Cotton-Eye Joe Music Video.avi=1.000=0=0=1=====,
99999=-nosongbg-=1.000=0=0=0 // don't automatically add -songbackground-
;
#KEYSOUNDS:;

//---------------dance-single - AceOfArrows (2019)----------------
#NOTES:
     dance-single:
     AceOfArrows (2019):
     Challenge:
     11:
     0.975,0.649,0.015,1.000,1.000:
0000
0000
0000
0000
0000
0000
0000
0000
0000
0000
0000
0000
0000
0000
0000
0001
,
0010
0200
0000
1300
0002
0000
1003
0020
0000
0130
0002
0000
2003
0000
0000
0000
,
3001
0000
0100
0000
0020
0000
1030
0001
2000
0000
3001
0010
0200
0000
0300
0000
,
1000
0001
0000
0001
0200
0000
0320
0000
1030
0001
0000
0001
0020
0000
0000
0000
,
0130
1000
0000
1000
0002
0000
0203
0000
0310
0100
0020
0000
2030
0000
3000
0001
,
0100
0020
0000
1030
0002
0000
0013
0200
0000
1300
0002
0000
0203
0000
0300
0000
,
0010
0000
0100
0000
0002
0000
1003
0100
0010
0000
0100
1000
0002
0000
0003
0000
,
1000
0010
0000
0010
0200
0000
0302
0000
1003
0100
0000
0100
0020
0000
0030
0000
,
0100
1000
0000
1000
0002
0000
0203
0000
0310
1000
0020
0000
0230
0000
0300
0000
,
0001
1000
0000
1000
0002
0000
0013
0200
0000
1300
0002
0000
0203
0000
0310
1000
,
0001
0010
0001
0010
0100
1000
0100
1000
0001
0100
0001
0100
0020
0000
1030
0000
,
0001
0010
0000
0010
0200
0000
1300
0001
0000
0001
0200
0000
0320
0000
0130
0001
,
1000
0100
1000
0100
0010
0001
0010
0001
1000
0010
1000
0010
0100
0001
1000
0001
,
0010
0200
0000
1300
0001
0000
0001
0200
0000
0310
2000
0000
3002
0000
0003
0000
,
0010
0000
0100
0000
2000
0000
3001
0100
0002
0000
1003
0010
2000
0000
3000
0000
,
0001
0010
0000
0010
0200
0000
2300
0000
3001
0100
0000
0100
0020
0000
0030
0000
,
0100
0001
0000
0001
2000
0000
3200
0000
0310
0001
0020
0000
0230
0000
0300
1000
,
0001
0020
0000
0031
2000
0000
3010
0100
0000
0100
0002
0000
2003
0000
3000
0000
,
0100
0000
0010
0000
0002
0000
1003
0100
2000
0000
3001
1000
0002
0000
0003
0000
,
0100
0010
0000
0010
2000
0000
3002
0000
0013
0100
0000
0100
2000
0000
3000
0000
,
0001
1000
0000
1000
0200
0000
0320
0000
0031
1000
0002
0000
0203
0000
0300
0000
,
0010
0100
0000
0100
0002
0000
1003
0100
0000
0100
0020
0000
0032
0000
1003
0100
,
0010
0001
0010
0001
1000
0010
1000
0010
0100
0001
0100
0001
2000
0000
3002
0000
,
0013
0100
0000
0100
2000
0000
3001
0100
0000
0100
0020
0000
2030
0000
3001
1000
,
0010
0100
0010
0100
0001
1000
0001
1000
0100
0010
0100
0010
0001
1000
0020
0000
,
0130
0001
0000
0001
2000
0000
3100
0010
0000
0010
0200
0000
2300
0000
3001
0100
,
0010
1000
0010
1000
0001
1000
0001
1000
0100
1000
0100
1000
0002
0000
0203
0000
,
0310
0100
0000
0100
0002
0000
1003
0100
0000
0100
0020
0000
0032
0000
1003
0001
,
0010
0001
0010
0001
1000
0001
1000
0001
0100
0001
0100
0001
1000
0100
0020
0000
,
0032
0000
1003
0010
0200
0000
0301
1000
,
0100
0010
0001
2000
0000
3000
0000
0001
,
0200
0000
0310
1000
0002
0000
0003
1000
,
0010
0100
0002
0000
2003
0000
3000
0001
,
0020
0000
0230
0000
2300
0000
3001
0100
,
0010
1000
0001
0020
0000
0030
0000
0100
,
2000
0000
3002
0000
0103
0010
1000
0000
,
0001
0000
0010
0000
0200
0000
0000
0000
2300
0000
3000
0000
2002
0000
3000
0103
,
0010
2000
0000
3001
0020
0000
0130
1000
0000
1000
0002
0000
0203
0000
0300
0000
,
0010
0000
0100
0000
0002
0000
1003
0100
2000
0000
3001
0010
0002
0000
0003
0000
,
0010
0100
0000
0100
2000
0000
3002
0000
0103
0010
0000
0010
2000
0000
3000
0000
,
0001
0100
0000
0100
0020
0000
2030
0000
3001
0010
0002
0000
2003
0000
3000
0001
,
0010
0200
0000
0310
0002
0000
1003
0010
0000
0010
0200
0000
0302
0000
0003
0000
,
0100
0000
0010
0000
2000
0000
3001
1000
0002
0000
0103
0010
0200
0000
0300
0000
,
0001
1000
0000
1000
0200
0000
0320
0000
0031
1000
0000
1000
0002
0000
0003
0000
,
0100
0010
0000
0010
2000
0000
3002
0000
0013
0100
0020
0000
0032
0000
0003
0000
,
2000
0000
3001
0020
0000
0130
1000
0001
0010
0001
1000
0000
0010
0000
0100
0000
,
0002
0000
1003
0200
0000
0310
0100
1000
0001
1000
0010
0000
0100
0000
0002
0000
,
2003
0000
3100
0020
0000
0031
1000
0010
1000
0001
0010
0000
0100
0000
2000
0000
,
3002
0000
0103
0020
0000
1030
0010
0100
0001
1000
0001
0000
1000
0100
0010
0100
,
1000
0000
0001
0010
0000
0001
1000
0010
0100
0010
1000
0000
0001
0000
0010
0000
,
0100
0000
1000
0001
0000
1000
0010
0100
0010
1000
0001
0000
0010
0000
0100
0000
,
1000
0000
0001
0100
0000
0010
0100
0001
0100
0010
1000
0000
0001
0000
0010
0000
,
0001
0000
1000
0010
0000
0100
0001
1000
0100
0010
0001
0000
1000
0010
0100
0001
,
2000
0000
3001
0010
0200
0000
1300
0001
,
0100
0010
1000
0002
0000
0003
0000
0010
,
0200
0000
1300
0001
0200
0000
0310
1000
,
0001
0010
0002
0000
2003
0000
3000
0001
,
0040
0000
0130
1000
0002
0000
1003
0010
,
0100
0001
1000
0200
0000
0300
0000
0010
,
0002
0000
0000
0000
1003
0000
0010
0000
0200
0000
0000
0000
0302
0000
0000
0003
,
2001
0000
3100
0000
0020
0000
0000
0030
0210
0000
0000
0000
0300
0000
0000
1000
,
0100
0020
0000
0130
2000
0000
3001
0200
0000
0310
2000
0000
3002
0000
0000
0000
,
0013
0000
0100
0000
2000
0000
3100
0010
0002
0000
0013
0100
2000
0000
3000
0000
,
0001
0010
0000
0010
0100
0000
2000
0000
3001
0100
0000
0100
0020
0000
0030
0000
,
0100
0001
0000
0001
1000
0000
0200
0000
0310
0001
0020
0000
0230
0000
0000
1300
,
0001
0200
0000
0310
2000
0000
3001
0010
0000
0010
0200
0000
2300
0000
3000
0000
,
0001
0000
0100
0000
0020
0000
1030
0010
0200
0000
0301
1000
0200
0000
0300
0000
,
0010
0100
0000
0100
1000
0000
0002
0000
0103
0010
0000
0010
2000
0000
0000
0000
,
3001
1000
0000
1000
0100
0000
0020
0000
0130
1000
0200
0000
0310
0001
0010
0000
,
0100
1000
0000
1000
0002
0000
0103
0010
0000
0010
2000
0000
3002
0000
1003
0010
,
0100
0001
0100
0001
1000
0100
1000
0100
0010
0001
0010
0001
2000
0000
3020
0000
,
0130
0001
0000
0001
2000
0000
3100
0010
0000
0010
0200
0000
2300
0000
3001
0100
,
0010
1000
0010
1000
0001
0010
0001
0010
0100
1000
0100
1000
0002
0000
1003
0100
,
0010
0001
0010
0001
1000
0010
1000
0010
0200
0000
0301
1000
0001
0010
0001
0010
,
0100
1000
0100
1000
0001
0100
0001
0100
0020
0000
1030
0001
0010
0100
0010
0100
,
1000
0001
1000
0001
0100
0001
0100
0001
1000
0100
1000
0100
1000
0001
0100
0001
,
1000
0010
1000
0010
1000
0001
1000
0001
1000
0100
1000
0100
0010
0001
0010
0100
,
1000
0001
0000
0001
0200
0000
0310
1000
0000
1000
0002
0000
0023
0000
0130
1000
,
0001
0100
0001
0100
0010
1000
0010
1000
0001
0010
0001
0010
0100
1000
0100
1000
,
0001
0100
0000
0100
0020
0000
1030
0001
0000
0001
0020
0000
0230
0000
1300
0100
,
0010
0001
0010
0001
1000
0010
1000
0010
0100
0001
0100
0001
1000
0100
0010
0001
,
1000
0010
1000
0010
0100
0001
0100
0001
1000
0100
1000
0100
0010
0001
0010
0100
,
1000
0001
1000
0001
0100
0010
0100
0010
1000
0010
1000
0010
0100
0001
0100
0001
,
1000
0100
1000
0100
0010
0001
0010
0001
1000
0010
1000
0010
0100
0001
0100
0001
,
1000
0001
1000
0001
0010
0001
0010
0001
1000
0010
1000
0010
0200
0000
0000
0301
,
1000
0002
0000
0013
0200
0000
1300
0002
0000
0103
0010
0000
2000
0000
3000
0000
,
0001
0000
0010
0000
0200
0000
1300
0001
2000
0000
3010
0100
0020
0000
0030
0000
,
1000
0001
0000
0001
0010
0000
0200
0000
1300
0001
0000
0001
0200
0000
0000
0000
,
0310
1000
0000
1000
0002
0000
0023
0000
0130
1000
0200
0000
0320
0000
0000
0031
,
1000
0002
0000
0103
0020
0000
1030
0001
0000
0001
0200
0000
0320
0000
0030
0000
,
1000
0000
0001
0000
0020
0000
0031
1000
0002
0000
1003
0010
2000
0000
3000
0000
,
0001
0010
0000
0010
0100
0000
2000
0000
3001
0100
0000
0100
0020
0000
0000
0000
,
1030
0001
0000
0001
0020
0000
0230
0000
1300
0001
2000
0000
3200
0000
0000
0000
,
0310
0001
0000
0001
2000
0000
3010
0100
0000
0100
0002
0000
2003
0000
3001
0010
,
0100
1000
0100
1000
0001
0100
0001
0100
0010
1000
0010
1000
0001
1000
0002
0000
,
0013
0100
0000
0100
2000
0000
3001
0100
0000
0100
0020
0000
2030
0000
3001
0100
,
0010
1000
0010
1000
0001
0010
0001
0010
0100
1000
0100
1000
0001
0100
0001
1000
,
0100
0010
0100
0010
0001
0010
0001
0010
0100
1000
0100
1000
0001
1000
0001
0100
,
0010
1000
0010
1000
0001
0010
0001
0010
0100
1000
0100
1000
0001
0100
0010
1000
,
0001
1000
0001
1000
0100
0010
0100
0010
0001
1000
0001
1000
0001
0100
0001
0100
,
0010
1000
0010
1000
0001
0010
0100
1000
0100
0010
0001
1000
0001
0100
0010
1000
,
0001
2000
0000
3100
0020
0000
0130
2000
0000
3001
0020
0000
0230
0000
0300
0000
,
1000
0000
0001
0000
0200
0000
0301
1000
0002
0000
1003
0100
2000
0000
3000
0000
,
0001
0100
0000
0100
0001
0000
2000
0000
3100
0010
0000
0010
0002
0000
0000
0000
,
1003
0010
0000
0010
0100
0000
0002
0000
1003
0001
2000
0000
3200
0000
0000
0000
,
0300
0000
0000
0000
;

//---------------dance-single - Ace Of Arrows (2019)----------------
#NOTES:
     dance-single:
     Ace Of Arrows (2019):
     Hard:
     9:
     0.738,0.594,0.015,0.937,0.670: // measure 1
0000
0000
0000
0000
,  // measure 2
1000
0100
0000
0100
2000
0000
3001
0100
0000
0100
0002
0000
2003
0000
3000
0000
,  // measure 3
0100
0000
0010
0000
0100
0000
1000
0000
0002
0000
0013
0100
0020
0000
0030
0000
,  // measure 4
0001
1000
0000
1000
0002
0000
0203
0000
0310
1000
0000
1000
0020
0000
0000
0000
,  // measure 5
0130
0001
0000
0001
0200
0000
0320
0000
1030
0001
2000
0000
3200
0000
0300
0000
,  // measure 6
0010
0001
0000
0001
0020
0000
0130
1000
0000
1000
0200
0000
0320
0000
0030
0000
,  // measure 7
0001
0000
1000
0000
0010
0000
0100
0000
0002
0000
1003
0100
2000
0000
3000
0000
,  // measure 8
0001
0100
0000
0100
0002
0000
2003
0000
3100
0010
0000
0010
0200
0000
0000
0000
,  // measure 9
1300
0001
0000
0001
2000
0000
3020
0000
0130
0001
0200
0000
0320
0000
0030
0000
,  // measure 10
1000
0001
0000
0001
0010
0000
0010
0100
0000
0100
2000
0000
3002
0000
0000
0000
,  // measure 11
4003
0040
0000
0000
0000
0000
0000
0000
0000
0000
0000
0000
3030
0000
0000
0000
,  // measure 12
0010
0100
0000
0100
0001
0000
0001
1000
0000
1000
0200
0000
0320
0000
0000
0000
,  // measure 13
0034
4000
0000
0000
0000
0000
0000
0000
0000
0000
0000
0000
3003
0000
0000
0000
,  // measure 14
1000
0100
0000
0100
0020
0000
0130
1000
0000
1000
0002
0000
0203
0000
0300
0000
,  // measure 15
0010
0000
0100
0000
0001
0000
1000
0000
0002
0000
0013
0100
0020
0000
0030
0000
,  // measure 16
0001
1000
0000
1000
0020
0000
0230
0000
0301
1000
0000
1000
0200
0000
0000
0000
,  // measure 17
0310
0100
0000
0100
2000
0000
3002
0000
1003
0010
2000
0000
3002
0000
0003
0000
,  // measure 18
0010
0001
0000
0001
2000
0000
3010
0100
0000
0100
0002
0000
2003
0000
3000
0000
,  // measure 19
0100
0000
0010
0000
0100
0000
1000
0000
0001
0000
1000
0010
2000
0000
3000
0000
,  // measure 20
0001
0010
0000
0010
0200
0000
0320
0000
0031
1000
0000
1000
0020
0000
0000
0000
,  // measure 21
0130
0001
0000
0001
2000
0000
3002
0000
0013
0100
0020
0000
0032
0000
0003
0000
,  // measure 22
1000
0010
0000
0010
0100
0000
0100
0001
0000
0001
2000
0000
3200
0000
0000
0000
,  // measure 23
0340
0004
0000
0000
0000
0000
0000
0000
0000
0000
0000
0000
0033
0000
0000
0000
,  // measure 24
0001
1000
0000
1000
0010
0000
0010
0100
0000
0100
0002
0000
2003
0000
0000
0000
,  // measure 25
3040
0400
0000
0000
0000
0000
0000
0000
0000
0000
0000
0000
0330
0000
0000
0000
,  // measure 26
0100
0001
0000
0001
1000
0000
1000
0100
0000
0100
0020
0000
0032
0000
0000
0000
,  // measure 27
4003
0400
0000
0000
0000
0000
0000
0000
0000
0000
0000
0000
3300
0000
0000
0000
,  // measure 28
0100
0010
0000
0010
0001
0000
0001
1000
0000
1000
0020
0000
0230
0000
0000
0000
,  // measure 29
0304
4000
0000
0000
0000
0000
0000
0000
0000
0000
0000
0000
3003
0000
0000
0000
,  // measure 30
2000
0000
3100
0010
0002
0000
1003
0010
,  // measure 31
0100
0001
1000
0200
0000
0300
0000
0010
,  // measure 32
0002
0000
1003
0010
0200
0000
0300
0001
,  // measure 33
1000
0100
0020
0000
0230
0000
0300
1000
,  // measure 34
0002
0000
0203
0000
0320
0000
1030
0001
,  // measure 35
0010
0100
0010
0002
0000
0003
0000
1000
,  // measure 36
0020
0000
0230
0000
0301
1000
0200
0000
,  // measure 37
0310
0100
2000
0000
3002
0003
0201
0000
,  // measure 38
0310
1000
0000
1000
0001
0000
0001
0010
0000
0010
0200
0000
2300
0000
3000
0000
,  // measure 39
0001
0000
0100
0000
0010
0000
0100
0000
0002
0000
1003
0100
2000
0000
3000
0000
,  // measure 40
0001
0010
0000
0010
0200
0000
0320
0000
0031
1000
0000
1000
0020
0000
0000
0000
,  // measure 41
0130
0001
0000
0001
2000
0000
3200
0000
0310
0001
0020
0000
0230
0000
0300
0000
,  // measure 42
1000
0001
0000
0001
0100
0000
0100
0010
0000
0010
2000
0000
3002
0000
0003
0000
,  // measure 43
0010
0000
0100
0000
1000
0000
0100
0000
0020
0000
0031
1000
0002
0000
0003
0000
,  // measure 44
0100
0010
0000
0010
2000
0000
3002
0000
0013
0100
0000
0100
2000
0000
0000
0000
,  // measure 45
3001
0100
0000
0100
0020
0000
2030
0000
3001
0100
0002
0000
2003
0000
3000
0000
,  // measure 46
0001
0000
1000
0001
0000
1000
0100
1000
0100
1000
0100
0000
0010
0000
0001
0000
,  // measure 47
1000
0000
0010
0100
0000
0001
0100
0001
0100
0001
0100
0000
0010
0000
1000
0000
,  // measure 48
0001
0000
0010
0100
0000
1000
0100
1000
0100
1000
0100
0000
0010
0000
0001
0000
,  // measure 49
1000
0000
0001
0100
0000
0001
1000
0001
1000
0001
0100
0000
0010
0000
1000
0000
,  // measure 50
0001
0000
0010
0100
0000
1000
0100
0010
0001
0010
0100
0000
1000
0000
0001
0000
,  // measure 51
0100
0000
0010
1000
0000
0001
0010
0100
1000
0100
0010
0000
0001
0000
1000
0000
,  // measure 52
0010
0000
1000
0001
0000
1000
0010
0100
0001
0100
0010
0000
1000
0000
0001
0000
,  // measure 53
0010
0000
0100
1000
0000
0001
0100
0010
1000
0010
0100
0000
0001
0000
1000
0000
,  // measure 54
0200
0000
0310
0001
2000
0000
3010
0100
,  // measure 55
0001
1000
0100
0020
0000
0030
0000
0100
,  // measure 56
2000
0000
3001
0100
0002
0000
1003
0100
,  // measure 57
0010
0100
2000
0000
3002
0000
0003
1000
,  // measure 58
0040
0000
0130
0001
2000
0000
3001
0010
,  // measure 59
0100
0010
0001
2000
0000
3000
0000
0010
,  // measure 60
0200
0000
0000
0000
0301
0000
1000
0000
0200
0000
0000
0000
0320
0000
0000
0030
,  // measure 61
0011
0000
0001
0000
2000
0000
0000
3000
1020
0000
0000
0000
0030
0000
0000
0000
,  // measure 62
0100
0001
0000
0001
2000
0000
3100
0010
0000
0010
0002
0000
2003
0000
3000
0000
,  // measure 63
0010
0000
0100
0000
0001
0000
1000
0000
0200
0000
0310
0001
0020
0000
0030
0000
,  // measure 64
0100
1000
0000
1000
0002
0000
0203
0000
0310
0100
0000
0100
0002
0000
0000
0000
,  // measure 65
1003
0100
0000
0100
0020
0000
0230
0000
1300
0001
2000
0000
3020
0000
0030
0000
,  // measure 66
0100
0001
0000
0001
1000
0000
1000
0100
0000
0100
0020
0000
0032
0000
0003
0000
,  // measure 67
1000
0000
0010
0000
1000
0000
0001
0000
0020
0000
0130
0010
0200
0000
0300
0000
,  // measure 68
1000
0001
0000
0001
0200
0000
0320
0000
1030
0001
0000
0001
0020
0000
0000
0000
,  // measure 69
0130
1000
0000
1000
0002
0000
0203
0000
0310
1000
0020
0000
0230
0000
0300
0000
,  // measure 70
0001
1000
0000
1000
0100
0000
0100
0010
0000
0010
0200
0000
2300
0000
0000
0000
,  // measure 71
3004
0400
0000
0000
0000
0000
0000
0000
0000
0000
0000
0000
0303
0000
0000
0000
,  // measure 72
0100
0010
0000
0010
1000
0000
1000
0001
0000
0001
0200
0000
0320
0000
0000
0000
,  // measure 73
4030
0040
0000
0000
0000
0000
0000
0000
0000
0000
0000
0000
3030
0000
0000
0000
,  // measure 74
0010
1000
0001
1000
0010
0000
0100
0000
0001
0000
1000
0100
1000
0000
0001
0000
,  // measure 75
1000
0100
0010
0100
1000
0000
0001
0000
0100
0000
0010
0100
0010
0000
1000
0000
,  // measure 76
0001
0010
0100
0010
0001
0000
1000
0000
0010
0000
0100
0001
0100
0000
0010
0000
,  // measure 77
1000
0001
0010
0001
1000
0000
0100
0000
0010
0000
0001
0010
0001
0000
1000
0000
,  // measure 78
0010
0100
0000
0100
0001
0000
0001
1000
0000
1000
0200
0000
0320
0000
0000
0000
,  // measure 79
0034
4000
0000
0000
0000
0000
0000
0000
0000
0000
0000
0000
3003
0000
0000
0000
,  // measure 80
1000
0010
0000
0010
0100
0000
0100
0001
0000
0001
2000
0000
3200
0000
0000
0000
,  // measure 81
0340
0004
0000
0000
0000
0000
0000
0000
0000
0000
0000
0000
0033
0000
0000
0000
,  // measure 82
0001
0010
0100
0010
0001
0000
1000
0000
0010
0000
1000
0001
1000
0000
0100
0000
,  // measure 83
1000
0001
0010
0001
1000
0000
0010
0000
0100
0000
0001
0100
0001
0000
1000
0000
,  // measure 84
0001
0100
0010
0100
0001
0000
1000
0000
0001
0000
0010
0100
0010
0000
0001
0000
,  // measure 85
1000
0100
0010
0100
1000
0000
0001
0000
0100
0000
0010
1000
0020
0000
0000
0000
,  // measure 86
0130
0001
0000
0001
1000
0000
1000
0100
0000
0100
0020
0000
0032
0000
0003
0000
,  // measure 87
1000
0000
0001
0000
0100
0000
0001
0000
2000
0000
3100
0010
0200
0000
0300
0000
,  // measure 88
1000
0001
0000
0001
0200
0000
0320
0000
1030
0001
0000
0001
0020
0000
0000
0000
,  // measure 89
0130
1000
0000
1000
0002
0000
0203
0000
0310
1000
0020
0000
0230
0000
0300
0000
,  // measure 90
0001
1000
0000
1000
0100
0000
0100
0010
0000
0010
0002
0000
2003
0000
3000
0000
,  // measure 91
0010
0000
1000
0000
0001
0000
0010
0000
0200
0000
1300
0001
2000
0000
3000
0000
,  // measure 92
0010
0100
0000
0100
0002
0000
2003
0000
3100
0010
0000
0010
0002
0000
0000
0000
,  // measure 93
1003
0010
0000
0010
0200
0000
0302
0000
1003
0100
2000
0000
3002
0000
0003
0000
,  // measure 94
0010
0100
0000
0100
1000
0000
1000
0001
0000
0001
0200
0000
0302
0000
0000
0000
,  // measure 95
4003
0400
0000
0000
0000
0000
0000
0000
0000
0000
0000
0000
3300
0000
0000
0000
,  // measure 96
0100
0010
0000
0010
0001
0000
0001
1000
0000
1000
0020
0000
0230
0000
0000
0000
,  // measure 97
0304
0400
0000
0000
0000
0000
0000
0000
0000
0000
0000
0000
0303
0000
0000
0000
,  // measure 98
0100
0001
1000
0001
0100
0000
0010
0000
1000
0000
0001
0010
0001
0000
1000
0000
,  // measure 99
0001
0010
0100
0010
0001
0000
1000
0000
0001
0000
0100
0010
0100
0000
0001
0000
,  // measure 100
1000
0001
0010
0001
1000
0000
0010
0000
0100
0000
0001
1000
0001
0000
0010
0000
,  // measure 101
0001
1000
0100
1000
0001
0000
0100
0000
0010
0000
1000
0010
2000
0000
0000
0000
,  // measure 102
3001
0010
0000
0010
0100
0000
0100
1000
0000
1000
0002
0000
0203
0000
0300
0000
,  // measure 103
0010
0000
1000
0000
0001
0000
0010
0000
0200
0000
1300
0001
2000
0000
3000
0000
,  // measure 104
0001
0100
0000
0100
0020
0000
2030
0000
3001
0100
0000
0100
0020
0000
0000
0000
,  // measure 105
1030
0001
0000
0001
0020
0000
0230
0000
1300
0001
2000
0000
3200
0000
0300
0000
;

//---------------dance-single - Ace Of Arrows (2019)----------------
#NOTES:
     dance-single:
     Ace Of Arrows (2019):
     Medium:
     6:
     0.402,0.324,0.000,0.376,0.000:
0000
0000
0000
0000
,
1000
0000
0020
0000
1030
0001
1000
0000
,
0001
0010
0001
0000
1000
0100
1000
0000
,
0001
0000
0010
0100
0010
0000
0002
0000
,
1003
0000
1000
0000
0001
0100
0001
0000
,
1000
0000
0200
0000
0310
0001
0010
0000
,
0001
1000
0001
0000
1000
0010
1000
0000
,
0001
0000
0010
0001
0010
0000
0200
0000
,
1300
0000
0001
0000
1000
0010
1000
0000
,
0001
0000
1000
0000
0001
0010
0002
0000
,
4003
0000
0000
3000
,
0001
0000
1000
0000
0010
0100
0020
0000
,
0430
0000
0000
0300
,
0001
0000
2000
0000
3001
0010
0001
0000
,
1000
0001
1000
0000
0100
0010
0100
0000
,
1000
0000
0001
0100
0001
0000
2000
0000
,
3001
0000
0100
0000
0010
1000
0010
0000
,
0100
0000
0002
0000
1003
0100
1000
0000
,
0001
0010
0001
0000
1000
0001
1000
0000
,
0100
0000
0010
0001
0010
0000
0200
0000
,
1300
0000
0001
0000
1000
0010
1000
0000
,
0001
0000
0100
0000
0001
1000
0002
0000
,
0043
0000
0000
0030
,
0100
0000
1000
0000
0001
0100
0002
0000
,
4003
0000
0000
3000
,
0100
0000
0010
0000
0001
1000
0002
0000
,
0043
0000
0000
0030
,
0100
0000
0010
0000
0001
1000
0002
0000
,
0403
0000
0000
0300
,
0020
0000
1030
0001
2000
0000
3002
0000
,
0023
0000
0130
2000
0000
0000
3000
0001
,
0200
0000
0310
0100
0020
0000
0030
0000
,
1000
0001
2000
0000
3200
0000
0300
0000
,
0020
0032
2003
3010
,
0200
0000
0301
2000
0000
0000
3000
0001
,
0020
0032
2003
3020
,
1030
0001
2000
0000
3200
0000
0300
0000
,
0010
0000
0002
0000
1003
0010
1000
0000
,
0001
1000
0001
0000
0010
0001
0010
0000
,
0100
0000
1000
0001
1000
0000
0020
0000
,
0130
0000
0001
0000
1000
0100
1000
0000
,
0001
0000
2000
0000
3100
0010
0100
0000
,
1000
0100
1000
0000
0001
0100
0001
0000
,
1000
0000
0010
0100
0010
0000
2000
0000
,
3001
0000
0010
0000
0100
1000
0100
0000
,
0010
0000
0001
0000
1000
0010
1000
0000
,
0001
0000
0010
0000
0100
1000
0100
0000
,
1000
0000
0001
0000
0100
0010
0100
0000
,
0001
0000
1000
0000
0001
0010
0001
0000
,
1000
0000
0100
0000
0010
0100
0010
0000
,
0001
0000
1000
0000
0001
0100
0001
0000
,
0100
0000
0010
0000
1000
0001
1000
0000
,
0100
0000
0010
0000
0001
0010
0001
0000
,
2000
0000
3010
0100
0020
0000
2030
0000
,
3002
0000
0103
0020
0000
0000
0030
1000
,
0002
0000
0103
0010
0200
0000
0301
1000
,
0002
0000
0023
0000
0230
0000
0300
1000
,
0004
0000
0023
0000
0230
0000
1300
0001
,
2000
0000
3001
0200
0000
0000
0300
0010
,
2000
0000
3001
0010
0002
0000
2003
0000
,
3010
1000
0020
0000
0230
0000
0300
0000
,
0001
0000
2000
0000
3100
0010
0100
0000
,
1000
0100
1000
0000
0001
1000
0001
0000
,
0100
0000
0010
1000
0010
0000
0200
0000
,
0301
0000
1000
0000
0001
0010
0001
0000
,
0010
0000
0200
0000
1300
0001
1000
0000
,
0010
1000
0010
0000
0100
0001
0100
0000
,
0010
0000
1000
0001
1000
0000
0200
0000
,
0310
0000
0001
0000
1000
0010
1000
0000
,
0001
0000
0010
0000
0100
1000
0200
0000
,
0340
0000
0000
0030
,
0001
0000
1000
0000
0100
0010
0200
0000
,
4300
0000
0000
3000
,
0001
0000
0100
0000
0010
1000
0010
0000
,
0100
0000
0001
0000
1000
0100
1000
0000
,
0001
0000
0010
0000
0100
1000
0100
0000
,
0010
0000
0001
0000
1000
0010
1000
0000
,
0001
0000
1000
0000
0010
0100
0020
0000
,
0430
0000
0000
0300
,
0001
0000
1000
0000
0001
0010
0002
0000
,
0043
0000
0000
0030
,
0100
0000
1000
0000
0001
1000
0001
0000
,
0100
0000
0010
0000
1000
0010
1000
0000
,
0001
0000
0010
0000
0100
0010
0100
0000
,
1000
0000
0001
0000
0100
0010
0100
0000
,
0001
0000
2000
0000
3001
0010
0001
0000
,
0010
0100
0010
0000
0001
1000
0001
0000
,
0100
0000
0010
1000
0010
0000
0200
0000
,
0301
0000
1000
0000
0100
0010
0100
0000
,
1000
0000
0002
0000
1003
0010
1000
0000
,
0001
1000
0001
0000
1000
0100
1000
0000
,
0001
0000
0010
0100
0010
0000
0002
0000
,
1003
0000
0010
0000
0100
0010
0100
0000
,
0001
0000
1000
0000
0100
0010
0200
0000
,
4300
0000
0000
3000
,
0001
0000
0100
0000
0010
1000
0020
0000
,
0430
0000
0000
0300
,
0010
0000
1000
0000
0001
0010
0001
0000
,
1000
0000
0100
0000
0010
0100
0010
0000
,
0001
0000
1000
0000
0001
0100
0001
0000
,
1000
0000
0100
0000
0010
0001
0010
0000
,
0100
0000
2000
0000
3001
0100
0001
0000
,
1000
0100
1000
0000
0001
1000
0001
0000
,
0100
0000
0010
1000
0010
0000
0200
0000
,
0301
0000
1000
0000
0001
0010
0001
0000
;

//---------------dance-single - Ace Of Arrows (2019)----------------
#NOTES:
     dance-single:
     Ace Of Arrows (2019):
     Easy:
     3:
     0.246,0.216,0.000,0.386,0.000:
0000
0000
0000
0000
,
0001
0001
0002
0003
,
0010
0010
0020
0030
,
0100
0100
0200
0300
,
1000
1000
2000
3000
,
0001
0001
0002
0003
,
0100
0100
0200
0300
,
0010
0010
0020
0030
,
1000
1000
2000
3000
,
0001
0001
0002
0003
,
0040
0000
0030
0000
,
0100
0100
0200
0300
,
4000
0000
3000
0000
,
0001
0001
0002
0003
,
0100
0100
0200
0300
,
0010
0010
0020
0030
,
1000
1000
2000
3000
,
0001
0001
0002
0003
,
0010
0010
0020
0030
,
0100
0100
0200
0300
,
1000
1000
2000
3000
,
0001
0001
0002
0003
,
0400
0000
0300
0000
,
0010
0010
0020
0030
,
4000
0000
3000
0000
,
0001
0001
0002
0003
,
0040
0000
0030
0000
,
0100
0100
0200
0300
,
4000
0000
3000
0000
,
0001
0001
0002
0003
,
0100
0000
0000
0200
0000
0000
0300
0000
,
0010
0010
0010
0000
,
1000
1000
2000
3000
,
0001
0001
0001
0000
,
0010
0000
0000
0020
0000
0000
0030
0000
,
0100
0100
0200
0300
,
1000
1000
2000
3000
,
0001
0001
0002
0003
,
0100
0100
0200
0300
,
0010
0010
0020
0030
,
1000
1000
2000
3000
,
0001
0001
0002
0003
,
0010
0010
0020
0030
,
0100
0100
0200
0300
,
1000
1000
2000
3000
,
0001
0001
0002
0003
,
0100
0100
0200
0300
,
0010
0010
0020
0030
,
1000
1000
2000
3000
,
0001
0001
0002
0003
,
0010
0010
0020
0030
,
0100
0100
0200
0300
,
1000
1000
2000
3000
,
0001
0001
0001
0000
,
0010
0000
0000
0020
0000
0000
0030
0000
,
0100
0100
0100
0000
,
1000
1000
2000
3000
,
0004
0003
0200
0300
,
0010
0000
0000
0020
0000
0000
0030
0000
,
1000
1000
1000
0000
,
0001
0001
0002
0003
,
0010
0010
0020
0030
,
0100
0100
0200
0300
,
1000
1000
2000
3000
,
0001
0001
0002
0003
,
0100
0100
0200
0300
,
0010
0010
0020
0030
,
1000
1000
2000
3000
,
0001
0001
0002
0003
,
0100
0100
0200
0300
,
0004
0000
0003
0000
,
1000
1000
2000
3000
,
0400
0000
0300
0000
,
0040
0000
0030
0000
,
0004
0000
0003
0000
,
4000
0000
3000
0000
,
0040
0000
0030
0000
,
0100
0100
0200
0300
,
0004
0000
0003
0000
,
1000
1000
2000
3000
,
0400
0000
0300
0000
,
0040
0000
0030
0000
,
0400
0000
0300
0000
,
4000
0000
3000
0000
,
0004
0000
0003
0000
,
0100
0100
0200
0300
,
0010
0010
0020
0030
,
1000
1000
2000
3000
,
0001
0001
0002
0003
,
0010
0010
0020
0030
,
0100
0100
0200
0300
,
1000
1000
2000
3000
,
0001
0001
0002
0003
,
1000
1000
2000
3000
,
0040
0000
0030
0000
,
0100
0100
0200
0300
,
0004
0000
0003
0000
,
4000
0000
3000
0000
,
0004
0000
0003
0000
,
0040
0000
0030
0000
,
0400
0000
0300
0000
,
1000
1000
2000
3000
,
0100
0100
0200
0300
,
0010
0010
0020
0030
,
0001
0001
0002
0003
;

//---------------dance-single - Ace Of Arrows (2019)----------------
#NOTES:
     dance-single:
     Ace Of Arrows (2019):
     Beginner:
     1:
     0.135,0.108,0.000,0.258,0.000:
0000
0000
0000
0000
,
1000
0000
1000
0000
,
2000
0000
3000
0000
,
0010
0000
0010
0000
,
0020
0000
0030
0000
,
0100
0000
0100
0000
,
0200
0000
0300
0000
,
0001
0000
0001
0000
,
0002
0000
0003
0000
,
2000
0000
3000
0000
,
4000
0000
3000
0000
,
0002
0000
0003
0000
,
0004
0000
0003
0000
,
0010
0000
0010
0000
,
0020
0000
0030
0000
,
0100
0000
0100
0000
,
0200
0000
0300
0000
,
1000
0000
1000
0000
,
2000
0000
3000
0000
,
0001
0000
0001
0000
,
0002
0000
0003
0000
,
0200
0000
0300
0000
,
0400
0000
0300
0000
,
0020
0000
0030
0000
,
0040
0000
0030
0000
,
2000
0000
3000
0000
,
4000
0000
3000
0000
,
0002
0000
0003
0000
,
0004
0000
0003
0000
,
0010
0000
0010
0000
,
0020
0000
0030
0000
,
0100
0000
0100
0000
,
0200
0000
0300
0000
,
1000
0000
1000
0000
,
2000
0000
3000
0000
,
0001
0000
0001
0000
,
0002
0000
0003
0000
,
0100
0000
0100
0000
,
0200
0000
0300
0000
,
0010
0000
0010
0000
,
0020
0000
0030
0000
,
1000
0000
1000
0000
,
2000
0000
3000
0000
,
0001
0000
0001
0000
,
0002
0000
0003
0000
,
0020
0000
0030
0000
,
0020
0000
0030
0000
,
0200
0000
0300
0000
,
0200
0000
0300
0000
,
2000
0000
3000
0000
,
2000
0000
3000
0000
,
0002
0000
0003
0000
,
0002
0000
0003
0000
,
0100
0000
0100
0000
,
0200
0000
0300
0000
,
0010
0000
0010
0000
,
0020
0000
0030
0000
,
1000
0000
1000
0000
,
2000
0000
3000
0000
,
0001
0000
0001
0000
,
0002
0000
0003
0000
,
0010
0000
0010
0000
,
0020
0000
0030
0000
,
0100
0000
0100
0000
,
0200
0000
0300
0000
,
1000
0000
1000
0000
,
2000
0000
3000
0000
,
0001
0000
0001
0000
,
0002
0000
0003
0000
,
0200
0000
0300
0000
,
0400
0000
0300
0000
,
0020
0000
0030
0000
,
0040
0000
0030
0000
,
4000
0000
3000
0000
,
4000
0000
3000
0000
,
0004
0000
0003
0000
,
0004
0000
0003
0000
,
0020
0000
0030
0000
,
0040
0000
0030
0000
,
0200
0000
0300
0000
,
0400
0000
0300
0000
,
4000
0000
3000
0000
,
4000
0000
3000
0000
,
0004
0000
0003
0000
,
0004
0000
0003
0000
,
0100
0000
0100
0000
,
0200
0000
0300
0000
,
0010
0000
0010
0000
,
0020
0000
0030
0000
,
1000
0000
1000
0000
,
2000
0000
3000
0000
,
0001
0000
0001
0000
,
0002
0000
0003
0000
,
0020
0000
0030
0000
,
0040
0000
0030
0000
,
0200
0000
0300
0000
,
0400
0000
0300
0000
,
0040
0000
0030
0000
,
0040
0000
0030
0000
,
0004
0000
0003
0000
,
0004
0000
0003
0000
,
1000
0000
1000
0000
,
2000
0000
3000
0000
,
0010
0000
0010
0000
,
0020
0000
0030
0000
;
