#TITLE:Breathless;
#SUBTITLE:;
#ARTIST:The Corrs;
#TITLETRANSLIT:;
#SUBTITLETRANSLIT:;
#ARTISTTRANSLIT:;
#GENRE:;
#CREDIT:Ace Of Arrows;
#BANNER:Breathless - Bn.png;
#BACKGROUND:Breathless - Bg.jpg;
#LYRICSPATH:;
#CDTITLE:Ace Of Arrows.png;
#MUSIC:Breathless.ogg;
#OFFSET:1.015;
#SAMPLESTART:52.600;
#SAMPLELENGTH:12.000;
#SELECTABLE:YES;
#BPMS:0.000=127.000;
#STOPS:;
#BGCHANGES:;
#KEYSOUNDS:;

//---------------dance-single - Ace Of Arrows (2019)----------------
#NOTES:
     dance-single:
     Ace Of Arrows (2019):
     Hard:
     7:
     0.493,0.369,0.173,1.000,0.014:
0000
0000
0000
0000
,
0000
0000
0000
0000
,
0002
1003
0200
0300
0000
2000
3001
0020
,
0000
0030
0000
0000
0200
0000
1300
0001
,
0000
2000
0000
0000
3002
0000
0000
0203
,
0000
0320
1030
0001
2000
0000
0000
3200
,
0000
0320
0000
0000
0230
0000
0000
2300
,
0000
3002
0000
0000
2003
0000
0000
3020
,
0430
0004
0000
0000
0000
0000
0303
0000
0002
0000
0000
0000
0000
0000
2003
0000
,
0000
3020
0000
0230
0000
0000
0000
0302
,
0000
0000
2003
0000
3200
0000
0000
0320
,
0000
0230
0000
2300
0000
0000
3001
0200
,
0000
0000
0301
2000
0000
0000
3001
0020
,
0000
0130
0000
2000
0000
0000
3001
0200
,
0000
0320
0000
0030
0000
0000
1000
0002
,
0000
0013
0000
0200
0000
1300
0000
0002
,
0000
0203
0000
0310
0000
0000
1000
0002
,
0000
0023
0000
0230
0000
0000
1300
0002
,
0000
2003
0000
3000
0000
0000
0010
0200
,
0000
0302
0000
1003
0000
0100
0000
0020
,
0000
0032
0000
4003
0000
3000
0000
0001
,
0010
0001
0000
2000
0000
0000
3000
0000
,
0000
0010
0000
0200
0000
0302
0000
2003
,
0000
3200
0000
0320
0000
0230
1300
0002
,
0000
0000
1003
0200
0000
0320
0000
0230
,
0000
2300
0000
3002
0000
0003
0000
0000
,
0000
2000
0000
3020
0000
0130
0000
0000
,
0000
0002
0000
2003
0000
3100
0000
0000
,
0000
0040
0000
0000
0230
1300
0001
0000
,
0000
2000
3010
0100
0002
0000
0003
0000
,
1000
0020
0000
0000
0230
0000
0301
1000
,
0000
0020
0000
0000
1030
0001
1000
0000
,
0000
0001
0010
0100
2000
0000
3000
0001
,
0100
0020
0000
0000
2030
0000
3001
0020
,
0000
0230
0000
0000
2300
0000
3001
0020
,
0000
0032
0000
1003
0200
0000
0300
0000
,
1000
0002
0000
0000
0023
0000
0130
2000
,
0000
3002
0000
0000
0023
0130
2000
3000
,
0000
0002
0103
0010
2000
0000
3000
0000
,
0002
0000
0000
0000
0013
0000
0100
2000
,
0000
3000
1001
0000
0002
0000
0000
0023
,
0000
0230
0000
2300
0000
0000
0000
0000
,
0000
3001
0200
0000
0320
0000
0000
2030
,
0000
3002
0000
0023
0000
0000
0130
2000
,
0000
0000
3001
0200
0000
0000
0310
1000
,
0000
0002
0000
0023
0000
0000
0130
2000
,
0000
3002
0000
0003
0201
0000
0310
2000
,
0000
3002
0000
0023
0000
0230
0000
2300
,
0000
3002
0003
0202
0000
0303
0100
0020
,
0000
2030
3000
1002
0000
0000
0103
0020
,
0000
0430
0000
0300
0102
0000
1003
0200
,
0000
0320
0000
0032
0000
2003
0000
3200
,
0000
0320
0030
0022
0000
0033
0000
0001
,
1000
0001
0000
0201
0000
0320
0030
0000
,
0000
2000
0000
3002
0000
0013
0000
0200
,
0000
1300
0000
1002
0000
0203
0310
2000
,
0000
3000
0001
0020
0000
0230
0000
2300
,
0000
3002
0003
0201
0000
0310
0000
0000
,
0000
2000
3000
1002
0000
0013
0000
0000
,
0000
0200
0300
2100
0000
3001
0000
0000
,
0000
0400
0000
0000
0320
1030
0002
0003
,
0000
0020
0130
2200
0000
0000
3300
0000
,
1000
0002
0000
0003
0201
0000
0310
1000
,
0000
0002
0000
0003
0020
0130
2000
3000
,
0000
0001
0100
0010
2000
0000
3000
0000
,
0001
0020
0000
0030
0210
0000
1300
0002
,
0000
0203
0000
0300
0120
1030
0001
0020
,
0000
0230
1300
0001
0200
0000
0300
0000
,
0010
2000
0000
3000
1002
0000
0013
0100
,
0000
2000
0000
0000
3002
0103
0020
0030
,
0000
2000
3001
0022
0000
0000
0033
0000
,
0020
0000
0000
0030
0110
0000
0100
2000
,
0000
0000
3000
0000
1002
0000
0000
0203
,
0000
0320
0000
0030
2010
0000
0000
3002
,
4003
0040
0000
0000
0000
0000
3030
0000
0220
0000
0000
0000
0000
0000
0000
0000
,
0000
0000
0000
0000
0330
0100
0001
1000
,
0100
0010
0002
0003
2002
0000
0000
0000
,
0000
0000
3003
2000
0000
0000
0000
3000
,
0001
0100
0020
0030
1000
0001
0100
0020
,
0000
2030
0000
3002
0000
0000
0000
0023
,
0000
0230
0000
2300
0000
0000
0000
3002
,
0000
0203
0000
0320
0000
0000
1030
0002
,
0000
0023
0000
0230
0000
0300
0000
1000
,
0001
0100
0000
0120
0000
2030
0000
3000
,
0000
0001
0000
0021
0000
0230
0000
2300
,
0000
3002
0003
0201
0000
0320
1030
0002
,
0000
1003
0100
0020
0000
0230
0000
2300
,
0000
3002
0003
0202
0000
0303
0000
0000
,
0000
0200
0300
0120
0000
2030
3000
0000
,
0000
0001
0000
0021
0000
0230
0300
0000
,
4000
0004
0000
0000
0000
0000
3003
0000
2000
0000
3010
0000
0200
0000
0300
0000
,
0000
0001
1000
0010
0200
0000
0300
0000
,
0001
2000
0000
0000
3200
0000
0310
0011
,
0000
0002
0000
0003
2000
3010
0200
0300
,
0000
0001
1000
0010
0200
0000
0300
0001
,
1000
0200
0000
0300
0120
0000
0031
2000
,
0000
3020
0000
0030
0210
0301
1000
0200
,
0000
0310
0001
1000
0020
0000
0030
0000
,
0100
0002
0000
0003
2001
0000
3100
0010
,
0000
0002
0000
0003
2000
3010
0200
0300
,
0000
0000
0001
0000
1000
0000
0200
0000
0000
1300
0001
0000
0000
0000
0000
0000
,
1000
0020
0000
0030
0210
0000
0301
1000
,
0000
0200
0000
0300
0020
0130
2000
3000
,
0000
0000
0002
0000
0103
0000
0020
0000
0000
1030
0002
0000
0000
0000
0003
0000
,
0010
0200
0000
0000
2300
0000
3001
0101
,
0000
0200
0000
0300
0020
1030
0001
0000
,
0000
0000
0020
0000
0130
0000
2000
0000
0000
3001
0200
0000
0000
0000
0300
0000
,
0010
2000
0000
0000
3002
0000
0013
0110
,
0000
0100
1000
0001
0200
0310
2000
3000
,
0000
1001
0002
0203
0000
0300
0000
0000
;

//---------------dance-single - Ace Of Arrows (2019)----------------
#NOTES:
     dance-single:
     Ace Of Arrows (2019):
     Challenge:
     9:
     0.722,0.500,0.471,1.000,0.110: // measure 1
0000
0000
0000
0000
,  // measure 2
0000
0000
0000
0000
,  // measure 3
1002
0203
0320
0030
0000
0200
0301
2001
,  // measure 4
3000
0000
0000
0000
1200
0000
0310
0011
,  // measure 5
0000
0002
1003
0020
0230
0301
1000
0200
,  // measure 6
0000
0310
0001
1000
0020
0130
0001
2000
,  // measure 7
0000
3100
0010
0001
0020
0130
1000
0002
,  // measure 8
0000
1003
0010
0100
0002
0000
1003
0100
,  // measure 9
0010
0001
0010
0001
1000
0100
1000
0100
0020
0000
0130
0000
1000
0000
0002
0000
,  // measure 10
0000
2003
0000
3020
0130
0001
1000
0200
,  // measure 11
0310
0000
0100
0000
2000
0000
3001
0010
0002
0000
1003
0000
0010
0000
0200
0000
,  // measure 12
0000
0302
0000
1003
0100
0010
0001
2000
,  // measure 13
0000
3010
0100
0001
2001
0000
3100
0020
,  // measure 14
0130
1000
0001
0201
0000
0310
1000
0002
,  // measure 15
0000
0013
0100
1000
1002
0000
0103
0020
,  // measure 16
1030
0001
0010
0200
0000
1300
0001
0200
,  // measure 17
0000
0310
1000
1001
0001
0000
1000
0020
,  // measure 18
0130
0001
1000
0200
0000
0310
0100
2000
,  // measure 19
0000
3001
0100
0010
2010
0000
3001
0020
,  // measure 20
0130
1000
0001
0100
0000
0010
0100
0002
,  // measure 21
0000
0000
1003
0000
0100
0000
0010
0100
2000
0000
0000
0000
3001
0000
0100
0000
,  // measure 22
0010
2000
3000
1002
0000
0013
0100
1000
,  // measure 23
0001
0100
0000
0120
0000
1030
0001
0020
,  // measure 24
0000
0000
0130
0000
1000
0000
1002
0000
0000
0000
0103
0020
0000
0000
1030
0000
,  // measure 25
0001
0000
0020
0000
0130
1000
0001
1000
0200
0000
0320
0000
0000
0000
0032
0000
,  // measure 26
0000
1003
0010
0210
0000
0301
1000
0100
,  // measure 27
0010
0001
1000
1020
0000
0130
0001
1000
,  // measure 28
0100
0010
0001
2001
0000
3010
0100
0001
,  // measure 29
1000
0100
1000
0100
0010
0001
0010
0001
2000
0000
3010
0000
0200
0000
0300
0000
,  // measure 30
0000
0000
0001
0000
1000
0000
1200
0000
0000
0310
0002
0000
0000
0000
0003
0000
,  // measure 31
1000
0010
0100
0001
2001
3100
0010
0011
,  // measure 32
0000
0002
1003
0010
0210
0301
2000
3000
,  // measure 33
0000
0200
0310
0012
2003
3010
0100
0001
,  // measure 34
1000
0200
0000
0310
0012
1003
0010
0200
,  // measure 35
0000
0000
0302
0000
1003
0000
0100
0010
0200
0000
1300
0000
0002
0000
0203
0000
,  // measure 36
0310
2000
3001
0021
0230
1300
0001
0100
,  // measure 37
0010
2000
0000
3001
0011
0010
0100
2000
,  // measure 38
0000
3002
0103
0010
2010
3002
0023
0030
,  // measure 39
0000
0000
0002
0000
1003
0000
1020
0000
0000
0130
0002
0000
1003
0000
0100
0000
,  // measure 40
0010
0100
1000
0001
0101
0000
0200
0320
,  // measure 41
1000
0030
1010
0000
1002
0013
0100
2000
,  // measure 42
0000
3200
0000
0320
0000
0130
1000
0001
,  // measure 43
0100
0000
0010
0000
1000
0000
0001
0100
0002
0000
1003
0000
0100
0000
0020
0000
,  // measure 44
0000
0230
0000
2300
0000
3001
0100
0020
,  // measure 45
0000
0000
1030
0001
1000
0000
0001
0010
0002
0000
1003
0000
0010
0000
0110
0000
,  // measure 46
0000
0100
0001
2000
0000
3100
0010
0002
,  // measure 47
0000
1003
0010
0100
0102
0000
1003
0200
,  // measure 48
0000
0310
0001
2001
0000
3020
0000
0230
,  // measure 49
0000
0301
1000
1100
0000
0000
0100
0120
,  // measure 50
0000
0031
1000
1020
0000
0130
0001
2001
,  // measure 51
0000
3040
0000
0030
0210
0000
0301
2000
,  // measure 52
0000
3100
0010
0002
0000
1003
0010
0210
,  // measure 53
0000
0000
0301
0000
1000
0000
0100
0010
0002
0000
0003
0000
1001
0000
1000
0000
,  // measure 54
0010
0100
0001
2001
0000
3100
0010
0001
,  // measure 55
0000
1000
0010
0210
0000
0301
1000
1020
,  // measure 56
0000
0000
0130
0000
0001
0000
2001
0000
0000
3100
0010
0000
0001
0000
2001
0000
,  // measure 57
0000
0000
3010
0000
0100
0000
0001
1000
0002
0000
0013
0000
0100
0000
2000
0000
,  // measure 58
0000
3001
0100
0120
0000
1030
0001
0010
,  // measure 59
0100
1000
0001
0201
0000
0310
1000
0001
,  // measure 60
0010
0100
1000
1002
0000
0103
0010
1000
,  // measure 61
0001
0100
0001
0100
0010
1000
0010
1000
0002
0000
0023
0000
0230
0000
0300
0000
,  // measure 62
0000
0000
2000
0000
3010
0000
0210
0000
0000
0301
2000
0000
0000
0000
3000
0000
,  // measure 63
1001
0002
0000
0003
0021
0130
1000
1001
,  // measure 64
0000
0002
0103
0010
2010
3001
0020
0030
,  // measure 65
0000
0100
1000
1002
0203
0000
0300
0010
,  // measure 66
1000
0002
0000
0003
0021
0130
1000
2001
,  // measure 67
0000
0000
3020
0000
1030
0000
0010
0100
0020
0000
1030
0000
0002
0000
0023
0000
,  // measure 68
0030
0200
1300
1002
0203
0310
1000
0001
,  // measure 69
0010
0200
0000
1300
0001
0100
0010
2000
,  // measure 70
3000
1002
0013
0100
2100
3002
0203
0300
,  // measure 71
0000
0000
0020
0000
0130
0000
0102
0000
0000
1003
0200
0000
0000
0000
0300
0000
,  // measure 72
0020
0031
1000
0001
0021
0000
0130
2000
,  // measure 73
0001
0000
3001
0200
0320
1030
0001
0020
,  // measure 74
0000
0230
1300
0001
0200
0310
1000
0001
,  // measure 75
1000
0010
1000
0010
0100
0001
0100
0001
2000
0000
0000
0000
0000
0000
0001
0000
,  // measure 76
0000
0010
0000
0002
3003
0002
0013
0100
,  // measure 77
2000
3001
0200
0300
0120
0000
1030
0002
,  // measure 78
0000
0023
0000
0230
0000
0000
0000
1300
,  // measure 79
0001
0000
0100
0010
0100
0000
0001
0000
2001
0000
3100
0000
0010
0000
0002
0000
,  // measure 80
0000
2003
3000
2020
0000
0000
3000
0230
,  // measure 81
0000
0302
0000
2003
0000
0000
3002
0023
,  // measure 82
0000
0230
0000
2300
0000
0000
3001
0200
,  // measure 83
0000
0301
1000
0100
0120
0000
0031
1000
,  // measure 84
0010
0100
0000
0102
0000
2003
3100
0010
,  // measure 85
0100
1000
0001
0201
0000
0310
1000
1002
,  // measure 86
0000
0000
0013
0000
0100
0000
2100
0000
0000
0000
3001
0200
0000
0000
0320
0000
,  // measure 87
0000
0000
1030
0000
0001
0000
1000
0100
2000
0000
3001
0000
0100
0000
0020
0000
,  // measure 88
0000
1030
0001
0021
0000
0130
1000
0002
,  // measure 89
0000
0103
0010
2010
0000
3001
0010
0100
,  // measure 90
1000
0001
0100
0120
0000
1030
0001
0010
,  // measure 91
0100
1000
0100
1000
0001
0010
0001
0010
0200
0000
2300
0000
3002
0000
0003
0000
,  // measure 92
0000
0000
2000
0000
3010
0000
0210
0000
0000
0301
2000
0000
0000
0000
3000
0000
,  // measure 93
1001
0002
0000
0003
0201
0310
1000
1001
,  // measure 94
0000
0002
0013
0100
2100
3001
0200
0300
,  // measure 95
0000
0020
1030
1002
0203
0000
0300
0001
,  // measure 96
1000
0200
0310
0001
2001
3010
0100
0102
,  // measure 97
0000
0000
1003
0000
0100
0000
0010
0001
0020
0000
0130
0000
2000
0000
3002
0000
,  // measure 98
0003
2000
3010
0210
0302
0000
0003
0000
,  // measure 99
1001
2000
3100
0010
0012
1003
0010
0110
,  // measure 100
0000
0200
0301
1000
1200
0320
0032
0003
,  // measure 101
0000
0000
2001
0000
3020
0000
0230
0000
0000
0301
2000
0000
0000
0000
3000
0000
,  // measure 102
1001
0002
0000
0003
0011
0010
0100
1100
,  // measure 103
0000
2000
3001
0100
0120
2030
3002
0003
,  // measure 104
0000
0000
0021
0000
0230
0000
2300
0000
0000
3001
0200
0000
0000
0000
0300
0000
,  // measure 105
0110
0020
0000
0030
1010
1000
0001
0011
,  // measure 106
0000
0000
0020
0000
0130
0000
1000
0001
2000
0000
3020
0000
0230
0000
0300
0000
,  // measure 107
0000
0000
0002
0000
1003
0000
1200
0000
0000
0310
0002
0000
0000
0000
0003
0000
,  // measure 108
1001
2000
0000
3000
1010
0010
0100
0101
,  // measure 109
0000
0002
1003
0100
0020
0230
2300
0000
,  // measure 110
3000
1002
1003
2002
0000
3003
0000
0000
;

//---------------dance-single - Ace Of Arrows (2019)----------------
#NOTES:
     dance-single:
     Ace Of Arrows (2019):
     Medium:
     5:
     0.418,0.290,0.000,1.000,0.000:
0000
0000
0000
0000
,
0000
0000
0000
0000
,
1000
0100
2000
0000
3000
0002
0000
1003
,
0000
0000
0000
0000
0020
0000
0130
0001
,
0000
2000
0000
3000
0002
0000
0000
0023
,
0000
0230
0000
0000
2300
0000
0000
3002
,
0000
0203
0000
0000
0320
0000
0000
0230
,
0000
0302
0000
0000
2003
0000
0000
3200
,
0000
0320
0000
0000
0032
0000
0000
2003
,
0000
3002
0000
0203
0000
0000
0000
0000
,
0000
0000
0000
0310
2000
0000
0000
3002
,
0000
0023
0000
0230
0000
0000
1300
0002
,
0000
0000
1003
0020
0000
0000
1030
0002
,
0000
0013
0000
0200
0000
0000
1300
0002
,
0000
0023
0000
0030
0000
0000
0100
2000
,
0000
3002
0000
0203
0000
0310
0000
2000
,
0000
3002
0000
0013
0000
0000
0001
2000
,
0000
3020
0000
0230
0000
0000
0301
2000
,
0000
3020
0000
0030
0000
0000
1000
0002
,
0000
2003
0000
3100
0000
0020
0000
0230
,
0000
2300
0000
3004
0000
0003
0000
1000
,
0001
2000
0000
3020
0000
0000
0030
0000
,
0000
1000
0000
0002
0000
0023
0000
0032
,
0000
2003
0000
3020
0000
0230
0000
0300
,
0000
0000
0001
2000
0000
3200
0000
0320
,
0000
0230
0000
2300
0000
3001
0000
0000
,
0000
0020
0000
0230
0000
1300
0000
0000
,
0000
0002
0000
2003
0000
3010
0000
0000
,
0000
2000
0000
0000
3001
0010
0001
0000
,
0000
1000
0010
2000
0000
3000
0000
0000
,
0001
0020
0000
0000
0230
0000
1300
0001
,
0000
0020
0000
0000
0031
1000
0001
0000
,
0000
0020
0000
0230
0000
0300
0000
1000
,
0001
2000
0000
0000
3002
0000
0103
0020
,
0000
2030
0000
0000
3002
0000
0023
0000
,
0000
0032
0000
2003
0000
3000
0000
0000
,
0001
0200
0000
0000
0320
0000
1030
0001
,
0000
0200
0000
0000
0310
1000
0010
0000
,
0000
1000
0001
2000
0000
0000
3000
0000
,
0002
0000
0000
0000
0003
0000
1000
0200
,
0000
0000
0300
0000
0020
0000
0000
0230
,
0000
2300
0000
3002
0000
0000
0000
0000
,
0000
0000
0000
1003
0020
0000
0000
2030
,
0000
3002
0000
0203
0000
0000
0310
2000
,
0000
0000
3001
0020
0000
0000
0031
1000
,
0000
0020
0000
2030
0000
0000
3001
0020
,
0000
0230
0000
0000
0300
0000
1000
0002
,
0000
0203
0000
0320
0000
0230
0000
0302
,
0000
2003
0000
3100
0000
0000
0010
0002
,
0000
2003
0000
3200
0000
0000
1300
0002
,
0000
4003
0000
3000
0000
0000
0001
0020
,
0000
0230
0000
2300
0000
3002
0000
0203
,
0000
0302
0000
2003
0000
3000
0000
0001
,
0100
0002
0000
2003
0000
3100
0000
0000
,
0000
0020
0000
0032
0000
0023
0000
0230
,
0000
2300
0000
3002
0000
0203
0000
0300
,
0000
0000
0010
0200
0000
0302
0000
2003
,
0000
3020
0000
2030
0000
3001
0000
0000
,
0000
2000
0000
3200
0000
0310
0000
0000
,
0000
0002
0000
0023
0000
0130
0000
0000
,
0000
2000
0000
0000
3001
0100
0001
0000
,
0000
1000
0001
2000
0000
3000
0000
0000
,
0001
0020
0000
0000
0032
0000
1003
0010
,
0000
0200
0000
0000
0301
1000
0001
0000
,
0000
2000
0000
3200
0000
0300
0000
1000
,
0001
2000
0000
0000
3020
0000
1030
0002
,
0000
0023
0000
0000
0230
0000
2300
0000
,
0000
3002
0000
0203
0000
0300
0000
0000
,
0010
2000
0000
0000
3002
0000
1003
0200
,
0000
0320
0000
0000
0031
1000
0001
0000
,
0000
1000
0010
2000
0000
3000
0000
0000
,
0002
0000
0000
0000
0003
0000
1000
0200
,
0000
0000
0300
0000
2000
0000
0000
3002
,
0000
0023
0000
0000
0032
0000
0000
2003
,
0000
3200
0320
0000
,
0000
0000
0000
0000
0030
0001
2000
0000
,
3010
0100
0020
0000
2030
0000
3001
0020
,
0000
0032
0000
2003
0000
0000
3001
0200
,
0000
0000
0310
2000
0000
0000
3001
2000
,
0000
3200
0000
0320
0000
0000
0000
0230
,
0000
2300
0000
3002
0000
0000
0000
2003
,
0000
3020
0000
2030
0000
0000
3001
0020
,
0000
0230
0000
2300
0000
3000
0000
0001
,
1000
0002
0000
0023
0000
0130
0000
0000
,
0000
0010
0000
0002
0000
2003
0000
3020
,
0000
2030
0000
3002
0000
0203
0000
0300
,
0000
0000
0010
2000
0000
3002
0000
0023
,
0000
0230
0000
2300
0000
3001
0000
0000
,
0000
2000
0000
3002
0000
0103
0000
0000
,
0000
0010
0000
2000
0000
3001
0000
0000
,
0000
0020
0000
0000
0130
1000
0100
0000
,
0000
0010
0001
0020
0000
0030
0000
0000
,
0100
2000
0000
0000
3002
0000
0103
0010
,
0000
2000
0000
0000
3001
0100
0001
0000
,
0000
2000
0000
3002
0000
0003
0000
0100
,
0010
0200
0000
0000
0302
0000
1003
0200
,
0000
0320
0000
0000
0032
0000
2003
0000
,
0000
3020
0000
0230
0000
0300
0000
0000
,
0001
0200
0000
0000
0320
0000
1030
0001
,
0000
2000
0000
0000
3001
0010
0001
0000
,
0000
1000
0100
2000
0000
3000
0000
0000
,
0001
2000
0000
0000
3020
0000
0130
0001
,
0000
2000
0000
0000
3001
0100
0001
0000
,
0000
1000
0001
2000
0000
3000
0000
0000
,
0001
0020
0000
0000
0230
0000
1300
0001
,
0000
0200
0000
0000
0310
1000
0010
0000
,
0000
1000
0001
2000
0000
3000
0000
0000
,
0001
0200
0000
0000
0320
0000
1030
0001
,
0000
0020
0000
0000
0031
0010
0001
0000
,
0000
1000
0001
2000
0000
3000
0000
0000
;

//---------------dance-single - Ace Of Arrows (2019)----------------
#NOTES:
     dance-single:
     Ace Of Arrows (2019):
     Easy:
     3:
     0.205,0.184,0.000,0.163,0.000:
0000
0000
0000
0000
,
0000
0000
0000
0000
,
0001
0000
0001
0000
0000
1000
0000
1000
,
0000
0000
0000
0000
0002
0000
0003
1000
,
0000
1000
0000
0000
0010
0000
0000
0010
,
0000
0000
0000
0000
0100
0000
0000
0100
,
0000
0000
0000
0000
0001
0000
0000
0001
,
0000
0000
0000
0000
1000
0000
0000
1000
,
0000
0000
0000
0000
0010
0000
0000
0010
,
0000
0010
0000
0020
0000
0000
0000
0000
,
0030
0000
0000
0000
1000
0000
0000
1000
,
0000
1000
0000
1000
0000
0000
0000
0001
,
0000
0000
0000
0001
0000
0000
0000
1000
,
0000
1000
0000
1000
0000
0000
0000
0010
,
0000
0010
0000
0000
0000
0000
0000
0100
,
0000
0100
0000
0100
0000
0000
0000
0001
,
0000
0001
0000
0001
0000
0000
0000
1000
,
0000
0000
0000
1000
0000
0000
0000
0001
,
0000
0001
0000
0000
0000
0000
0000
0010
,
0000
0010
0000
0010
0000
0000
0000
0100
,
0000
0100
0000
0400
0000
0300
0000
0000
,
1000
0000
0000
2000
0000
3000
0000
0000
,
0000
0000
0000
0001
0000
0001
0000
0001
,
0000
0000
0000
0002
0000
0000
0003
0000
,
0000
0000
0000
1000
0000
0000
0000
1000
,
0000
1000
0000
2000
0000
3000
0000
0000
,
0000
0010
0000
0010
0000
0010
0000
0000
,
0000
0100
0000
0100
0000
0100
0000
0000
,
0000
0001
0000
0000
0001
0000
0001
0000
,
0000
1000
0000
2000
0000
3000
0000
0000
,
0010
0000
0000
0000
0100
0000
0000
0100
,
0000
0100
0000
0000
0001
0000
0001
0000
,
0000
1000
0000
2000
0000
3000
0000
0000
,
0100
0000
0000
0000
0010
0000
0000
0010
,
0000
0010
0000
0000
0001
0000
0001
0000
,
0000
1000
0000
2000
0000
3000
0000
0000
,
0010
0000
0000
0000
0100
0000
0000
0100
,
0000
0100
0000
0000
0001
0000
0001
0000
,
0000
1000
0000
2000
0000
3000
0000
0000
,
0002
0000
0003
0000
,
0000
0000
0000
0000
0010
0000
0000
0010
,
0000
0010
0000
0020
0000
0000
0000
0000
,
0030
0000
0000
0000
0100
0000
0000
0100
,
0000
0100
0000
0100
0000
0000
0000
1000
,
0000
0000
0000
1000
0000
0000
0000
0100
,
0000
0100
0000
0100
0000
0000
0000
0010
,
0000
0020
0000
0000
0030
0000
0000
0001
,
0000
0001
0000
0001
0000
0000
0000
1000
,
0000
1000
0000
1000
0000
0000
0000
0010
,
0000
0010
0000
0010
0000
0000
0000
1000
,
0000
4000
0000
3000
0000
0000
0000
0001
,
0000
0001
0000
0001
0000
0000
0000
0010
,
0000
0010
0000
0020
0000
0030
0000
0000
,
0100
0000
0000
0200
0000
0300
0000
0000
,
0000
0000
0000
1000
0000
1000
0000
1000
,
0000
0000
0000
0002
0000
0000
0003
0000
,
0000
0000
0000
0100
0000
0100
0000
0100
,
0000
0000
0000
0010
0000
0010
0000
0000
,
0000
1000
0000
1000
0000
1000
0000
0000
,
0000
0001
0000
0001
0000
0001
0000
0000
,
0000
0010
0000
0000
0100
0000
0100
0000
,
0000
1000
0000
2000
0000
3000
0000
0000
,
0001
0000
0000
0000
0100
0000
0000
0010
,
0000
0010
0000
0000
1000
0000
1000
0000
,
0000
0001
0000
0002
0000
0003
0000
0000
,
1000
0000
0000
0000
0100
0000
0000
0010
,
0000
0010
0000
0000
0001
0000
0001
0000
,
0000
1000
0000
2000
0000
3000
0000
0000
,
0001
0000
0000
0000
0100
0000
0000
0010
,
0000
0010
0000
0000
0100
0000
0100
0000
,
0000
0001
0000
0002
0000
0003
0000
0000
,
2000
0000
3000
0000
,
0000
0000
0000
0000
0001
0000
0000
0001
,
0000
0000
0000
0000
0010
0000
0000
0010
,
0000
0000
0002
0000
,
0000
0003
0000
1000
,
1000
0000
0200
0000
,
0300
0000
0010
0000
,
0001
0000
0001
0000
0001
0000
0000
0010
,
0000
0010
0000
0020
0000
0000
0000
0030
,
0000
0000
0000
0000
0100
0000
0000
1000
,
0000
1000
0000
1000
0000
0000
0000
0001
,
0000
0001
0000
0002
0000
0003
0000
0000
,
1000
0000
0000
2000
0000
0000
3000
0000
,
0000
0000
0000
0010
0000
0010
0000
0010
,
0000
0000
0000
0200
0000
0000
0300
0000
,
0000
0000
0000
0001
0000
0000
0000
1000
,
0000
1000
0000
2000
0000
3000
0000
0000
,
0000
0100
0000
0100
0000
0100
0000
0000
,
0000
0010
0000
0010
0000
0010
0000
0000
,
0000
0001
0000
0000
1000
0000
1000
0000
,
0000
0010
0000
0020
0000
0030
0000
0000
,
0100
0000
0000
0000
0001
0000
0000
1000
,
0000
1000
0000
0000
0100
0000
0100
0000
,
0000
0010
0000
0020
0000
0030
0000
0000
,
0001
0000
0000
0000
1000
0000
0000
0010
,
0000
0010
0000
0000
0100
0000
0100
0000
,
0000
0001
0000
0002
0000
0003
0000
0000
,
1000
0000
0000
0000
0001
0000
0000
0010
,
0000
0010
0000
0000
0100
0000
0100
0000
,
0000
1000
0000
2000
0000
3000
0000
0000
,
0001
0000
0000
0000
1000
0000
1000
1000
,
0000
1000
0000
0000
0001
0000
0001
0000
,
0000
0100
0000
0200
0000
0300
0000
0000
,
0001
0000
0000
0000
0001
0000
0001
0001
,
0000
0001
0000
0000
1000
0000
1000
0000
,
0000
0010
0000
0020
0000
0030
0000
0000
,
0100
0000
0000
0000
0010
0000
0010
0010
,
0000
0010
0000
0000
1000
0000
1000
0000
,
0000
0001
0000
0002
0000
0003
0000
0000
;

//---------------dance-single - Ace Of Arrows (2019)----------------
#NOTES:
     dance-single:
     Ace Of Arrows (2019):
     Beginner:
     1:
     0.137,0.079,0.000,0.322,0.000:
0000
0000
0000
0000
,
0000
0000
0000
0000
,
1000
0000
0000
1000
,
0000
0000
0001
0000
,
0001
0000
0002
0000
,
0003
0000
2000
0000
,
3000
0000
0020
0000
,
0030
0000
0200
0000
,
0300
0000
0001
0000
,
0001
0000
0002
0000
,
0003
0000
1000
0000
,
1000
0000
2000
0000
,
3000
0000
0000
0000
,
0001
0000
0001
0000
,
0001
0000
0000
0000
,
0010
0000
0010
0000
,
0020
0000
0030
0000
,
0100
0000
0100
0000
,
0100
0000
0000
0000
,
0000
0000
1000
0000
,
1000
0000
2000
0000
,
3000
0000
0001
0000
,
0000
0000
0100
0000
,
0100
0000
0200
0000
,
0300
0000
0010
0000
,
0010
0000
0020
0000
,
0030
0000
1000
0000
,
0000
0000
0001
0000
,
0000
0000
2000
3000
,
0000
2000
3000
0000
,
0000
0000
0002
0000
,
0003
0000
0200
0300
,
0000
0200
0300
0000
,
0000
0000
0020
0000
,
0030
0000
0200
0300
,
0000
0200
0300
0000
,
0000
0000
0001
0000
,
0001
0000
0002
0003
,
0000
0002
0003
0000
,
0020
0000
0030
0000
,
0000
0000
0001
0000
,
0001
0000
0002
0000
,
0003
0000
1000
0000
,
1000
0000
2000
0000
,
0000
0000
3000
0000
,
0010
0000
0010
0000
,
0020
0000
0030
0000
,
0000
0000
0100
0000
,
0100
0000
0100
0000
,
0000
0000
0001
0000
,
0004
0000
0003
0000
,
1000
0000
1000
0000
,
2000
0000
3000
0000
,
0100
0000
0200
0000
,
0300
0000
0010
0000
,
0010
0000
0020
0000
,
0030
0000
0001
0000
,
0001
0000
0002
0000
,
0003
0000
1000
0000
,
0000
0000
0010
0000
,
0000
0000
0200
0300
,
0000
0200
0300
0000
,
0000
0000
0002
0000
,
0003
0000
2000
3000
,
0000
2000
3000
0000
,
0000
0000
0200
0000
,
0300
0000
0020
0030
,
0000
0020
0030
0000
,
0000
0000
0002
0000
,
0003
0000
2000
3000
,
0000
2000
3000
0000
,
0020
0000
0030
0000
,
0000
0000
0100
0000
,
0100
0000
0200
0000
,
0300
0000
0002
0000
,
0000
0000
0003
0000
,
1000
0000
2000
0000
,
0000
0000
0000
0000
,
3000
0000
0010
0000
,
0010
0000
0020
0000
,
0030
0000
2000
0000
,
3000
0000
0001
0000
,
0001
0000
0002
0000
,
0003
0000
0200
0000
,
0300
0000
0010
0000
,
0010
0000
0020
0000
,
0030
0000
1000
0000
,
1000
0000
2000
0000
,
3000
0000
0002
0000
,
0003
0000
0020
0000
,
0030
0000
0200
0300
,
0000
0200
0300
0000
,
0000
0000
2000
0000
,
3000
0000
0002
0003
,
0000
0002
0003
0000
,
0000
0000
0200
0000
,
0300
0000
0020
0030
,
0000
0020
0030
0000
,
0000
0000
2000
0000
,
3000
0000
0001
0001
,
0000
0002
0003
0000
,
0000
0000
0200
0000
,
0300
0000
0010
0010
,
0000
0020
0030
0000
,
0000
0000
2000
0000
,
3000
0000
0001
0001
,
0000
0002
0003
0000
,
0000
0000
0020
0000
,
0030
0000
0100
0100
,
0000
0200
0300
0000
;
