#TITLE:Breaking Dawn;
#SUBTITLE:;
#ARTIST:TetraCalyx;
#TITLETRANSLIT:;
#SUBTITLETRANSLIT:;
#ARTISTTRANSLIT:;
#GENRE:;
#CREDIT:Ace Of Arrows;
#BANNER:Breaking Dawn - Bn.png;
#BACKGROUND:Breaking Dawn - Bg.jpg;
#LYRICSPATH:;
#CDTITLE:Ace Of Arrows.png;
#MUSIC:Breaking Dawn.ogg;
#OFFSET:0.790;
#SAMPLESTART:48.900;
#SAMPLELENGTH:12.000;
#SELECTABLE:YES;
#BPMS:0.000=140.000,84.000=70.000,100.000=140.000;
#STOPS:;
#BGCHANGES:;
#KEYSOUNDS:;

//---------------dance-single - Ace Of Arrows (2019)----------------
#NOTES:
     dance-single:
     Ace Of Arrows (2019):
     Challenge:
     9:
     0.894,0.295,0.659,1.000,0.406:
0000
0000
0000
0000
,
1002
0103
0020
1030
0002
0000
0013
0100
,
1000
0000
0001
0000
0100
0000
0020
0000
1030
0000
0001
0000
0010
0100
0010
0000
,
0012
0000
1003
0000
0010
0000
0100
0000
0002
0000
1003
0000
0100
0010
0100
0000
,
2100
3001
0100
0120
0000
1030
0001
1000
,
1200
0310
0001
1000
0002
0000
0103
0020
,
0000
2030
0000
3002
0000
0013
0000
0210
,
1300
0001
0100
0010
2010
3001
0010
0200
,
1300
0001
0100
0020
1030
0001
0010
0100
,
2100
0000
0000
3001
0100
0000
0010
0000
1000
0000
0001
0010
0001
0000
1000
0000
,
1020
0000
0000
0130
0001
0000
1000
0100
1000
0000
0001
0000
0100
0010
0100
0000
,
0102
0000
0000
1003
0100
0000
0040
0000
0000
0000
0031
0000
1000
0001
1000
0000
,
2020
0000
0000
3000
0000
0000
0200
0000
0030
0000
0301
0000
1000
0100
1000
0000
,
1002
0000
0000
0203
0000
0000
0310
0000
2000
0000
3001
0000
0021
0000
0130
0000
,
1000
0000
1002
0000
0103
0000
0020
0000
2000
0000
3000
0100
0000
0000
1030
0000
,
1002
0013
0100
2100
3001
0100
0120
1030
,
0001
0201
0310
1000
1002
0013
0100
1000
,
0002
0000
1003
0000
0010
0000
0100
0001
0100
0000
0010
0000
1000
0000
0001
0010
,
0001
0000
1000
0000
0010
0000
0100
0001
1000
0100
1000
0001
0100
0001
1000
0000
,
1200
0310
0001
2001
3010
0100
0001
1000
,
1020
0000
0100
0230
0302
1003
1100
0100
,
0120
0000
0000
0000
0031
2000
0000
3020
0000
1030
0001
2000
0000
3200
0000
0310
,
0012
4003
0000
3010
0210
0000
0301
0000
2001
3200
0000
0310
0001
1000
0001
0100
,
0120
0000
1030
0001
0020
0000
0130
1000
1002
0103
0020
0130
0102
1003
0100
0040
,
0000
0000
0031
1000
0010
0100
0202
0303
1001
2000
0000
3100
0110
0020
0000
0030
,
0011
0001
2000
0000
3010
0100
0001
1000
,
1100
0000
0200
0000
0310
0000
0001
0000
1000
0000
0010
0000
0210
0000
0301
1000
,
0001
0000
0020
0000
0130
0000
1000
0100
1000
0000
0001
0000
0100
0000
0010
0000
,
2000
0000
3001
0000
0021
0000
0130
0000
2000
0000
3001
0000
0201
0000
0310
1000
,
0040
0000
0130
0000
0101
0000
0001
0000
2000
0000
0000
3100
0000
0000
0010
0000
,
0011
0002
1003
0010
0100
0002
1003
0100
,
0110
0010
0001
2000
0000
3010
0100
0001
,
2000
0000
3100
0000
0120
0000
0000
0000
0031
0000
1000
0000
1020
0000
0130
0001
,
0200
0000
0310
0000
1000
0000
0001
0000
0020
0000
0130
0000
1100
0000
1000
0001
,
1000
0000
0020
0000
0130
0000
0001
0000
4000
0000
3100
0000
0010
0000
0001
1000
,
0001
0100
0110
0020
1030
0001
0020
0130
,
1100
1000
0001
0100
0120
1030
1002
0013
,
0210
0000
1300
0100
1000
0000
0001
0100
0001
0000
1000
0001
1000
0000
0100
0000
,
0120
0000
0031
0010
0001
0000
1000
0100
0010
0001
1000
0001
0010
0100
1000
0001
,
0200
0000
0000
0000
0320
0000
0000
0000
1030
0000
0001
0000
1000
0000
0100
0010
,
0100
0000
1000
0000
0001
0100
0001
0000
2000
0000
0000
0000
3002
0000
0013
0100
,
0010
0000
0001
0000
1000
0000
0010
0100
0010
0000
1000
0000
0001
0000
0010
0000
,
0210
0000
1300
0000
1002
0000
0000
0000
0103
0000
0010
0000
2010
0000
0000
3000
,
1004
0000
0000
0000
0013
0000
0100
0000
2100
0000
0000
3001
0000
0000
0201
0000
,
0310
0100
0010
0000
1000
0000
0001
0000
0010
0000
0100
0000
1100
0000
1000
0001
,
2000
0000
3010
0000
0100
0000
0002
0000
1003
0100
1000
0000
1001
0000
0001
0000
,
0401
0000
0000
0300
0120
0000
0000
0030
2010
0000
0000
3000
1002
0000
0013
0100
,
0020
0031
2000
0000
3020
0130
0001
1000
,
1002
0103
0020
0000
0230
0301
1001
2000
,
3100
0010
0001
2000
3001
0100
0010
1000
,
1002
0000
0013
0000
0100
0000
1000
0000
2002
0000
3003
0000
0102
0000
1003
0100
,
2000
0000
3001
0000
1000
0100
1000
0100
0010
0001
0010
0001
1000
0001
1000
0001
,
0200
0000
0000
0000
0310
1000
0010
1000
0001
0100
0001
0100
0001
1000
0001
1000
,
0200
0000
0310
0000
0001
0000
1000
0010
1000
0000
0001
0000
0010
0000
0100
0010
,
0100
0000
1000
0001
0100
0001
2000
0000
3100
0000
0010
0000
0011
0000
0001
0000
,
2002
0000
0000
0000
0000
0000
0000
0000
0000
0000
0003
0000
0000
0000
3001
0010
,
0100
1000
0000
0000
0000
0000
0000
0000
0000
0000
0000
0000
0000
0000
0000
0000
;

//---------------dance-single - Ace Of Arrows (2019)----------------
#NOTES:
     dance-single:
     Ace Of Arrows (2019):
     Hard:
     7:
     0.518,0.214,0.153,1.000,0.091: // measure 1
0000
0000
0000
0000
,  // measure 2
1000
0100
0020
0000
0230
0000
1300
0001
,  // measure 3
0100
0001
1000
0200
0000
0000
0320
0000
,  // measure 4
0032
0000
1003
0010
2000
0000
3001
0000
,  // measure 5
0020
0130
0010
0002
0000
1003
0020
1030
,  // measure 6
0002
0000
0013
0100
2000
0000
3001
0200
,  // measure 7
0000
0320
0000
2030
0000
3002
0000
0023
,  // measure 8
0000
0000
0030
0100
2000
0000
3001
0200
,  // measure 9
0000
0000
0310
2000
0000
3002
0000
0023
,  // measure 10
0000
0000
0030
0001
2000
0000
3100
0020
,  // measure 11
0000
0000
0030
0002
,  // measure 12
2003
0000
0000
3400
0000
0000
0000
1300
,  // measure 13
0002
0000
0000
0203
0000
0000
0300
0000
,  // measure 14
0000
0020
0000
1030
0002
0000
1003
0200
,  // measure 15
0000
0320
0000
0230
0000
2300
0000
3002
,  // measure 16
0000
0000
0003
1000
0020
0000
1030
0002
,  // measure 17
0000
0000
0013
0200
0000
1300
0000
0002
,  // measure 18
0000
0000
0000
0000
0003
0000
0000
0000
2000
0000
0000
3010
0000
0000
0200
0000
,  // measure 19
0000
0302
0000
0000
0000
0000
0003
0000
,  // measure 20
2000
0000
0000
3100
0020
0000
0000
0130
,  // measure 21
2000
0000
0000
3004
0000
0000
0003
0000
,  // measure 22
0000
0000
0000
0000
1000
0200
0000
0320
0000
0031
0010
0002
0000
1003
0000
0020
,  // measure 23
0000
0430
0000
0000
0300
0000
0002
0000
2003
0000
0000
3020
0000
0000
0430
0000
,  // measure 24
0000
0300
0000
0000
0002
0000
1003
0200
0000
0340
0000
0230
0000
2300
0000
3004
,  // measure 25
0000
0000
0103
0040
0000
0000
1030
0000
0002
0000
0000
0013
0200
0000
0300
0000
,  // measure 26
2100
0000
3002
0000
0203
0000
0310
2000
,  // measure 27
0000
3002
0000
0013
0100
0000
1000
0000
,  // measure 28
1002
0000
0000
0203
0000
0000
0320
0000
,  // measure 29
1030
0001
2000
0000
3100
0010
0200
0300
,  // measure 30
4100
0000
0000
0000
3000
0000
0001
0000
2000
0000
0000
3200
0000
0000
0320
0000
,  // measure 31
0000
0230
0000
1300
0001
2000
0000
3001
,  // measure 32
0020
0000
0000
0230
0000
0000
2300
3000
,  // measure 33
1004
0000
0000
0000
0403
0000
0000
0300
,  // measure 34
0120
0000
2030
0000
3002
0000
0013
0200
,  // measure 35
0000
2300
0000
3001
0100
0001
2000
3000
,  // measure 36
1200
0000
0000
0320
0000
0000
0031
0000
,  // measure 37
4001
0000
3000
0020
0000
0230
0000
0301
,  // measure 38
2000
0000
3001
0000
0010
0100
1000
0100
,  // measure 39
0020
0000
0130
0000
1000
0001
0100
0001
,  // measure 40
2001
0000
3020
0000
0230
0000
0301
2000
,  // measure 41
0000
3200
0000
0310
0002
0000
1003
0000
,  // measure 42
1020
0000
0000
0230
0000
0000
0302
0000
,  // measure 43
1003
0001
2000
0000
3001
0100
0002
0003
,  // measure 44
4001
0000
0000
0000
3000
0000
0100
0000
0020
0000
0000
0032
0000
0000
2003
0000
,  // measure 45
0000
3020
0000
0130
0001
2000
0000
3100
,  // measure 46
0020
0000
0000
0230
0000
0000
0320
0030
,  // measure 47
0014
0000
4003
3000
,  // measure 48
1020
0000
0230
0000
0302
0000
1003
0200
,  // measure 49
0000
0320
0000
0130
4000
0000
3000
0000
,  // measure 50
1002
0000
0000
0203
0000
0000
0320
0030
,  // measure 51
2020
0000
3030
2000
0000
3001
0010
0000
,  // measure 52
0210
0000
1300
0100
0010
0001
0010
0100
,  // measure 53
2000
0000
3001
0100
0010
1000
0010
0100
,  // measure 54
0001
0000
4000
0000
3001
0010
0100
1000
,  // measure 55
0100
0010
0004
0000
0003
0000
1000
0001
,  // measure 56
2002
0000
0000
0000
0000
0000
0000
0000
0000
0000
0000
0000
3003
0000
1000
0100
,  // measure 57
1000
0000
0000
0000
;

//---------------dance-single - Ace Of Arrows (2019)----------------
#NOTES:
     dance-single:
     Ace Of Arrows (2019):
     Medium:
     5:
     0.359,0.214,0.000,0.936,0.048:
0000
0000
0000
0000
,
0002
0203
0320
2030
,
3002
0000
0000
0023
0000
0000
0230
0000
,
2300
0000
0000
3002
0000
0000
0203
0000
,
0320
0000
0000
2030
0000
0000
3002
0000
,
0023
0000
0031
0000
2000
0000
3001
0200
,
0000
0301
0000
2000
0000
3010
0000
0200
,
0000
0000
0300
0001
2000
0000
3001
0020
,
0000
0000
0130
2000
0000
3002
0000
0203
,
0000
0000
0300
0010
2000
0000
3001
0020
,
0000
0000
0030
0100
,
2000
0000
0000
3004
0000
0000
0000
0013
,
0200
0000
0000
2300
0000
0000
0000
3000
,
0000
0002
0000
0103
0020
0000
1030
0002
,
0000
0023
0000
0032
0000
2003
0000
3200
,
0000
0000
0300
0010
0002
0000
1003
0020
,
0000
0000
1030
0002
0000
0013
0000
0200
,
0000
0000
0300
0000
2000
0000
3001
0200
,
0000
0302
0000
0000
0000
0000
0003
0000
,
0020
0000
0000
0130
2000
0000
0000
3001
,
0200
0000
0000
0340
0000
0000
0030
0000
,
0000
0000
0000
0000
1000
0000
0000
1000
0000
0000
0000
0000
0001
0000
0000
0001
,
0000
0004
0000
0000
0003
0000
0000
0000
0010
0000
0000
0010
0000
0000
0040
0000
,
0000
0030
0000
0000
0100
0000
0000
0100
0000
0100
0000
0100
0000
0000
0000
0000
,
1000
0000
0000
4000
0000
0000
3000
0000
0001
0000
0000
0000
0001
0000
0000
0000
,
2000
0000
3020
0000
2030
0000
3001
0020
,
0000
0000
0030
0002
,
2003
0000
0000
3020
0000
0000
0230
0000
,
0302
0000
2003
0000
,
3400
0000
0000
0000
0300
0000
0010
0000
0001
0000
0000
0001
0000
0000
0002
0000
,
0000
0000
0000
0000
0003
2000
0000
3010
,
0200
0000
0000
0302
0000
0000
1003
0000
,
0400
0000
0340
0030
,
0002
0000
2003
0000
3020
0000
0130
0002
,
0000
0000
4003
0000
,
3020
0000
0000
0230
0000
0000
0302
0000
,
4003
0000
3000
0002
0000
1003
0100
0000
,
0020
0000
0000
0030
,
0200
0000
0000
0000
0000
0000
0300
1000
,
0002
0000
0203
0000
0320
0000
1030
0002
,
0000
0000
0003
0020
,
0230
0000
0000
2300
0000
0000
3002
0000
,
2003
0000
3020
0000
,
0430
0000
0000
0000
0300
0000
0001
0000
1000
0000
0000
1000
0000
0000
2000
0000
,
0000
0000
0000
0000
3000
0002
0000
0013
,
0200
0000
0000
2300
0000
0000
3002
0000
,
4003
0000
3040
0030
,
0200
0000
0302
0000
2003
0000
3001
0020
,
0000
0000
0430
0000
,
2300
0000
0000
3002
0000
0000
0203
0000
,
0320
0000
0030
2000
0000
3001
0010
0000
,
0200
0000
0000
0300
,
2000
0000
0000
0000
0000
0000
0000
3002
,
0000
0023
0000
0000
,
0430
0000
0000
0000
,
2300
0000
0000
0000
,
3001
0000
0000
0000
;

//---------------dance-single - Ace Of Arrows (2019)----------------
#NOTES:
     dance-single:
     Ace Of Arrows (2019):
     Easy:
     4:
     0.222,0.107,0.000,0.372,0.000:
0000
0000
0000
0000
,
1000
1000
2000
3000
,
0010
0000
0000
0020
0000
0000
0030
0000
,
0100
0100
0200
0300
,
0001
0000
0000
0002
0000
0000
0003
0000
,
0000
0000
0000
0000
1000
0000
0000
2000
,
0000
0000
3000
0100
0000
0100
0000
0200
,
0000
0000
0300
0000
0010
0000
0000
0020
,
0000
0030
0000
0001
0000
0001
0000
0002
,
0000
0000
0003
0000
0010
0000
0000
0020
,
0000
0000
0030
0100
,
0200
0000
0300
0400
0000
0000
0300
0000
,
2000
0000
3000
2000
0000
0000
0000
3000
,
0000
0001
0000
0000
0001
0000
0000
0002
,
0000
0003
0000
0100
0000
0100
0000
0200
,
0000
0000
0300
0000
0010
0000
0000
0020
,
0000
0000
0030
1000
0000
1000
0000
2000
,
0000
0000
3000
0000
0001
0000
0000
0001
,
0000
0002
0000
0000
0000
0000
0003
0000
,
0100
0000
0200
0300
,
0010
0000
0000
0040
0000
0000
0030
0000
,
0000
1000
1000
1000
,
2000
3000
0001
0001
,
0001
0000
0010
0010
,
0040
0000
0000
0030
0200
0000
0300
0000
,
1000
0000
1000
0000
1000
0000
0000
0002
,
0000
0000
0003
0100
,
0100
0000
0000
0100
0000
0000
0010
0000
,
0020
0030
0020
0030
,
4000
0000
3000
0000
0001
0000
0000
0002
,
0000
0000
0000
0000
0003
0010
0000
0000
,
0010
0000
0000
0010
0000
0000
0100
0000
,
0400
0000
0000
0300
0400
0000
0300
0000
,
1000
0000
1000
0000
1000
0000
0000
0002
,
0000
0003
0000
0000
0400
0000
0300
0000
,
0010
0000
0000
0010
0000
0000
1000
0000
,
2000
0000
3000
0001
0000
0000
0001
0000
,
0002
0000
0000
0003
,
0200
0000
0000
0300
,
0010
0000
0010
0000
0010
0000
0000
2000
,
0000
0000
3000
0001
,
0001
0000
0000
0001
0000
0000
0100
0000
,
0200
0300
0200
0300
,
0040
0000
0030
0000
1000
0000
0000
2000
,
0000
0000
0000
0000
3000
0001
0000
0000
,
0001
0000
0000
0002
0000
0003
0010
0000
,
0040
0000
0000
0030
0040
0000
0030
0000
,
0100
0000
0100
0000
0100
0000
0000
2000
,
0000
3000
0004
0003
,
0200
0000
0300
0100
0000
0000
0010
0000
,
0010
0000
0000
1000
0000
0000
1000
0000
,
2000
0000
0000
3000
,
0002
0000
0000
0003
,
0010
0020
0000
0030
,
0004
0000
0000
0003
,
2000
0000
0000
0000
,
3000
0000
0000
0000
;

//---------------dance-single - Ace Of Arrows (2019)----------------
#NOTES:
     dance-single:
     Ace Of Arrows (2019):
     Beginner:
     2:
     0.146,0.053,0.000,0.277,0.000:
0000
0000
0000
0000
,
0001
0000
0001
0000
,
0002
0000
0003
0000
,
0100
0000
0100
0000
,
0200
0000
0000
0000
,
0300
0000
0010
0000
,
0010
0000
0020
0000
,
0030
0000
1000
0000
,
1000
0000
2000
0000
,
3000
0000
0010
0000
,
0020
0000
0030
0000
,
0100
0000
0100
0000
,
0200
0000
0000
0000
,
0300
0000
0001
0000
,
0001
0000
0002
0000
,
0003
0000
1000
0000
,
1000
0000
2000
0000
,
3000
0000
0100
0000
,
0200
0000
0300
0000
,
0010
0000
0010
0000
,
0020
0000
0030
0000
,
0000
0000
0001
0001
,
0004
0003
0200
0000
,
0300
0000
0010
0010
,
0040
0030
2000
3000
,
0001
0000
0001
0000
,
0002
0000
0003
0000
,
1000
0000
1000
0000
,
2000
0000
3000
0000
,
0100
0000
0100
0000
,
0200
0000
0300
0000
,
0010
0000
0010
0000
,
0040
0000
0030
0000
,
0001
0000
0001
0000
,
0002
0000
0003
0000
,
1000
0000
2000
0000
,
3000
0000
0010
0000
,
0020
0000
0030
0000
,
0200
0000
0300
0000
,
0010
0000
0010
0000
,
0020
0000
0030
0000
,
2000
0000
3000
0000
,
0002
0000
0003
0000
,
0010
0000
0010
0000
,
0020
0000
0030
0000
,
0100
0000
0100
0000
,
0400
0000
0300
0000
,
1000
0000
1000
0000
,
2000
0000
3000
0000
,
0001
0000
0002
0000
,
0003
0000
0100
0000
,
0200
0000
0300
0000
,
0020
0000
0030
0000
,
0000
2000
0000
3000
,
0004
0000
0000
0003
,
0200
0000
0000
0000
,
0300
0000
0000
0000
;
