#TITLE:Bonkers Theme;
#SUBTITLE:;
#ARTIST:Kevin Quinn;
#TITLETRANSLIT:;
#SUBTITLETRANSLIT:;
#ARTISTTRANSLIT:;
#GENRE:;
#CREDIT:Ace Of Arrows;
#BANNER:Bonkers Theme - Bn.png;
#BACKGROUND:Bonkers Theme - Bg.png;
#LYRICSPATH:;
#CDTITLE:Ace Of Arrows.png;
#MUSIC:Bonkers Theme.ogg;
#OFFSET:0.437;
#SAMPLESTART:28.300;
#SAMPLELENGTH:12.000;
#SELECTABLE:YES;
#DISPLAYBPM:114.000;
#BPMS:0.000=115.000,45.000=230.000,48.000=114.850,88.000=115.500,94.000=113.900;
#STOPS:45.000=0.130
,45.500=0.130
,46.000=0.130
,46.500=0.130
,47.000=0.261
;
#BGCHANGES:0.625=Bonkers Opening.avi=1.000=1=0=1===CrossFade==,
99999=-nosongbg-=1.000=0=0=0 // don't automatically add -songbackground-
;
#KEYSOUNDS:;

//---------------dance-single - AceOfArrows (2019)----------------
#NOTES:
     dance-single:
     AceOfArrows (2019):
     Challenge:
     10:
     0.822,0.352,0.697,1.000,0.818: // measure 1
0000
0000
0000
0000
,  // measure 2
0002
0000
0013
0100
0000
0010
0002
0000
0000
1003
0000
0010
0000
0000
0020
0000
0000
0000
0000
0000
0130
0002
0000
1003
,  // measure 3
0100
0000
0000
0010
0000
0000
0100
0000
1000
0000
0000
2002
0000
0000
0000
3003
0000
0000
0000
0000
0000
0000
0000
0000
,  // measure 4
0002
0000
0103
0010
0000
2000
0000
0000
0000
3000
0000
0000
0002
0000
0013
0100
0000
2000
0000
0000
0000
3000
0000
0000
,  // measure 5
0002
0000
0103
0010
0000
1000
0002
0000
0000
2003
0000
0200
0000
0000
0000
0010
0000
0000
3300
0000
0000
0000
0000
0000
,  // measure 6
2000
0000
3001
0100
0000
0010
2000
0000
3002
0000
0000
0103
0000
0000
0200
0000
0000
0000
0000
0000
0000
0300
0000
0000
,  // measure 7
0020
0000
1030
0001
0000
0010
0100
0000
1000
0000
0000
2002
0000
0000
0000
3003
0000
0000
0000
0000
0000
0000
0000
0000
,  // measure 8
0002
0000
0103
0010
0000
1000
0001
0000
0020
0000
0000
0000
0130
0000
1000
0001
0000
0100
0010
0000
2000
0000
0000
0000
,  // measure 9
3002
0000
0013
0100
0000
1000
0002
0000
0203
0000
0300
0110
0000
0000
1010
0000
0000
1001
0000
0000
0011
0000
0000
0220
,  // measure 10
0000
0030
0000
1300
0000
0000
1001
0000
0000
0001
0000
0100
0010
0000
0010
1000
0000
1000
0001
0000
0001
0010
0000
0200
,  // measure 11
0000
0000
0000
1300
0001
0000
0201
0000
0000
0310
0000
1000
0000
0002
0000
0013
0000
0010
0100
0000
0100
1000
0000
0000
,  // measure 12
1002
0000
0000
0000
0103
0000
0120
0000
0000
1000
0000
0000
0100
0000
0000
1000
0000
0000
0130
0000
0000
0000
0000
0000
,  // measure 13
0110
0000
0010
0000
1000
0000
1001
0000
0001
0000
0000
0202
0000
0000
0000
0000
0000
0000
0000
0303
0000
0000
0000
0000
,  // measure 14
0100
0000
0000
0010
0000
1000
0000
0001
0000
0010
0000
0000
0410
0000
0000
0000
0000
0000
1300
0000
0000
0001
0000
0000
,  // measure 15
0101
0000
0000
0100
0000
0000
0220
0000
0000
0300
0000
0000
1030
0000
0001
0010
0000
0220
0000
0000
0330
0000
0000
0000
,  // measure 16
1100
1000
0001
0100
0110
0010
1010
1001
,  // measure 17
0011
0000
0000
0010
0000
0000
0110
0000
0000
0100
0000
0000
2000
0000
3001
0100
0000
0020
0000
0000
0130
0001
0000
0000
,  // measure 18
2001
0000
0000
3100
0000
0000
0010
0000
0001
1000
0000
0010
0100
0000
0200
0000
0000
0000
0301
0000
2001
0000
0000
3100
,  // measure 19
0010
0000
0000
0001
0000
1000
0010
0000
0100
0001
0000
0000
2000
0000
3100
0010
0000
0001
1000
0000
0010
0100
0000
0202
,  // measure 20
0000
0000
0000
0000
0000
0000
0300
0000
0000
0000
0000
0000
4003
0000
0000
0000
0000
0000
3000
0000
0000
0002
0000
0013
,  // measure 21
0100
0000
0000
1000
0100
0000
0110
0000
0000
0000
0000
0000
0002
0000
0000
1003
0010
0000
0110
0000
0000
0000
0000
0000
,  // measure 22
0000
0101
0000
0001
0000
1000
0000
1100
0000
0100
0000
0010
0000
0011
0000
0001
1000
0000
1010
0000
0000
0020
0000
0000
,  // measure 23
0130
0001
0000
0000
2000
0000
0000
3100
0000
0000
0010
0000
0000
0200
0000
1300
0001
0000
0100
0000
0000
0000
0000
0000
,  // measure 24
0010
0000
0000
2000
0000
0000
3001
0010
0000
0100
0000
0000
4000
0000
0000
0000
0000
0000
3001
0000
0000
0100
0000
0000
,  // measure 25
0110
0000
0000
0010
0000
0000
1010
0000
0000
1000
0000
0000
1001
0000
0000
0001
0000
0000
0011
0000
0000
0010
0000
0100
,  // measure 26
2000
0000
0000
3001
0000
0200
0000
0000
0310
1000
0000
0000
1001
0000
0000
0001
0000
0020
0000
0000
0130
1000
0000
0000
,  // measure 27
1001
0000
0000
1000
0000
0020
0000
0000
0130
0001
0000
0000
1001
0000
0000
1000
0000
0200
0000
0000
0310
0001
0000
2002
,  // measure 28
0003
0000
3400
0000
0000
0000
0000
0000
0000
0000
0000
0000
0310
0000
0000
0001
0000
0001
1000
0000
1000
0010
0000
0000
,  // measure 29
0110
0000
0000
0100
0000
0000
0002
0003
0000
0000
0000
0000
2000
3000
0000
0000
0000
0020
0030
0000
0000
0220
0000
0000
,  // measure 30
0330
0000
0000
0000
;

//---------------dance-single - Ace Of Arrows (2019)----------------
#NOTES:
     dance-single:
     Ace Of Arrows (2019):
     Hard:
     8:
     0.609,0.235,0.016,0.972,0.575:
0000
0000
0000
0000
,
0001
0000
0010
0100
0000
0000
0010
0000
0000
0001
0000
1000
0000
0000
2000
0000
0000
0000
0000
0000
0000
3001
0000
1000
,
0100
0000
0000
1000
0000
0000
0001
0000
0010
0000
0000
0200
0000
0000
0000
0300
0000
0000
0000
0000
0000
0000
0000
0000
,
2000
0000
0000
3001
0000
0200
0000
0000
0000
0300
0000
0000
0001
0000
0000
1000
0000
0020
0000
0000
0000
0030
0000
0000
,
1000
0000
0000
0001
0000
0010
0100
0000
0000
0010
0000
0002
0000
0000
0000
0003
0000
0000
0000
0000
0000
0000
0000
0000
,
2000
0000
3001
0100
0000
0000
0020
0000
0000
0030
0000
0100
0000
0000
0200
0000
0000
0000
0000
0000
0000
0300
0000
0000
,
0001
0000
1000
0100
0000
0000
1000
0000
0001
0000
0000
0200
0000
0000
0000
0300
0000
0000
0000
0000
0000
0000
0000
0000
,
0020
0000
1030
0001
0000
0000
0010
0000
0200
0000
0000
0000
1300
0000
0001
0100
0000
0000
0010
0000
2000
0000
0000
0000
,
3001
0000
0010
0200
0000
0000
1300
0000
0001
0000
0000
0200
0000
0000
0010
0000
0000
0010
0000
0000
0320
0000
0000
2030
,
0000
0000
0000
3001
0000
0000
0010
0000
0000
0100
0000
0000
1000
0000
0000
0001
0000
0000
1000
0000
0000
0000
0000
0020
,
0000
0000
0000
0130
0001
0000
1000
0000
0000
0001
0000
0000
0010
0000
0000
0100
0000
0000
0010
0000
0000
0000
0000
0000
,
0002
0000
0000
0000
1003
0000
0010
0000
0000
0100
0000
0000
0001
0000
0000
0100
0000
0000
0001
0000
0000
0000
0000
0000
,
1000
0000
0100
0000
0010
0000
0002
0000
1003
0000
0000
0020
0000
0000
0000
0000
0000
0000
0000
0030
0000
0000
0000
0000
,
1000
0000
0000
0001
0000
0100
0000
0010
0000
0100
0000
0000
0004
0000
0000
0000
0000
0000
1003
0000
0000
0100
0000
0000
,
0020
0000
0000
0230
0000
0000
2300
0000
0000
0000
0000
0000
3002
0000
0103
0010
0000
0200
0000
0000
0300
0000
0000
0000
,
0002
2003
3100
0010
0001
0010
0100
0100
,
2000
0000
0000
3002
0000
0000
1003
0000
0000
0010
0000
0000
1000
0000
0001
0010
0000
0200
0000
0000
0000
0300
0000
0000
,
0000
0000
0000
1000
0000
0000
0002
0000
0000
1003
0000
0100
0010
0000
0020
0000
0000
0000
0130
0000
2000
0000
0000
0000
,
3002
0000
0000
0203
0000
0000
0300
0000
0000
0000
0000
0000
0020
0000
0000
1030
0000
0000
0001
0000
0010
0100
0000
2000
,
0000
0000
0000
0000
3004
0000
0003
2000
,
3200
0000
0000
0310
0001
0000
0010
0000
0000
0000
0000
0000
0002
0000
0000
1003
0010
0000
1000
0000
0000
0000
0000
0000
,
0000
0001
0000
0010
0000
0100
0000
1000
0000
0100
0000
0010
0000
0001
0000
0010
0100
0000
1000
0000
0000
0002
0000
0000
,
1003
0100
0000
0000
2000
0000
0000
3001
0000
0000
0100
0000
0000
0002
0000
0000
1003
0000
0100
0000
0000
0000
0000
0000
,
0010
0000
0000
0002
0000
0000
1003
0100
0000
0010
0000
0000
0400
0000
0000
0000
0000
0000
1300
0000
0000
0001
0000
0000
,
0200
0310
0200
0301
2000
3100
2000
3001
,
0100
0000
0000
0010
0000
0200
0000
0000
0301
1000
0000
0000
0000
0000
0000
0001
0000
0020
0000
0000
0130
1000
0000
0000
,
0000
0000
0000
0001
0000
0200
0000
0000
0310
1000
0000
0000
0000
0000
0000
0100
0000
0020
0000
0000
0031
2000
0000
3020
,
0000
0430
0000
0000
0000
0000
0000
0000
0000
0300
0000
0000
,
0002
0000
0000
2003
0000
0000
3100
0000
0000
0000
0000
0000
0010
0000
0000
0000
0000
0002
0000
0003
0000
0202
0000
0000
,
0303
0000
0000
0000
;

//---------------dance-single - Ace Of Arrows (2019)----------------
#NOTES:
     dance-single:
     Ace Of Arrows (2019):
     Medium:
     6:
     0.343,0.140,0.000,0.308,0.235:
0000
0000
0000
0000
,
1000
0000
0000
0100
0000
0000
1000
0000
0000
0000
0000
0001
0000
0000
0002
0000
0000
0000
0000
0000
0000
0003
0000
0000
,
0010
0000
0000
0100
0000
0000
0010
0000
0000
0000
0000
0002
0000
0000
0000
0003
0000
0000
0000
0000
0000
0000
0000
0000
,
1000
0000
0000
0000
0000
2000
0000
0000
0000
3000
0000
0000
0010
0000
0000
0000
0000
0020
0000
0000
0000
0030
0000
0000
,
1000
0000
0000
0001
0000
0000
1000
0000
0000
0000
0000
0200
0000
0000
0000
0300
0000
0000
0000
0000
0000
0000
0000
0000
,
0010
0000
0000
0001
0000
0000
0010
0000
0000
0000
0000
0100
0000
0000
0200
0000
0000
0000
0000
0000
0000
0300
0000
0000
,
1000
0000
0000
0100
0000
0000
1000
0000
0000
0000
0000
0002
0000
0000
0000
0003
0000
0000
0000
0000
0000
0000
0000
0000
,
1000
0010
1000
0000
0001
0100
0001
0000
,
1000
0000
0000
0001
0000
0000
1000
0000
0000
0000
0000
0010
0000
0000
0100
0000
0000
0020
0000
0000
0000
0000
0000
2030
,
0000
0000
0000
3001
0000
0000
0010
0000
0000
0000
0000
0000
0001
0000
0000
1000
0000
0000
0001
0000
0000
0000
0000
2000
,
0000
3001
0100
0000
0010
0100
0010
0000
,
2000
0000
3001
0000
0100
0010
0100
0000
,
0001
0000
0000
1000
0000
0000
0001
0000
0000
0000
0000
0020
0000
0000
0000
0000
0000
0000
0030
0000
0000
0000
0000
0000
,
0001
0010
0001
0000
4000
0000
3001
0000
,
1000
0000
0000
0100
0000
0000
2000
0000
0000
0000
0000
0000
3001
0000
0000
0000
0000
0001
0000
0000
0000
0000
0000
0000
,
0010
0100
0020
0000
0031
1000
0001
0000
,
0100
0000
0000
0010
0000
0000
0100
0000
0000
0000
0000
0000
0001
0000
0000
0000
0000
0001
0000
0000
0000
0000
0000
0000
,
0000
1000
0100
0000
2000
0000
3001
0000
,
0010
0000
0000
0002
0000
0000
0003
0000
0000
0000
0000
0000
1000
0000
0000
0100
0000
0000
1000
0000
0000
0000
0000
0002
,
0000
0000
0403
0300
,
0010
0000
0000
0000
0000
0010
0000
0000
0000
0000
0000
0000
1000
0000
0000
0000
0000
1000
0000
0000
0000
0000
0000
0000
,
0001
0000
0000
0000
0000
0000
0000
0001
0000
0000
0000
0000
0010
0000
0000
0000
0000
0000
0010
0000
0000
0000
0000
0000
,
0001
0000
0000
0010
0000
0000
0001
0000
0000
0000
0000
0000
1000
0000
0000
0000
0000
1000
0000
0000
0000
0000
0000
0000
,
0010
0000
0000
1000
0000
0000
0000
0001
0000
0000
0000
0000
0004
0000
0000
0000
0000
0000
1003
0000
0000
0000
0000
0000
,
0100
0010
0100
0000
1000
0001
2000
0000
,
3000
0000
0000
0000
0000
0001
0000
0000
0000
0001
0000
0000
0000
0000
0000
0000
0000
0010
0000
0000
0000
0010
0000
0000
,
0000
0000
0000
0000
0000
0100
0000
0000
0000
0100
0000
0000
0000
0000
0000
0000
0000
1000
0000
0000
0000
0000
4000
0000
,
0000
0000
0000
3000
,
0001
0000
0000
0010
0000
0000
0001
0000
0000
0000
0000
0000
1000
0000
0000
0000
0000
0020
0000
0000
0000
0130
0000
0000
;

//---------------dance-single - Ace Of Arrows (2019)----------------
#NOTES:
     dance-single:
     Ace Of Arrows (2019):
     Easy:
     3:
     0.215,0.094,0.000,0.308,0.000:
0000
0000
0000
0000
,
0001
0001
0002
0003
,
1000
1000
2000
3000
,
0010
0010
0020
0030
,
0100
0100
0100
0000
,
0001
0001
0002
0003
,
1000
1000
1000
0000
,
0100
0100
0200
0300
,
0010
0010
0020
0030
,
0001
0001
0000
0000
,
1000
1000
0000
0000
,
0010
0010
0000
0000
,
0100
0100
0200
0300
,
0001
0001
0004
0003
,
1000
1000
2000
3000
,
0100
0100
0200
0300
,
0010
0010
0020
0030
,
0000
0001
0002
0003
,
2000
3000
0010
0010
,
0020
0000
0030
0000
,
2000
3000
2000
3000
,
0001
0001
0002
0003
,
0010
0010
0020
0030
,
0100
0100
0400
0300
,
1000
1000
2000
3000
,
0000
0001
0000
0001
,
0000
0001
0000
1000
,
4000
0000
0000
3000
,
0010
0000
0010
0000
0020
0000
0030
0100
;

//---------------dance-single - Ace Of Arrows (2019)----------------
#NOTES:
     dance-single:
     Ace Of Arrows (2019):
     Beginner:
     1:
     0.127,0.047,0.000,0.243,0.000:
0000
0000
0000
0000
,
1000
0000
1000
0000
,
2000
0000
3000
0000
,
0001
0000
0001
0000
,
0002
0000
0003
0000
,
0020
0000
0030
0000
,
0200
0000
0300
0000
,
1000
0000
1000
0000
,
2000
0000
3000
0000
,
0002
0000
0003
0000
,
0002
0000
0003
0000
,
0200
0000
0300
0000
,
0010
0000
0020
0000
,
0030
0000
0000
0000
,
1000
0000
1000
0000
,
2000
0000
3000
0000
,
0001
0000
0001
0000
,
0002
0000
0003
0000
,
0010
0000
0010
0000
,
0020
0000
0030
0000
,
0100
0000
0100
0000
,
0200
0000
0300
0000
,
1000
0000
1000
0000
,
2000
0000
3000
0000
,
0001
0000
0002
0000
,
0003
1000
0000
1000
,
0000
1000
0000
0000
,
0004
0000
0000
0003
,
0100
0000
0100
0000
,
0100
0000
0000
0000
;
