#TITLE:Any Way You Want It;
#SUBTITLE:;
#ARTIST:Journey;
#TITLETRANSLIT:;
#SUBTITLETRANSLIT:;
#ARTISTTRANSLIT:;
#GENRE:;
#CREDIT:Ace Of Arrows;
#BANNER:Any Way You Want It - Bn.png;
#BACKGROUND:Any Way You Want It - Bg.jpg;
#LYRICSPATH:;
#CDTITLE:Ace Of Arrows.png;
#MUSIC:Any Way You Want It.ogg;
#OFFSET:1.977;
#SAMPLESTART:44.900;
#SAMPLELENGTH:12.000;
#SELECTABLE:YES;
#BPMS:0.000=138.000;
#STOPS:;
#BGCHANGES:;
#KEYSOUNDS:;

//---------------dance-single - Ace Of Arrows (2019)----------------
#NOTES:
     dance-single:
     Ace Of Arrows (2019):
     Hard:
     7:
     0.516,0.402,0.069,0.649,0.012: // measure 1
0000
0000
0000
0000
,  // measure 2
0000
0000
0000
0000
,  // measure 3
2000
0000
3001
0100
0010
0200
0000
0301
,  // measure 4
1000
0000
0001
0010
0100
0020
0000
0031
,  // measure 5
2000
0000
3001
0100
0010
0200
0000
0301
,  // measure 6
2000
0000
3001
0010
0100
1000
0100
0010
,  // measure 7
0002
0000
1003
0010
0100
0004
0000
1003
,  // measure 8
0010
0000
1000
0001
0010
0200
0000
0310
,  // measure 9
0001
0000
1000
0001
0100
0002
0000
1003
,  // measure 10
0100
0000
0010
0100
1000
0100
0020
0000
,  // measure 11
0032
0000
1003
0100
1000
0001
0100
0001
,  // measure 12
1000
0000
0001
0010
0100
0020
0000
0031
,  // measure 13
1000
0000
0001
0100
0010
0200
0000
0301
,  // measure 14
1000
0000
0001
0010
0100
1000
0100
0010
,  // measure 15
0002
0000
1003
0010
0100
0010
1000
0001
,  // measure 16
0010
0000
0100
2000
0000
3001
0000
1000
,  // measure 17
0010
0000
0200
0000
0300
0101
0000
0001
,  // measure 18
1000
0000
0200
0000
0000
0310
0001
1000
,  // measure 19
0002
0000
1003
0100
0010
0100
1000
0001
,  // measure 20
1000
0000
0010
0200
0000
0301
0000
1000
,  // measure 21
0100
0000
0020
0000
0030
0011
0000
0001
,  // measure 22
1000
0000
0010
0100
0010
1000
0001
0010
,  // measure 23
0200
0000
1300
0001
0100
0001
1000
0100
,  // measure 24
0020
0000
0130
1000
0001
0200
0000
0310
,  // measure 25
1000
0000
0001
0010
0100
0020
0000
0031
,  // measure 26
2000
0000
3010
0100
0001
0200
0000
0310
,  // measure 27
2000
0000
3001
0010
0100
1000
0100
0010
,  // measure 28
0002
0000
1003
0010
0100
0020
0000
1030
,  // measure 29
0001
0000
0010
0100
0010
0002
0000
1003
,  // measure 30
0020
0000
0130
0001
1000
0002
0000
0013
,  // measure 31
0200
0000
1300
0100
0010
0001
0010
0100
,  // measure 32
1000
0000
0001
0100
0001
2000
0000
3100
,  // measure 33
0010
0000
0001
0010
0001
2000
0000
3001
,  // measure 34
0100
0000
0010
1000
0001
0010
0100
0000
,  // measure 35
2000
0000
3001
0100
0010
0100
0001
1000
,  // measure 36
0400
0000
0000
0320
0000
0000
0032
0000
0000
0043
0000
0000
0000
0000
0130
0000
,  // measure 37
1000
0000
0001
0100
0004
0000
0003
1000
,  // measure 38
0100
0000
0010
0100
1000
0001
0100
0001
,  // measure 39
2000
0000
3001
0010
0100
0010
0001
1000
,  // measure 40
0001
0000
1000
0020
0000
0130
0000
0001
,  // measure 41
1000
0000
0200
0000
0300
0110
0000
0010
,  // measure 42
0001
0000
2000
0000
0000
3010
0100
0001
,  // measure 43
0200
0000
0310
1000
0001
0010
0100
0010
,  // measure 44
0001
0000
1000
0002
0000
0000
0103
0010
,  // measure 45
1000
0000
0002
0000
0003
1001
0000
1000
,  // measure 46
0100
0000
0010
0100
1000
0001
0100
0001
,  // measure 47
2000
0000
3100
0010
0001
0010
0100
1000
,  // measure 48
0002
0000
1003
0010
0100
0020
0000
1030
,  // measure 49
0001
0000
0010
0100
0010
0002
0000
1003
,  // measure 50
0020
0000
0130
0001
0100
0020
0000
1030
,  // measure 51
0004
0000
1003
0100
0010
0001
0010
0100
,  // measure 52
2000
0000
3001
0100
0010
2000
0000
3010
,  // measure 53
0100
0000
0001
1000
0100
0020
0000
0130
,  // measure 54
2000
0000
3001
0100
0001
2000
0000
3100
,  // measure 55
0040
0000
0000
0000
0000
0031
1000
0100
,  // measure 56
2000
0000
0000
3001
0100
0002
0000
1003
,  // measure 57
0040
0000
0000
0130
0001
2000
0000
0000
,  // measure 58
3100
0000
0010
0002
0000
4003
0000
0000
0000
0000
0000
0000
0000
0000
0000
0000
,  // measure 59
3040
0000
0430
0000
,  // measure 60
0301
1000
0100
0020
0000
0031
1000
0001
,  // measure 61
0200
0000
0310
1000
0004
0000
0000
0000
,  // measure 62
0023
0000
0000
0130
1000
0001
0100
0001
,  // measure 63
2000
0000
3100
0010
0001
0010
0100
1000
,  // measure 64
0002
0000
0000
1000
0000
2003
0000
3010
,  // measure 65
0200
0000
0000
0001
0000
0302
0000
1003
,  // measure 66
0020
0000
0130
0001
1000
0200
0000
0300
,  // measure 67
0110
0010
0011
0001
,  // measure 68
2001
0000
0000
0000
3040
0000
0000
0030
,  // measure 69
0210
0000
0000
0000
0304
0000
0000
0003
,  // measure 70
2001
0000
0000
0000
3100
0000
0020
0000
0000
0000
0230
0000
0000
2300
0000
0000
,  // measure 71
3001
0100
0110
0010
,  // measure 72
4010
0000
0000
3001
0010
0200
0000
0000
,  // measure 73
1300
0001
0100
0010
2000
0000
3001
0010
,  // measure 74
0400
2300
3002
0403
,  // measure 75
0320
0000
1030
0001
0010
0100
0010
0001
,  // measure 76
2000
0000
0000
3010
0100
0004
0000
0000
,  // measure 77
1003
0100
0010
0100
4000
0000
3001
0100
,  // measure 78
0004
4003
3400
0340
,  // measure 79
0032
0000
1003
0000
1020
0000
0000
0130
,  // measure 80
0002
0000
1003
0100
0010
0200
0000
1300
,  // measure 81
0001
0000
1000
0010
0100
0020
0000
1030
,  // measure 82
0002
0000
0013
0100
1000
0200
0000
0310
,  // measure 83
0002
0000
0000
1003
0400
0000
0310
0001
,  // measure 84
2000
0000
3010
0100
0001
0200
0000
0310
,  // measure 85
1000
0000
0001
0010
0100
0020
0000
0031
,  // measure 86
2000
0000
3010
0100
0001
0400
0000
0000
,  // measure 87
0310
0000
1000
0000
1001
0000
0001
0010
,  // measure 88
0200
0000
0310
0001
1000
0002
0000
0103
,  // measure 89
0010
0000
1000
0001
0010
0200
0000
0310
,  // measure 90
0002
0000
1003
0010
0100
0002
0000
1003
,  // measure 91
0200
0000
0310
0100
1000
0002
0000
0103
,  // measure 92
0020
0000
1030
0001
0010
0200
0000
0310
,  // measure 93
0001
0000
1000
0001
0100
0002
0000
1003
,  // measure 94
0200
0000
0310
0100
1000
0002
0000
0103
,  // measure 95
0020
0030
2000
3000
,  // measure 96
0002
0000
0013
0100
1000
0200
0000
0310
,  // measure 97
0001
0000
1000
0001
0100
0020
0000
0130
,  // measure 98
0002
0000
1003
0100
0010
0200
0000
1300
,  // measure 99
0002
0000
1003
0010
0100
0004
0000
0000
,  // measure 100
2003
0000
3100
0010
0001
0020
0000
0130
,  // measure 101
1000
0000
0001
0100
0001
2000
0000
3100
,  // measure 102
0020
0000
0130
1000
0001
0200
0000
0310
,  // measure 103
2000
3002
0023
0230
,  // measure 104
2300
0000
3001
0100
0010
0200
0000
0301
,  // measure 105
1000
0000
0100
0010
0001
2000
0000
3001
,  // measure 106
0200
0000
0310
0100
0001
2000
0000
3001
,  // measure 107
0020
0000
0130
1000
0001
0000
1000
0000
,  // measure 108
2002
0000
0000
0000
,  // measure 109
0000
3003
0000
0000
0000
0000
0000
0000
;

//---------------dance-single - Ace Of Arrows (2019)----------------
#NOTES:
     dance-single:
     Ace Of Arrows (2019):
     Challenge:
     9:
     0.641,0.455,0.545,0.704,0.079:
0000
0000
0000
0000
,
0000
0000
0000
0000
,
0021
0000
0130
1000
0001
0200
0000
0310
,
1010
0000
1000
0001
0010
0200
0000
1300
,
1002
0000
0103
0010
1000
0002
0000
0013
,
0210
0000
1300
0001
0100
0001
1000
0100
,
0120
0000
0000
0000
0031
0000
1000
0000
0001
0000
1000
0100
0010
0100
1000
0000
,
1001
0000
0001
0100
0010
2000
0000
3001
,
0011
0000
0010
0100
1000
0002
0000
1003
,
1010
0000
0010
0100
0001
1000
0200
0310
,
0012
0000
1003
0010
0100
0001
1000
0100
,
0110
0000
0010
0001
1000
0020
0000
0130
,
0101
0000
0001
1000
0100
0020
0000
0031
,
1001
0000
1000
0010
0100
0001
1000
0001
,
0201
0000
0310
1000
0001
0010
0100
1000
,
1001
0000
0001
0200
0300
0110
0000
0010
,
1010
0000
2002
0000
0000
0010
3003
0001
,
0011
0000
0020
0000
0000
0130
1000
0001
,
0201
0000
0310
0100
0001
1000
0100
0010
,
0011
0000
0001
2000
3000
1010
0000
0010
,
0110
0000
0202
0000
0000
0010
0303
0001
,
1001
0000
1000
0100
0010
0100
1000
0001
,
0021
0000
0130
0010
0001
1000
0010
0100
,
0102
0000
1003
0100
0010
0200
0000
1300
,
1001
0000
0001
0100
0010
2000
0000
3001
,
0021
0000
0130
1000
0001
0200
0000
0310
,
2010
0000
3001
0010
0100
0010
0001
1000
,
1200
0000
0310
0001
1000
0020
0000
0130
,
0101
0000
0001
1000
0100
0020
0000
0130
,
2100
0000
3001
0100
0010
2000
0000
3001
,
0021
0000
0130
1000
0001
0100
0001
1000
,
1100
0000
0100
0010
0001
2000
0000
3010
,
0110
0000
0100
0001
1000
0200
0000
0310
,
0011
0000
0001
1000
0010
0100
0001
1000
,
1200
0000
0310
0001
1000
0010
0100
0001
,
4001
0000
0000
3010
0000
0000
0100
0000
0000
0104
0000
0000
0000
0000
1003
0000
,
1100
0000
0100
0010
0004
0000
0000
1003
,
1010
0000
0010
0100
0001
1000
0100
0010
,
0012
0000
1003
0010
0100
0001
1000
0001
,
0101
0000
0100
0020
0030
1010
0000
1000
,
1001
0000
0022
0000
0000
1000
0033
0001
,
1001
0000
2000
0000
0000
3010
0100
0001
,
2001
0000
3100
0010
0001
0010
0100
1000
,
1001
0000
0001
0200
0000
0000
0310
1000
,
1001
0000
0202
0000
0000
0010
0303
0001
,
1001
0000
1000
0100
0010
0100
1000
0001
,
0201
0000
0310
1000
0001
0010
0100
1000
,
1002
0000
0103
0010
1000
0002
0000
0013
,
0110
0000
0100
1000
0001
0200
0000
0310
,
2010
0000
3001
0010
0100
2000
0000
3001
,
0401
0000
0310
1000
0001
0010
0100
1000
,
1002
0000
0103
0010
1000
0002
0000
0013
,
0110
0000
0100
1000
0001
0200
0000
0310
,
2010
0000
3001
0010
0100
2000
0000
3001
,
0401
0000
0000
0000
0000
0000
0310
0000
0000
0000
1000
0000
0001
0010
0100
0010
,
0002
0000
0000
1003
0010
0200
0000
0301
,
4001
0000
0000
3100
0010
0002
0000
0000
,
1003
0010
1000
0002
0000
1003
0001
0010
0001
0010
0100
1000
0100
1000
0001
0100
,
0001
0100
0010
1000
0010
0100
0001
1000
0004
0000
0000
0000
0000
0000
0003
0000
,
1000
0000
0100
0000
0010
0000
0002
0000
0000
1003
0010
0000
0100
0000
0001
0000
,
2000
0000
0000
0000
3200
0000
0000
0000
0310
0001
1000
0010
1000
0010
0100
0001
,
2000
0000
0000
3001
0010
0100
1000
0001
,
0200
0000
0310
1000
0001
0010
0100
1000
,
1002
0000
0100
0000
0203
0310
1000
0001
,
0021
0000
0100
0000
0230
1300
0001
1000
,
1200
0000
0010
0000
0310
0001
1000
0010
,
0100
0000
0101
0000
1001
0000
1100
0100
,
0120
0000
0001
0000
0032
1003
0010
0100
,
0102
0000
1000
0000
2003
3100
0010
0001
,
2001
0000
0010
0000
3020
0130
0001
1000
,
1100
0000
0110
0000
0011
0000
1001
1000
,
1040
0000
0000
0130
0001
2000
0000
0000
,
3001
0010
0100
0010
0002
0000
1003
0100
,
0040
0000
0000
0000
0230
0000
0000
0000
2300
0000
0000
0000
3002
0000
0013
0100
,
2000
0000
3001
0100
0010
1000
0001
1000
,
1020
0000
0000
0130
0001
4000
0000
0000
,
3001
0010
0100
0010
0004
0000
1003
0010
,
0100
0000
0001
1000
0004
0000
0000
0000
1003
0010
4000
0000
3002
0000
0000
0003
,
0021
0000
0230
0000
0300
2100
0000
3001
,
0201
0000
0310
1000
0001
0020
0000
0130
,
1100
0000
1000
0001
0100
0020
0000
1030
,
1002
0000
0013
0100
1000
0002
0000
0103
,
0120
0000
1030
0001
0010
0100
0010
0001
,
2001
0000
3010
0100
0001
2000
0000
3100
,
0110
0000
0010
0001
1000
0020
0000
0130
,
0102
0000
0000
0000
1003
0000
0100
0000
0010
0000
0002
0000
1003
0010
0100
0010
,
2000
3000
2002
3003
0022
0033
0010
0100
,
2100
0000
3001
0100
0010
2000
0000
3001
,
0011
0000
0010
0100
1000
0002
0000
1003
,
1020
0000
0130
0001
1000
0200
0000
0310
,
0012
0000
0000
0000
1003
0010
1000
0000
0001
0000
2000
0000
0000
0000
3100
0000
,
0120
0000
0031
1000
0010
0200
0000
0301
,
1001
0000
1000
0100
0010
0200
0000
1300
,
1002
0000
0103
0010
1000
0002
0000
0013
,
0210
0300
2000
3000
,
1002
0000
0103
0010
0100
0002
0000
1003
,
1100
0000
0100
0010
0001
2000
0000
3010
,
0210
0000
0301
1000
0001
0020
0000
0130
,
2100
0000
0000
3001
0200
0000
0310
0000
1000
0000
0001
0010
0100
0010
0001
0000
,
2001
0000
3010
0100
0001
2000
0000
3001
,
0011
0000
0010
0100
1000
0002
0000
1003
,
1020
0000
0130
0001
1000
0200
0000
0310
,
0012
0000
1003
0010
0210
0000
0301
1000
,
1200
0000
0310
0001
1000
0020
0000
0130
,
0101
0000
0001
1000
0100
0020
0000
0130
,
2100
0000
3001
0100
0010
2000
0000
3001
,
0021
0000
0000
0130
2000
0000
3001
1000
,
2002
0000
0000
0000
,
0000
3003
0000
0000
0000
0000
0000
0000
;

//---------------dance-single - Ace Of Arrows (2019)----------------
#NOTES:
     dance-single:
     Ace Of Arrows (2019):
     Medium:
     5:
     0.385,0.322,0.000,0.674,0.000:
0000
0000
0000
0000
,
0000
0000
0000
0000
,
0002
0000
1003
0100
0000
2000
0000
3001
,
0100
0000
0000
0001
0000
2000
0000
3001
,
0020
0000
0031
1000
0000
0002
0000
1003
,
0020
0000
0000
0130
0000
0001
0000
0000
,
2000
0000
0000
3001
0000
0010
0000
0000
,
0000
0000
0001
1000
0000
0020
0000
0000
,
0030
0000
1000
0001
0000
0200
0000
0000
,
0300
0000
0000
0001
2000
0000
3000
0000
,
0200
0000
0000
0310
0000
0001
0000
0000
,
1000
0000
0001
0100
0000
0020
0000
0000
,
0030
0000
1000
0001
0000
2000
0000
0000
,
3000
0000
0100
0010
0000
0001
0000
1000
,
0002
0000
0000
0103
0000
0010
0000
1000
,
0001
0000
1000
0200
0000
0310
0000
0000
,
0000
0000
0002
0000
0000
1003
0000
0000
,
0000
0000
0020
0000
0000
1030
0000
0001
,
0020
0000
0000
0031
0000
1000
0000
0001
,
0100
0000
0000
0002
0000
1003
0000
0000
,
0000
0000
0200
0000
0000
0310
0000
0000
,
0000
0000
0000
0001
0000
1000
0010
0000
,
2000
0000
0000
3001
0000
0010
0000
0001
,
2000
0000
3001
0100
0000
0020
0000
0130
,
0001
0000
0000
1000
0000
0002
0000
0013
,
0200
0000
0310
0001
0000
2000
0000
3001
,
0200
0000
0000
0310
0000
1000
0000
0001
,
0020
0000
0031
1000
0000
0002
0000
0103
,
0010
0000
1000
0001
0000
2000
0000
3100
,
0020
0000
0130
1000
0000
0002
0000
1003
,
0020
0000
0000
1030
0000
0001
0000
0010
,
0100
0000
0010
0001
0000
2000
0000
0000
,
3000
0000
0001
0100
0000
0020
0000
0000
,
0030
0000
0000
1000
0001
0000
1000
0000
,
0200
0000
0000
0310
0000
0001
0000
1000
,
0004
0000
0000
1003
0000
0020
0000
0000
,
0030
0000
0000
1000
0004
0000
0000
0000
,
0003
0000
1000
0100
0000
0010
0000
0100
,
2000
0000
0000
3001
0000
0100
0000
0001
,
1000
0000
0100
0020
0000
0130
0000
0000
,
0000
0000
2000
0000
0000
3001
0000
0000
,
0000
0000
2000
0000
0000
3001
0000
0100
,
0020
0000
1030
0001
0000
0010
0000
0001
,
1000
0000
0010
0200
0000
0000
0301
0000
,
0000
0000
2000
0000
0000
3100
0000
0000
,
0000
0000
0000
0010
0000
0001
1000
0000
,
0002
0000
0103
0010
0000
2000
0000
3001
,
0020
0000
0031
1000
0000
0002
0000
0103
,
0010
0000
1000
0001
0000
2000
0000
3100
,
0020
0000
0130
1000
0000
0002
0000
0103
,
0020
0000
0000
1030
0000
0001
0000
1000
,
0200
0000
0310
0001
0000
2000
0000
3001
,
0100
0000
0001
1000
0000
0200
0000
0310
,
0002
0000
1003
0010
0000
2000
0000
3001
,
0040
0000
0000
0000
0000
0430
0000
0000
,
2300
0000
0000
3001
0000
0200
0000
0301
,
4000
0000
0000
3001
0000
0020
0000
0000
,
0000
0430
0000
0000
0000
0000
0000
0000
,
0340
0000
0032
0000
,
1003
0000
0001
0020
0000
0032
0000
1003
,
0020
4030
0000
0000
,
3002
0000
0000
2003
0000
3200
0000
0310
,
0002
0000
0000
1003
0000
0010
0000
1000
,
0002
0000
0000
1000
0000
1000
0000
0000
,
2003
0000
0000
0100
0000
0100
0000
0000
,
3200
0000
0000
0320
0000
0032
0000
0000
,
1003
0010
2000
3000
,
0002
0000
0403
0000
,
0320
0000
4030
0000
,
3002
0000
0013
0200
0000
0310
0002
0000
,
1003
0010
2000
3000
,
0004
0000
0000
1003
0000
0200
0000
0000
,
0310
0002
0000
1003
0200
0000
0000
1300
,
0004
2003
3020
0430
,
0302
0000
0000
1003
0000
0100
0000
1000
,
0002
0000
0000
1003
0000
0040
0000
0000
,
1030
0002
0000
0013
0400
0000
0000
1300
,
0004
0403
0340
0430
,
0302
0000
1003
0000
0002
0000
0000
1003
,
0200
0000
0310
0100
0000
2000
0000
3001
,
0100
0000
0001
1000
0000
0200
0000
0310
,
0002
0000
1003
0010
0000
2000
0000
3001
,
0020
0000
0000
0130
0000
1000
0000
0001
,
0200
0000
0310
1000
0000
0002
0000
0013
,
0100
0000
0010
0001
0000
2000
0000
3001
,
0200
0000
0310
1000
0000
0020
0000
0130
,
0001
0000
1000
0000
0002
0000
0003
1000
,
0200
0000
0310
0100
0000
2000
0000
3001
,
0100
0000
0001
1000
0000
0200
0000
0310
,
0002
0000
1003
0010
0000
0200
0000
0301
,
2000
0000
0000
3001
0000
0020
0000
0031
,
2000
0000
3001
0100
0000
0020
0000
0130
,
0001
0000
1000
0001
0000
0020
0000
0130
,
2000
0000
3001
0100
0000
0020
0000
0130
,
0002
0003
2000
3000
,
0200
0000
0310
0001
0000
0020
0000
0130
,
1000
0000
0001
0100
0000
0020
0000
0130
,
0002
0000
1003
0001
0000
0020
0000
0130
,
4000
0000
0000
3000
,
0002
0000
0103
0010
0000
0200
0000
0301
,
1000
0000
0001
0010
0000
0200
0000
1300
,
0002
0000
1003
0010
0000
2000
0000
3001
,
0010
0100
0020
0030
,
0002
0000
1003
0010
0000
0200
0000
0310
,
1000
0000
0001
0010
0000
0002
0000
1003
,
0020
0000
0130
0001
0000
0200
0000
0310
,
2000
0000
0000
3001
2000
0000
3002
0000
,
0023
0000
0000
0000
,
0000
0030
0000
0000
0000
0000
0000
0000
;

//---------------dance-single - Ace Of Arrows (2019)----------------
#NOTES:
     dance-single:
     Ace Of Arrows (2019):
     Easy:
     3:
     0.176,0.161,0.000,0.134,0.000:
0000
0000
0000
0000
,
0000
0000
0000
0000
,
1000
0000
0000
1000
0000
1000
0000
0000
,
0001
0000
0000
0001
0000
0001
0000
0000
,
0100
0000
0000
0100
0000
0100
0000
0000
,
0020
0000
0000
0000
0000
0030
0000
0000
,
2000
0000
0000
0000
0000
3000
0000
0000
,
0000
0000
0000
0001
0000
0001
0000
0000
,
0000
0000
0000
0010
0000
0010
0000
0000
,
0000
0000
0000
0100
0000
0100
0000
0000
,
2000
0000
0000
0000
0000
3000
0000
0000
,
0000
0000
0000
0001
0000
0001
0000
0000
,
0000
0000
0000
0010
0000
0010
0000
0000
,
0000
0000
0000
0100
0000
0100
0000
0200
,
0000
0000
0000
0000
0000
0300
0000
0000
,
0000
0000
0000
1000
0000
1000
0000
0000
,
0000
0000
0001
0000
0000
0001
0000
0000
,
0000
0000
0100
0000
0000
0100
0000
0000
,
0020
0000
0000
0000
0000
0030
0000
0000
,
0000
0000
0000
1000
0000
1000
0000
0000
,
0000
0000
0001
0000
0000
0001
0000
0000
,
0000
0000
0000
0010
0000
0010
0000
0000
,
0002
0000
0000
0000
0000
0003
0000
0000
,
1000
0000
0000
1000
0000
1000
0000
0000
,
0010
0000
0000
0010
0000
0010
0000
0000
,
0100
0000
0000
0100
0000
0100
0000
0000
,
0002
0000
0000
0000
0000
0003
0000
0000
,
1000
0000
0000
1000
0000
1000
0000
0000
,
0100
0000
0000
0100
0000
0100
0000
0000
,
0010
0000
0000
0010
0000
0010
0000
0000
,
0002
0000
0000
0000
0000
0003
0000
0000
,
0000
0000
0000
1000
0000
1000
0000
0000
,
0000
0000
0000
0010
0000
0010
0000
0000
,
0000
0000
0000
0100
0000
0100
0000
0000
,
0002
0000
0000
0000
0000
0003
0000
0000
,
0000
0000
0000
1000
0000
1000
0000
0000
,
0000
0000
0000
0100
0000
0100
0000
0000
,
0000
0000
0000
0010
0000
0010
0000
0020
,
0000
0000
0000
0000
0000
0030
0000
0000
,
0000
0000
0000
0001
0000
0001
0000
0000
,
0000
0000
1000
0000
0000
1000
0000
0000
,
0000
0000
0010
0000
0000
0010
0000
0000
,
0200
0000
0000
0000
0000
0300
0000
0000
,
0000
0000
0000
0001
0000
0000
0001
0000
,
0000
0000
0100
0000
0000
0100
0000
0000
,
0000
0000
0000
0010
0000
0010
0000
0000
,
2000
0000
0000
0000
0000
3000
0000
0000
,
0001
0000
0000
0001
0000
0001
0000
0000
,
0010
0000
0000
0010
0000
0010
0000
0000
,
0100
0000
0000
0100
0000
0100
0000
0000
,
2000
0000
0000
0000
0000
3000
0000
0000
,
0001
0000
0000
0001
0000
0001
0000
0000
,
0100
0000
0000
0100
0000
0100
0000
0000
,
0010
0000
0000
0010
0000
0010
0000
0000
,
2000
0000
0000
0000
0000
3000
0000
0000
,
0001
0000
0000
0001
0000
0001
0000
0000
,
0040
0000
0000
0030
0000
0100
0000
0000
,
0000
0400
0000
0000
0000
0000
0300
0000
,
4000
0000
3000
0000
,
0000
0001
0000
0001
0000
0002
0000
0003
,
0000
0010
0000
0010
0000
0040
0000
0000
,
0030
0000
0000
0100
0000
0100
0000
0000
,
0200
0000
0000
0000
0000
0300
0000
0000
,
2000
0000
0000
0000
,
0000
0000
3000
0000
,
0004
0000
0000
0003
,
0010
0010
0010
0000
,
0200
0000
0300
0000
,
2000
0000
3000
0000
,
0004
0000
0000
0003
,
0100
0100
0100
0000
,
0010
0000
0000
0010
0000
0010
0000
0000
,
0000
1000
0000
0000
2000
0000
0000
3000
,
0000
0004
0000
0000
0000
0000
0000
0000
,
0003
0000
0000
0010
0000
0010
0000
0000
,
0100
0000
0000
0100
0000
0100
0000
0000
,
0000
0010
0000
0000
0010
0000
0000
0000
,
0001
0001
0004
0000
,
0003
0000
0000
0000
,
1000
0000
0000
1000
0000
1000
0000
0000
,
0010
0000
0000
0010
0000
0010
0000
0000
,
0100
0000
0000
0100
0000
0100
0000
0000
,
0002
0000
0000
0000
0000
0003
0000
0000
,
1000
0000
0000
1000
0000
1000
0000
0000
,
0001
0000
0000
0001
0000
0001
0000
0000
,
0010
0000
0000
0010
0000
0010
0000
0000
,
0200
0000
0000
0000
0000
0300
0000
0000
,
1000
0000
0000
1000
0000
1000
0000
0000
,
0001
0000
0000
0001
0000
0001
0000
0000
,
0100
0000
0000
0100
0000
0100
0000
0000
,
0020
0000
0000
0000
0000
0030
0000
0000
,
0100
0000
0000
0100
0000
0100
0000
0000
,
0001
0000
0000
0001
0000
0001
0000
0000
,
1000
0000
0000
1000
0000
1000
0000
0000
,
0100
0000
0100
0000
,
0010
0000
0000
0010
0000
0010
0000
0000
,
0001
0000
0000
0001
0000
0001
0000
0000
,
1000
0000
0000
1000
0000
1000
0000
0000
,
0020
0000
0000
0000
0000
0030
0000
0000
,
0100
0000
0000
0100
0000
0100
0000
0000
,
0001
0000
0000
0001
0000
0001
0000
0000
,
1000
0000
0000
1000
0000
1000
0000
0000
,
0200
0000
0000
0000
0000
0300
0000
0000
,
0010
0000
0000
0010
0000
0010
0000
0000
,
0001
0000
0000
0001
0000
0001
0000
0000
,
1000
0000
0000
1000
0000
1000
0000
0000
,
0020
0000
0000
0000
0000
0030
0000
0000
,
0200
0000
0000
0000
,
0000
0300
0000
0000
0000
0000
0000
0000
;

//---------------dance-single - Ace Of Arrows (2019)----------------
#NOTES:
     dance-single:
     Ace Of Arrows (2019):
     Beginner:
     1:
     0.118,0.107,0.000,0.213,0.000:
0000
0000
0000
0000
,
0000
0000
0000
0000
,
0000
0001
0000
0000
0000
0001
0000
0000
,
0000
0002
0000
0000
0000
0003
0000
0000
,
0000
1000
0000
0000
0000
1000
0000
0000
,
0000
2000
0000
0000
0000
3000
0000
0000
,
0000
2000
0000
0000
0000
3000
0000
0000
,
0000
0000
0000
0000
0000
0010
0000
0000
,
0000
0000
0000
0000
0000
0010
0000
0000
,
0000
0000
0000
0000
0000
0020
0000
0000
,
0000
0000
0000
0000
,
0030
0000
0000
0000
0000
0100
0000
0000
,
0000
0000
0000
0000
0000
0100
0000
0000
,
0000
0000
0000
0000
0000
0200
0000
0000
,
0000
0000
0000
0000
,
0300
0000
0000
0000
0000
0001
0000
0000
,
0000
0000
0000
0000
0000
0001
0000
0000
,
0000
0000
0000
0000
0000
0002
0000
0000
,
0000
0000
0000
0000
,
0003
0000
0000
0000
0000
1000
0000
0000
,
0000
0000
0000
0000
0000
1000
0000
0000
,
0000
0000
0000
0000
0000
2000
0000
0000
,
0000
0000
3000
0000
,
0000
0100
0000
0000
0000
0100
0000
0000
,
0000
0200
0000
0000
0000
0300
0000
0000
,
0000
0200
0000
0000
0000
0300
0000
0000
,
0000
0020
0000
0000
0000
0030
0000
0000
,
0000
0001
0000
0000
0000
0001
0000
0000
,
0000
0002
0000
0000
0000
0003
0000
0000
,
0000
1000
0000
0000
0000
1000
0000
0000
,
0000
2000
0000
0000
0000
3000
0000
0000
,
0000
0000
0000
0000
0000
0010
0000
0000
,
0000
0000
0000
0000
0000
0010
0000
0000
,
0000
0000
0000
0000
0000
0020
0000
0000
,
0000
0000
0000
0000
,
0030
0000
0000
0000
0000
0100
0000
0000
,
0000
0000
0000
0000
0000
0100
0000
0000
,
0000
0000
0000
0000
0000
0200
0000
0000
,
0000
0000
0300
0000
,
0000
0000
0000
0000
0000
0001
0000
0000
,
0000
0000
0000
0000
0000
0001
0000
0000
,
0000
0000
0000
0000
0000
0002
0000
0000
,
0000
0000
0000
0000
,
0003
0000
0000
0000
0000
1000
0000
0000
,
0000
0000
0000
0000
0000
1000
0000
0000
,
0000
0000
0000
0000
0000
2000
0000
0000
,
0000
0000
3000
0000
,
0000
0100
0000
0000
0000
0100
0000
0000
,
0000
0200
0000
0000
0000
0300
0000
0000
,
0000
0010
0000
0000
0000
0010
0000
0000
,
0000
0020
0000
0000
0000
0030
0000
0000
,
0000
0001
0000
0000
0000
0001
0000
0000
,
0000
0002
0000
0000
0000
0003
0000
0000
,
0000
1000
0000
0000
0000
1000
0000
0000
,
0000
2000
0000
0000
0000
3000
0000
0000
,
0000
0010
0000
0000
0000
0010
0000
0000
,
0000
0040
0000
0000
0000
0030
0000
0000
,
0000
0400
0000
0000
0000
0000
0000
0000
,
0000
0000
0000
0000
0000
0300
0000
0000
,
0000
0001
0000
0000
0000
0001
0000
0000
,
0000
0004
0000
0000
0000
0000
0000
0000
,
0003
0000
0000
0000
0000
1000
0000
0000
,
0000
2000
0000
0000
0000
3000
0000
0000
,
0000
0002
0000
0000
0000
0000
0000
0000
,
0000
0003
0000
0000
0000
0000
0000
0000
,
0000
0040
0000
0000
0000
0030
0000
0000
,
0000
0020
0000
0000
0000
0030
0000
0000
,
0000
0100
0000
0000
0000
0100
0000
0000
,
0000
0200
0000
0000
0000
0300
0000
0000
,
0000
4000
0000
0000
0000
3000
0000
0000
,
0000
2000
0000
0000
0000
3000
0000
0000
,
0000
0001
0000
0000
0000
0001
0000
0000
,
0000
0002
0000
0000
0000
0003
0000
0000
,
0000
0400
0000
0000
0000
0000
0000
0000
,
0000
0300
0000
0000
0000
0000
0000
0000
,
0000
0010
0000
0000
0000
0010
0000
0000
,
0000
0020
0000
0000
0000
0030
0000
0000
,
0000
1000
0000
0000
0000
1000
0000
0000
,
0000
2000
0000
0000
0000
3000
0000
0000
,
0000
0001
0000
0000
0000
0001
0000
0000
,
0000
0002
0000
0000
0000
0003
0000
0000
,
0000
0010
0000
0000
0000
0010
0000
0000
,
0000
0020
0000
0000
0000
0030
0000
0000
,
0000
0100
0000
0000
0000
0100
0000
0000
,
0000
0200
0000
0000
0000
0300
0000
0000
,
0000
1000
0000
0000
0000
1000
0000
0000
,
0000
2000
0000
0000
0000
3000
0000
0000
,
0000
0001
0000
0000
0000
0001
0000
0000
,
0000
0002
0000
0000
0000
0003
0000
0000
,
0000
0100
0000
0000
0000
0100
0000
0000
,
0000
0200
0000
0000
0000
0300
0000
0000
,
0000
0010
0000
0000
0000
0010
0000
0000
,
0000
0020
0000
0000
0000
0030
0000
0000
,
0000
1000
0000
0000
0000
1000
0000
0000
,
0000
2000
0000
0000
0000
3000
0000
0000
,
0000
0001
0000
0000
0000
0001
0000
0000
,
0000
0002
0000
0000
0000
0003
0000
0000
,
0000
0010
0000
0000
0000
0010
0000
0000
,
0000
0020
0000
0000
0000
0030
0000
0000
,
0000
0100
0000
0000
0000
0100
0000
0000
,
0000
0200
0000
0000
0000
0300
0000
0000
,
0000
1000
0000
0000
0000
1000
0000
0000
,
0000
2000
0000
0000
0000
3000
0000
0000
,
0000
0001
0000
0000
0000
0001
0000
0000
,
0000
0002
0000
0000
0000
0003
0000
0000
,
0000
0010
0000
0000
0000
0010
0000
0000
,
0000
0020
0000
0000
0000
0030
0000
0000
,
0000
0200
0000
0000
0000
0000
0000
0000
,
0000
0300
0000
0000
0000
0000
0000
0000
;
