#TITLE:Again;
#SUBTITLE:;
#ARTIST:ClariS;
#TITLETRANSLIT:;
#SUBTITLETRANSLIT:;
#ARTISTTRANSLIT:;
#GENRE:;
#CREDIT:Ace Of Arrows;
#BANNER:Again - Bn.png;
#BACKGROUND:Again - Bg.jpg;
#LYRICSPATH:;
#CDTITLE:Ace Of Arrows.png;
#MUSIC:Again.ogg;
#OFFSET:1.139;
#SAMPLESTART:64.500;
#SAMPLELENGTH:12.000;
#SELECTABLE:YES;
#BPMS:0.000=178.000,594.000=89.000,613.000=178.000;
#STOPS:;
#BGCHANGES:;
#KEYSOUNDS:;

//---------------dance-single - Ace Of Arrows (2019)----------------
#NOTES:
     dance-single:
     Ace Of Arrows (2019):
     Hard:
     8:
     0.641,0.000,0.000,1.000,0.025: // measure 1
0000
0000
0000
0000
,  // measure 2
0000
0000
0000
0000
,  // measure 3
0000
0000
0000
0000
,  // measure 4
0000
0000
0000
0000
,  // measure 5
0000
0000
0000
0000
0000
0000
0000
0001
,  // measure 6
0200
0000
0301
1000
0002
0000
1003
0200
,  // measure 7
0000
0320
0000
0000
0000
0030
0000
0001
,  // measure 8
2000
0000
3001
0100
0002
0000
1003
0200
,  // measure 9
0000
0320
0000
0032
0000
2003
0000
3001
,  // measure 10
0200
0000
0300
0020
0000
0030
2000
0000
,  // measure 11
3000
0002
0000
1003
0200
0000
0320
0000
,  // measure 12
0002
0000
0000
0030
0000
1003
0010
2000
,  // measure 13
0000
3000
0001
0200
0000
0301
1000
0010
,  // measure 14
1000
0001
0010
0200
0000
1300
0001
1000
,  // measure 15
0100
2000
0000
3001
1000
0100
1000
0001
,  // measure 16
2000
0000
3001
0200
0000
0320
0000
2030
,  // measure 17
0000
3001
0010
0200
0000
0000
0000
0000
,  // measure 18
1300
0001
0100
0002
0000
1003
0100
0010
,  // measure 19
0100
2000
0000
3001
0100
0010
0100
0001
,  // measure 20
2000
0000
3010
0200
0000
0301
1000
0200
,  // measure 21
0000
0000
0000
0000
,  // measure 22
0300
0000
0010
0002
0000
2003
0000
3020
,  // measure 23
0000
0000
0000
0000
1030
0000
0000
0000
0001
0000
0000
0000
0200
0000
0000
0000
0000
0000
0000
0000
0000
0000
0000
0300
0400
0000
0000
0000
0000
0000
0000
0000
,  // measure 24
0300
0000
0001
2000
0000
3200
0000
0320
,  // measure 25
0000
0031
1000
0100
1000
0001
0400
0000
,  // measure 26
0000
0300
0010
2000
0000
3002
0000
0023
,  // measure 27
0000
0000
0130
2000
0000
3001
0200
0000
,  // measure 28
0301
1000
0010
0100
0001
0100
0010
2000
,  // measure 29
0000
0000
0000
0000
3001
0000
0000
0000
0020
0000
0000
0000
0000
0000
0000
0000
0000
0000
0000
0000
0000
0000
0000
0030
0040
0000
0000
0000
0000
0000
0000
0000
,  // measure 30
0030
0000
0100
2000
0000
3002
0000
0203
,  // measure 31
0000
0310
1000
0002
0000
0000
0000
0000
,  // measure 32
0003
0000
1000
0200
0000
0320
0000
0032
,  // measure 33
0000
1003
0100
0010
0100
1000
0002
0000
,  // measure 34
0003
0000
1000
0020
0000
0230
0000
0302
,  // measure 35
0000
0000
1003
0200
0000
0310
0002
0000
,  // measure 36
2003
0000
3010
0200
0000
0301
2000
0000
,  // measure 37
0000
3001
0010
0100
0010
0001
1000
0010
,  // measure 38
0100
0010
1000
0002
0000
1003
0020
0000
,  // measure 39
0000
0000
0000
0000
0030
0000
0000
1000
,  // measure 40
0001
0010
0100
0020
0000
0031
2000
0000
,  // measure 41
0000
0000
0000
0000
3000
0000
0000
0001
,  // measure 42
0100
0010
1000
0020
0000
0130
0002
0000
,  // measure 43
0003
2000
3200
0320
,  // measure 44
0230
0000
0000
0000
0000
0000
0000
0000
0000
0000
0000
0300
0400
0000
0000
0000
0000
0000
0000
0000
0300
0000
0000
0000
0000
0000
0000
0000
1000
0000
0000
0000
,  // measure 45
0001
0100
0001
2000
0000
3002
0000
0203
,  // measure 46
0000
0000
0000
0000
0000
0000
0000
0000
0000
0000
0000
0000
0000
0000
0000
0000
0000
0000
0000
0300
0400
0000
0000
0000
0000
0000
0000
0000
0300
0000
0000
0000
,  // measure 47
0000
0010
1000
0001
0010
0001
1000
0002
,  // measure 48
0000
0013
0100
2000
0000
3001
0100
0001
,  // measure 49
0000
0000
1000
0100
0010
0100
1000
0001
,  // measure 50
0020
0000
0031
1000
0002
0000
0103
0020
,  // measure 51
0000
2030
0000
0000
0000
0000
3000
0001
,  // measure 52
0020
0000
0031
1000
0200
0000
0310
0002
,  // measure 53
0000
2003
0000
3020
0000
0230
0000
0301
,  // measure 54
2000
0000
3001
0010
0200
0000
1300
0002
,  // measure 55
0000
0203
0000
0000
0300
0000
0010
2000
,  // measure 56
0000
3000
0001
0020
0000
0030
0001
2000
,  // measure 57
0000
3020
0000
0230
0000
0302
0000
1003
,  // measure 58
0200
0000
0310
0100
2000
0000
3001
0200
,  // measure 59
0000
0320
0000
0000
0000
0000
0030
1000
,  // measure 60
0002
0000
0013
0100
2000
0000
3001
0200
,  // measure 61
0000
0320
0000
2030
0000
3002
0000
0013
,  // measure 62
0200
0000
0300
2000
0000
3000
0002
0000
,  // measure 63
0003
0200
0000
0310
2000
0000
3002
0000
,  // measure 64
0023
0000
0000
0000
0030
0100
1000
0002
,  // measure 65
0000
0003
1000
0020
0000
1030
0001
2000
,  // measure 66
0000
3100
0010
0001
0010
0100
1000
0001
,  // measure 67
0200
0000
0320
0000
,  // measure 68
1030
0001
0010
0200
0000
1300
0001
0100
,  // measure 69
0001
2000
0000
3100
0010
0001
0010
0100
,  // measure 70
0020
0000
0031
2000
0000
3002
0000
0203
,  // measure 71
0000
0310
1000
0002
0000
0000
0000
0000
,  // measure 72
2003
0000
3100
0020
0000
0130
1000
0001
,  // measure 73
0100
0020
0000
0130
0001
1000
0100
0010
,  // measure 74
0002
0000
1003
0020
0000
0130
0001
2000
,  // measure 75
0000
3100
0010
0001
2000
0000
0000
0000
,  // measure 76
3000
0000
0001
0200
0000
0320
0000
2030
,  // measure 77
0000
0000
0000
0000
3001
0000
0000
0000
0100
0000
0000
0000
0020
0000
0000
0000
0000
0000
0000
0000
0000
0000
0000
0000
0000
0000
0000
0030
0040
0000
0000
0000
,  // measure 78
0000
0030
1000
0002
0000
0023
0000
0230
,  // measure 79
0000
1300
0001
1000
0100
0010
0400
0000
,  // measure 80
0300
0000
1000
0002
0000
0203
0000
0320
,  // measure 81
0000
0000
1030
0002
0000
0013
0200
0000
,  // measure 82
1300
0001
0100
0001
2000
0000
3100
0020
,  // measure 83
0000
0031
1000
0010
0100
0010
1000
0001
,  // measure 84
0020
0000
0130
2000
0000
3002
0000
0203
,  // measure 85
0000
0310
1000
0002
0000
0000
0000
0000
,  // measure 86
0003
0000
1000
0200
0000
0320
0000
0230
,  // measure 87
0000
1300
0001
0010
0001
1000
0020
0000
,  // measure 88
0030
0000
0100
0002
0000
2003
0000
3200
,  // measure 89
0000
0000
0310
0002
0000
1003
0020
0000
,  // measure 90
0230
0000
0301
2000
0000
3001
0020
0000
,  // measure 91
0000
0130
1000
0001
0100
0001
1000
0100
,  // measure 92
0010
0100
1000
0002
0000
1003
0020
0000
,  // measure 93
0000
0000
0000
0000
0030
0000
0000
0100
,  // measure 94
0001
1000
0001
0020
0000
0130
2000
0000
,  // measure 95
0000
0000
0000
0000
0000
3000
0000
0001
,  // measure 96
0010
0001
1000
0020
0000
0130
0002
0000
,  // measure 97
0003
2000
3200
0320
,  // measure 98
0230
0000
0000
0000
0000
0300
0000
1000
,  // measure 99
0002
0000
1003
0020
0000
0230
0000
0302
,  // measure 100
0000
0000
0000
0000
,  // measure 101
0003
2000
0000
3100
0020
0000
0130
2000
,  // measure 102
0000
3001
0100
0010
0100
0001
1000
0100
,  // measure 103
0000
0000
0010
0100
1000
0001
0100
0001
,  // measure 104
2000
0000
3001
0010
0200
0000
0310
0002
,  // measure 105
0000
0000
0000
0000
2003
0000
0000
0000
0000
0000
0000
0000
0000
0000
0000
3000
4000
0000
0000
0000
0000
0000
0000
0000
3000
0000
0000
0000
0010
0000
0000
0000
,  // measure 106
0200
0000
0301
1000
0002
0000
0013
0200
,  // measure 107
0000
2300
0000
3002
0000
0203
0000
0310
,  // measure 108
2000
0000
3001
0010
0200
0000
0310
0002
,  // measure 109
0000
2003
0000
0000
3000
0000
0010
0200
,  // measure 110
0000
0300
0001
2000
0000
3000
0001
0020
,  // measure 111
0000
0230
0000
2300
0000
3002
0000
1003
,  // measure 112
0020
0000
0130
0001
2000
0000
3001
0020
,  // measure 113
0000
0230
0000
0000
0000
0000
0300
1000
,  // measure 114
0002
0000
1003
0010
0200
0000
0301
2000
,  // measure 115
0000
3002
0000
0023
0000
0230
0000
1300
,  // measure 116
0002
0000
0003
0200
0000
0300
0020
0000
,  // measure 117
0030
2000
0000
3001
0020
0000
0230
0000
,  // measure 118
2300
0000
0000
0000
3000
0001
0100
0020
,  // measure 119
0000
0000
1030
0002
0000
0013
0100
2000
,  // measure 120
0000
3001
0100
0010
0100
0001
1000
0100
,  // measure 121
0020
0000
0230
0000
,  // measure 122
2300
0000
3001
0200
0000
0301
1000
0001
,  // measure 123
0010
0200
0000
1300
0001
0100
0001
2000
,  // measure 124
0000
3100
0010
0001
0010
0100
1000
0002
,  // measure 125
0000
0203
0320
2030
,  // measure 126
3001
0010
0100
0020
0000
0031
1000
0001
,  // measure 127
0100
0002
0000
1003
0100
0010
0100
1000
,  // measure 128
0002
0000
0000
0203
0000
0000
0310
0000
2000
0000
0000
3002
0000
0000
0013
0000
,  // measure 129
0200
2300
3002
0203
,  // measure 130
0320
0000
0000
0000
0000
1030
0001
0010
,  // measure 131
0200
2300
3002
0203
,  // measure 132
0302
0000
2003
0000
,  // measure 133
3020
0230
0302
2003
,  // measure 134
3200
0000
0000
0000
0000
0000
0000
0000
0000
0000
0000
0000
0000
0000
1300
0001
,  // measure 135
2000
0000
0000
0000
0000
0000
3200
0000
0000
0000
0000
0000
0320
0000
0031
1000
,  // measure 136
0002
0000
0000
0000
0000
0103
0010
2000
,  // measure 137
0000
0000
3002
0023
,  // measure 138
0230
0000
0000
1000
0000
0000
0320
0000
,  // measure 139
0000
0031
1000
0010
1000
0001
0010
0100
,  // measure 140
2000
0000
3001
0200
0000
0301
2000
0000
,  // measure 141
3100
0010
0001
1000
0010
1000
0002
0000
,  // measure 142
0023
0000
0000
0100
0000
0000
0032
0000
,  // measure 143
0000
2003
0000
3010
0100
0001
0100
0010
,  // measure 144
2000
0000
3001
0010
0200
0000
0000
0000
,  // measure 145
0300
2000
3002
0203
,  // measure 146
0320
0000
0000
0000
0000
0000
0000
0000
0000
0000
0000
0000
0000
0000
0000
0000
0000
0000
0000
0030
0040
0000
0000
0000
0000
0000
0000
0000
0030
0000
0000
0000
,  // measure 147
0000
1000
0001
0010
0200
0000
1300
0002
,  // measure 148
0000
0000
1003
0020
0000
1030
0001
0010
,  // measure 149
0000
0000
0002
0000
,  // measure 150
0000
0000
0003
1000
0200
0000
1300
0001
2000
0000
3001
0100
0001
0200
0000
0000
,  // measure 151
0000
0300
0020
0030
2000
3000
0002
0003
,  // measure 152
2000
0000
3000
0001
0020
0000
0130
1000
0200
0000
0310
0002
0000
2003
0000
0000
,  // measure 153
0000
0000
3000
0000
0002
0000
0003
0000
0200
0000
0300
0020
0000
0000
0000
0000
,  // measure 154
0000
0000
0030
0000
0000
1000
0002
0000
,  // measure 155
0013
0100
2000
0000
3001
0200
0000
0320
,  // measure 156
0000
0000
0000
0000
0030
1000
0002
0000
,  // measure 157
1003
0100
0020
0000
0130
2000
0000
3002
,  // measure 158
0000
0203
0000
0302
0000
1003
0200
0000
,  // measure 159
0310
0001
2000
0000
3001
0200
0000
0320
,  // measure 160
0000
0000
0030
0000
1000
0002
0000
0003
,  // measure 161
0010
0200
0000
0300
1000
0002
0000
0203
,  // measure 162
0000
0320
0000
2030
0000
3001
0020
0000
,  // measure 163
0031
1000
0200
0000
0310
0002
0000
2003
,  // measure 164
0000
0000
0000
0000
3000
0001
0200
0000
,  // measure 165
0310
0100
0002
0000
1003
0200
0000
0320
,  // measure 166
0000
0032
0000
2003
0000
3010
0200
0000
,  // measure 167
0300
0002
0000
0003
2000
0000
3000
0200
,  // measure 168
0000
0310
0002
0000
2003
0000
3020
0000
,  // measure 169
0000
0000
0030
0100
0001
4000
0000
3000
,  // measure 170
0001
0020
0000
0031
1000
0020
0000
0130
,  // measure 171
0001
1000
0100
0010
0100
1000
0002
0000
,  // measure 172
0000
0000
0203
0000
0000
0000
0310
1000
,  // measure 173
0001
0200
0000
0301
1000
0100
0010
0200
,  // measure 174
0000
1300
0001
0100
0010
2000
0000
3001
,  // measure 175
0010
0200
0000
1300
0001
0200
0000
0310
,  // measure 176
1000
0002
0000
0000
0000
0000
0013
0100
,  // measure 177
1000
0200
0000
0310
0001
1000
0001
0200
,  // measure 178
0000
0310
1000
0001
0010
0200
0000
1300
,  // measure 179
0001
0100
0001
1000
0002
0200
0000
0000
,  // measure 180
0000
0000
0000
0000
,  // measure 181
0000
0000
0300
0000
,  // measure 182
0000
0000
0000
0003
;

//---------------dance-single - Ace Of Arrows (2019)----------------
#NOTES:
     dance-single:
     Ace Of Arrows (2019):
     Challenge:
     10:
     0.853,0.000,0.590,1.000,0.068:
0000
0000
0000
0000
,
0000
0000
0000
0000
,
0000
0000
0000
0000
,
0000
0000
0000
0000
,
0000
0000
0000
0000
0000
0000
0000
0001
,
0020
0000
0031
1000
0002
0000
0103
0020
,
0000
2030
0000
0000
0000
3000
0000
0001
,
0020
0000
0130
1000
0200
0000
0310
0002
,
0000
2003
0000
3020
0000
0130
0002
1003
,
1200
0310
0001
2001
3010
0100
0102
1003
,
0100
0120
0031
1000
0020
0130
0001
0000
,
2001
0000
3100
0010
0001
1000
0001
0200
,
0300
0000
0010
2000
0000
3001
0010
0100
,
2100
3001
1000
0200
0000
0310
0001
1000
,
1020
0130
0001
1000
0100
0010
0100
1000
,
1002
0000
0103
0020
0000
2030
3000
1002
,
0000
0013
0100
2000
0000
3001
0100
0010
,
2010
3001
0010
0200
0000
1300
0001
0100
,
0010
2000
0000
3001
0010
0100
0010
0001
,
2001
0000
3010
0200
0000
0301
1000
1200
,
0000
0000
0310
0000
0001
0000
1000
0100
2000
0000
0000
0000
0000
0000
3000
0000
,
1002
0000
0103
0020
0000
2030
0000
3002
,
0000
0013
0100
2000
3001
0100
0010
1000
,
1002
0000
0013
0200
0000
2300
0000
3002
,
0000
0000
0103
0000
0010
0000
1000
0000
0010
0000
0100
0000
0004
0000
0000
0003
,
2001
0000
0000
0000
3100
0000
0020
0000
0000
0000
0230
0000
0000
0300
2100
0000
,
0000
0000
3001
0200
0000
0310
2010
0000
,
3001
0010
0100
0010
0001
1000
0010
0210
,
0000
0301
2000
0000
0000
3100
0020
0030
,
0012
0000
1003
0020
0000
0130
0001
2001
,
0000
3100
0010
0002
1003
0010
0100
0010
,
2010
0000
3001
0020
0000
0130
1000
1002
,
0000
0000
0103
0000
0010
0000
1000
0000
0001
0000
0010
0000
0200
0000
0000
0300
,
2100
0000
3001
0200
0000
0310
1000
1002
,
0000
0000
0013
0200
0000
1300
0002
0103
,
0120
0000
1030
1002
0000
0013
0210
0000
,
1300
0000
0001
0000
0100
0000
0001
1000
0001
0000
0010
0000
0100
0000
1000
0000
,
0001
0100
0010
2000
0000
3001
0020
0031
,
1000
0010
0100
0010
1000
0001
0010
0100
,
1000
0001
0100
0020
0000
1030
0002
0013
,
0100
0000
1000
0000
0100
0000
0010
0000
0001
0000
1000
0000
0010
0000
0100
0001
,
0100
0010
1000
0002
0000
1003
0040
0000
,
0000
0030
1000
0001
0010
0100
0010
0001
,
2001
0000
0000
0000
0000
0000
0000
0000
0000
0000
0000
3000
4000
0000
0000
0000
0000
0000
0000
0000
0000
0000
0000
0000
3000
0000
0000
0000
0001
0000
0000
0000
,
0021
0130
1000
0002
0000
2003
0000
3010
,
0200
0000
0000
0000
0000
0000
0000
0000
0000
0000
0000
0000
0000
0000
0000
0300
0400
0000
0000
0000
0000
0000
0000
0000
0000
0000
0000
0000
0000
0000
0000
0000
,
0300
0001
1000
0100
0010
0100
1000
0001
,
0201
0310
1000
0001
0010
0100
0010
0011
,
0000
0000
0001
2000
3010
2000
3001
0010
,
0210
0000
1300
0001
0200
0000
0310
1010
,
0000
2000
0000
0000
0000
0000
3000
0001
,
0021
0000
0130
1000
0002
0000
1003
1020
,
0000
0230
0000
0302
0000
2003
0000
3100
,
0120
0000
0031
1000
0020
0000
0130
0101
,
0000
0002
0000
0000
0003
0000
1000
0200
,
0000
0300
0010
0002
1003
0010
0100
0101
,
0000
0000
0002
0000
1003
0000
0200
0000
0000
0000
1300
0000
0001
0100
0001
0000
,
2001
0000
3100
0010
0002
0000
1003
1010
,
0000
0020
0000
0000
0000
0000
0030
0100
,
0002
0000
1003
0100
0020
0000
0130
2100
,
0000
3002
0000
0203
0000
0310
1000
0001
,
0021
0130
1000
1002
0103
0010
2010
3001
,
0010
0000
0210
0000
1300
0001
1000
0000
0010
0000
0100
0000
0002
0000
0003
0000
,
2001
3100
0010
0100
1000
0001
0100
0120
,
0000
1030
0001
2000
0000
3100
0010
0012
,
0000
0000
1003
0000
0020
0000
1030
0001
1000
0000
0001
0000
0010
0000
0100
0000
,
2100
0000
0000
0000
0000
0000
0000
0000
3002
0000
0000
0000
0013
0001
0010
0000
,
0210
1300
0001
0200
0000
0310
1000
0001
,
0101
0200
0000
0310
1000
0001
0010
0100
,
2100
0000
0000
0000
3001
0000
0200
0000
0000
0000
0320
0000
0000
0030
2010
0000
,
0000
3001
0010
0200
0000
0000
0000
0300
,
2100
3001
0100
0020
0000
1030
0001
0010
,
0210
2300
0000
3001
0100
0010
1000
0010
,
0210
0000
0301
2001
0000
3100
0010
0012
,
0000
0000
1003
0000
0020
0000
0130
0001
0200
0000
0000
0000
0000
0000
0300
0000
,
0120
0000
1030
0002
0000
0023
0030
0210
,
0000
1300
0001
2000
3010
0100
0001
1000
,
0200
0000
0310
0012
0000
2003
3000
1020
,
0000
0000
0130
0000
0001
0000
1000
0000
1100
0000
0100
0000
0040
0000
0000
0030
,
0012
0000
0000
0000
1003
0000
0020
0000
0000
0000
0230
0000
0000
0300
0102
0000
,
0000
1003
0200
0310
0100
1000
0002
0003
,
0101
0100
0010
1000
0004
0000
0013
0210
,
0000
1300
0002
0103
0010
1000
0010
0100
,
0102
0000
1003
0200
0000
0310
0001
2001
,
0000
0000
3010
0000
0100
0000
0020
0000
0000
0000
1030
0000
0001
0000
0010
0001
,
0020
0000
0130
2100
0000
3001
0100
0120
,
0000
0000
1030
0000
0001
0000
0010
0000
0110
0000
0100
0000
2000
0000
0000
3000
,
1002
0000
0103
0020
0000
2030
3001
0021
,
0000
0130
1000
0002
0003
0100
0020
1030
,
1002
0000
0013
0210
0000
1300
1002
0000
,
0000
0000
0103
0000
0020
0000
1030
0001
1000
0000
0100
0000
0020
0000
0031
0000
,
2001
3010
0100
0002
0000
1003
0200
0000
,
0000
0000
0300
0010
0011
0001
2000
3010
,
0210
0301
1000
0200
0000
0310
0002
0000
,
0000
0000
0003
1000
1010
0010
0100
0001
,
2001
3100
0010
0012
0000
1003
1020
0000
,
0130
0000
0001
0000
1000
0000
0001
0010
0001
0000
1000
0000
0200
0000
0300
0000
,
0120
0000
0031
1000
0010
0100
0001
1000
,
1200
0000
0310
0002
0000
1003
0010
0210
,
0000
0000
0301
1000
0100
0010
0001
0010
,
0100
2000
0000
3001
0100
0010
1000
1002
,
0013
0100
1000
1002
0000
0103
0010
1010
,
0000
0000
1000
0002
0013
0002
1003
0010
,
0210
0000
0301
1000
0002
0000
0013
0110
,
0000
0000
0000
0000
0200
0000
0000
0000
0000
0000
0000
0000
0000
0000
0000
0300
0400
0000
0000
0000
0000
0000
0000
0000
0300
0000
0000
0000
1000
0000
0000
0000
,
1002
0000
0103
0010
2000
0000
3001
0021
,
0000
0230
0000
2300
0000
3002
0000
0103
,
0120
0000
1030
0001
0020
0000
0130
1100
,
0000
2000
0000
0000
3000
0000
0001
0201
,
0000
0300
0010
2000
3001
0010
0100
2200
,
3300
0000
1002
0000
0103
0000
0020
0000
0000
0000
2030
0000
3001
0100
0001
0000
,
2001
0000
3100
0010
0001
1000
0010
0210
,
0000
0302
1003
0100
0010
0100
1000
0001
,
0201
0000
0310
1000
0002
1003
0100
0120
,
0000
0032
0000
2003
3010
0100
0010
1000
,
1002
0013
0100
2100
3001
1000
1200
0310
,
0001
0000
2001
0000
3010
0100
0010
0000
1000
0000
0001
0000
0020
0000
0030
0000
,
0210
1300
0001
0100
0001
1000
0100
0120
,
0000
0031
1000
0002
0000
0103
0010
1000
,
1002
0000
0013
0000
0100
0000
1000
0001
1000
0000
0100
0000
0010
0000
0001
0000
,
2001
0000
0000
3000
1020
0000
0000
0030
,
0210
0000
0301
2000
0000
3001
0010
0100
,
1000
0002
0000
0103
0010
1000
0001
0200
,
0000
0301
1000
0100
1000
0001
0010
0200
,
0000
0000
0310
0000
0001
0000
1000
0000
0010
0000
1000
0000
0002
0000
0000
0003
,
0021
0130
1000
0002
0000
1003
0010
0100
,
0010
2000
0000
3001
0010
0100
1000
0001
,
0020
0000
0000
0032
0000
0000
1003
0000
0010
0000
0100
0000
0001
0000
1000
0000
,
1200
0000
0320
0000
0031
1000
0010
0100
,
0102
0000
0000
0000
0000
1003
0100
0010
,
0200
0000
2300
0000
3002
0000
0023
0030
,
0210
0000
0000
0000
2300
0000
0000
3000
,
1002
0203
0320
2030
,
3002
0000
0000
0000
0000
0000
0000
0000
0000
0000
0000
0000
0000
0000
1003
0100
,
0020
0000
0000
0000
0000
0000
0032
0000
0000
0000
0000
0000
2003
0000
3001
0100
,
0020
0000
0000
0000
0000
0000
1030
0001
1000
0000
0100
0000
0010
0000
0002
0000
,
0000
0000
1003
0000
0010
0000
0100
0000
0001
0000
1000
0100
1000
0000
0000
0000
,
1002
0000
0103
0010
0000
1000
1002
0000
,
0013
0100
1000
0001
0100
0010
1000
0001
,
0011
0000
0010
0110
0000
0100
2100
0000
,
3001
0000
0100
0000
0010
0000
1000
0001
1000
0000
0010
0000
0200
0000
0000
0300
,
0101
0000
0001
1001
0000
1000
1200
0000
,
0310
0000
0001
0000
1000
0000
0010
0100
0010
0000
1000
0000
0001
0000
0010
0000
,
0210
0000
1300
0001
2000
3100
0010
0001
,
0020
0000
0230
0000
2300
0000
3002
0003
,
0201
0000
0310
1000
0001
0010
0001
1000
,
0020
0000
0130
0000
0010
0000
1000
0000
0001
0000
0010
0000
0100
0000
1000
0001
,
2000
0000
3010
0210
0000
0301
1000
1100
,
0000
0000
0200
0000
,
0000
0000
0300
0010
0002
0000
1003
0010
2000
0000
3001
0010
0001
2000
0000
0000
,
0000
3000
0020
0030
0200
0300
0002
0003
,
2000
0000
3000
0001
0200
0000
0301
1000
0002
0000
0013
0200
0000
0320
0000
0000
,
0000
0000
0030
0000
0002
0000
0003
0000
2000
0000
3000
0020
0000
0000
0000
0000
,
0000
0000
0030
0000
0000
0100
0102
0000
,
1003
0100
0020
0000
0031
1001
0000
2000
,
0000
0000
0000
0000
3000
0010
0210
0000
,
0301
1000
0200
0000
0310
0012
0000
1003
,
0010
0100
0010
1000
0001
0010
0210
0000
,
1300
0001
2000
0000
3010
0110
0000
0200
,
0301
1000
0100
0010
0100
2000
3001
0100
,
0010
2000
3001
0010
0100
2100
3000
1002
,
0103
0000
0120
0000
0000
0000
1030
0000
0001
0000
0010
0100
0020
0000
0000
0000
,
0031
1000
0020
0000
0130
0101
0000
0002
,
1003
0100
0010
0100
1000
0001
0200
0000
,
0310
1000
0002
0013
0100
2000
0000
3001
,
0100
0010
0100
0002
0000
1003
1100
0000
,
0100
0110
0000
0010
0011
0000
0001
2001
,
3010
0100
0010
0000
1000
0000
0001
0000
0020
0000
0030
0000
0210
0000
0000
0000
,
1300
0001
0200
0310
1000
0002
0003
0010
,
0100
2000
0000
3001
0100
0120
0000
2030
,
3001
0000
0010
0100
0010
0000
0001
0000
1000
0000
0010
0000
0210
0000
0000
0000
,
0000
0000
0000
0000
0302
0000
0000
0000
0000
0000
1003
0100
2000
0000
3001
0000
,
0100
0002
0000
1003
0100
0010
0012
2003
,
0000
3010
0100
0001
1000
1020
0000
0230
,
0000
0301
1000
0100
0010
0012
0000
1003
,
0010
0200
0000
0301
1000
0100
0010
0001
,
1000
0002
0000
0103
0010
1000
0001
0020
,
0000
0130
1000
0001
0100
0010
2010
3001
,
0010
0100
0010
0001
2000
0200
0000
0000
,
0000
0000
0000
0000
,
0000
0000
0300
0000
,
0000
0000
0000
3000
;

//---------------dance-single - Ace Of Arrows (2019)----------------
#NOTES:
     dance-single:
     Ace Of Arrows (2019):
     Medium:
     6:
     0.513,0.000,0.000,1.000,0.004:
0000
0000
0000
0000
,
0000
0000
0000
0000
,
0000
0000
0000
0000
,
0000
0000
0000
0000
,
0000
0000
0000
0000
,
2000
0000
3001
0000
1000
0000
0001
0200
,
0000
0320
0000
0000
0000
0000
0030
0000
,
2000
0000
3001
0000
0020
0000
0031
1000
,
0000
0020
0000
0230
0000
0302
0000
1003
,
0010
0000
0000
1000
0000
0000
0100
0000
,
0000
0010
0000
0001
2000
0000
3002
0000
,
0023
0000
0000
0000
0030
0000
0001
1000
,
0000
0000
0100
0020
0000
0000
0130
2000
,
0000
0000
3001
0200
0000
0320
0000
0000
,
1030
0002
0000
0000
0013
0000
0100
0000
,
0020
0000
0031
2000
0000
3002
0000
2003
,
0000
0000
3100
0020
0000
0000
0030
0000
,
0002
0000
1003
0020
0000
0230
0000
0000
,
0301
2000
0000
3100
0020
0000
0032
0000
,
2003
0000
3001
0200
0000
0000
0301
2000
,
0000
0000
0000
3000
,
0000
0000
0001
0020
0000
0230
0000
2300
,
0000
0000
3001
0200
0000
0000
0000
0000
,
0300
0000
0010
0200
0000
0320
0000
2030
,
0000
3002
0013
0004
,
0000
0000
1003
0020
0000
2030
0000
3002
,
0000
0000
1003
0200
0000
1300
0002
0000
,
1003
0000
0010
0000
1000
0000
0001
0010
,
0000
0001
2000
0000
0000
0000
0000
0000
,
3000
0000
0001
0200
0000
0320
0000
0230
,
0000
0000
0301
2000
0000
0000
0000
0000
,
3000
0000
0001
0020
0000
0230
0000
0320
,
0000
0031
1000
0002
,
0003
0000
1000
0020
0000
2030
0000
3002
,
0000
0000
0013
0200
0000
0310
0002
0000
,
2003
0000
3001
0200
0000
0301
2000
0000
,
0000
0000
0000
0000
3000
0000
0000
0001
,
0020
0000
0130
2000
0000
3100
0020
0000
,
0000
0000
0000
0000
0030
0000
0000
0001
,
2000
0000
3010
0200
0000
0310
2000
0000
,
0000
0000
0000
0000
3000
0000
0000
0001
,
0200
0000
0310
0200
0000
0301
2000
0000
,
3000
0002
0023
0230
,
2300
0000
0000
0000
0000
0000
3000
0001
,
0200
0000
0301
1000
0000
0001
0000
0200
,
0000
0000
0000
0000
,
0300
0010
1000
0000
0002
0000
1003
0020
,
0000
0000
0000
0000
,
0030
0000
0000
0000
0000
0000
0000
1000
,
0001
0000
0010
0000
0002
0000
1003
0020
,
0000
0230
0000
0000
0000
0000
0300
0001
,
2000
0000
3001
0000
0020
0000
0130
2000
,
0000
3002
0000
2003
0000
3020
0000
0130
,
0002
0000
1003
0000
0200
0000
0310
0002
,
0000
2003
0000
0000
3000
0000
0001
0200
,
0000
0300
0001
2000
0000
3000
0001
0100
,
0000
0010
0000
0100
0000
0002
0000
1003
,
0200
0000
0310
0000
0100
0000
1000
0002
,
0000
0203
0000
0000
0000
0000
0300
0010
,
0200
0000
0301
0000
2000
0000
3001
0020
,
0000
0032
0000
2003
0000
3020
0000
0130
,
0001
0000
0000
1000
0000
0000
0100
0000
,
0000
0010
0000
0100
2000
0000
3001
0000
,
0200
0000
0000
0000
0300
0000
0010
2000
,
0000
3000
0001
0020
0000
0000
0031
2000
,
0000
3200
0000
0000
0000
0000
0300
0000
,
0020
0000
0230
0000
,
2300
0000
3001
0200
0000
0302
0000
0000
,
1003
0200
0000
0320
0000
0000
0230
0000
,
2300
0000
3001
0200
0000
0320
0000
2030
,
0000
0000
3001
0020
0000
0000
0000
0000
,
0230
0000
0310
0002
0000
2003
0000
0000
,
3001
0200
0000
0320
0000
0000
2030
0000
,
3002
0000
0013
0200
0000
0000
1300
0002
,
0000
0000
0003
0000
,
0000
0000
1000
0020
0000
2030
0000
3002
,
0000
0000
0013
0200
0000
0000
0000
0000
,
0300
0000
1000
0002
0000
0203
0000
0320
,
0000
1030
0001
0000
0010
0000
0004
0000
,
0003
0000
1000
0020
0000
2030
0000
3002
,
0000
0000
0013
0200
0000
0310
0002
0000
,
1003
0000
0010
0000
2000
0000
3001
0100
,
0000
0001
2000
0000
0000
0000
0000
0000
,
3000
0000
0001
0020
0000
0230
0000
2300
,
0000
0000
3100
0020
0000
0000
0000
0000
,
0030
0000
0001
2000
0000
3020
0000
2030
,
0000
3001
0010
0000
0001
0000
2000
0000
,
3000
0000
0001
0200
0000
0302
0000
2003
,
0000
0000
3100
0010
0000
0100
2000
0000
,
3002
0000
1003
0010
0000
1000
0002
0000
,
0000
0000
0000
0000
0003
0000
0000
1000
,
0200
0000
0310
0200
0000
1300
0200
0000
,
0000
0000
0000
0000
0300
0000
0000
0010
,
0002
0000
1003
0002
0000
0013
0002
0000
,
0000
0000
0000
0000
0003
0000
0000
1000
,
0020
0000
1030
0020
0000
1030
0020
0000
,
0030
0200
0302
2003
,
3002
0000
0000
0000
0003
0000
0000
0010
,
0002
0000
1003
0002
0000
0023
0000
0230
,
0000
0000
0000
0000
,
0300
2000
0000
3001
0200
0000
0301
2000
,
0000
0000
0000
0000
,
3000
0000
0000
0000
0000
0000
0000
0001
,
0020
0000
0031
0000
2000
0000
3001
0200
,
0000
0320
0000
0000
0000
0000
0030
0100
,
0002
0000
1003
0000
0200
0000
0310
0002
,
0000
2003
0000
3002
0000
0203
0000
0310
,
2000
0000
3001
0000
0020
0000
0031
2000
,
0000
3002
0000
0000
0003
0000
1000
0020
,
0000
0030
1000
0002
0000
0003
1000
0200
,
0000
0320
0000
0230
0000
2300
0000
3001
,
0200
0000
0310
0000
2000
0000
3001
0020
,
0000
0230
0000
0000
0000
0000
0300
1000
,
0002
0000
0203
0000
0320
0000
0130
0002
,
0000
2003
0000
3002
0000
0023
0000
0130
,
1000
0000
0000
0001
0000
0000
0100
0000
,
0000
0001
0000
1000
0200
0000
0310
0000
,
0002
0000
0000
0000
0003
0000
1000
0020
,
0000
0000
0130
0002
0000
0000
1003
0200
,
0000
0320
0000
0000
0000
0000
0030
0000
,
0002
0000
2003
0000
,
3020
0000
0130
0002
0000
2003
0000
0000
,
3001
0020
0000
0000
0032
0000
1003
0020
,
0000
0230
0000
0302
0000
2003
0000
3200
,
0000
0320
0032
2003
,
3020
0000
1030
0002
0000
0023
0000
0000
,
0130
2000
0000
3002
0000
0000
0103
0020
,
0000
1030
0002
0000
0023
0000
0230
0000
,
2300
3002
2003
3200
,
0320
0000
0000
0000
0000
0000
0000
0031
,
2000
3020
0230
0320
,
2030
0000
3002
0000
,
0023
0230
2300
3002
,
0203
0000
0000
0000
0000
0000
0000
0310
,
2000
0000
0000
3002
0000
0000
0023
0000
,
0230
0000
0000
0000
0000
0000
1300
0002
,
0000
0000
1003
0010
,
2000
0000
0000
0000
,
3000
0001
0020
0000
0032
0000
2003
0000
,
3010
0000
1000
0001
0000
0010
0200
0000
,
0000
0300
1000
0001
,
0200
0000
0000
0300
,
0000
0020
0000
1030
0001
0000
0010
0000
,
0002
0000
0000
1003
0200
0000
0000
0000
,
0300
0020
0230
2300
,
3002
0000
0000
0000
,
0003
1000
0010
0000
2000
0000
3001
0200
,
0000
0000
0000
0000
,
0300
0000
0020
0000
,
0030
0000
1000
0001
1000
0000
0200
0000
,
0000
0300
0010
0000
0100
0000
0020
0000
,
0030
0000
0000
0000
0001
0000
1000
0000
0001
0000
0000
0200
0000
0000
0000
0000
,
0000
0000
0300
0000
0010
0000
0000
0000
1000
0000
0000
0020
0000
0000
0000
0000
,
0000
0000
0030
0000
0000
1000
0002
0000
,
0013
0000
0200
0000
0310
0002
0000
2003
,
0000
0000
0000
0000
3000
0010
0200
0000
,
0302
0000
0203
0000
0310
2000
0000
3002
,
0000
0023
0000
0032
0000
1003
0020
0000
,
0130
0000
0002
0000
1003
0200
0000
0320
,
0000
0000
0030
0000
0100
2000
0000
3000
,
0001
0200
0000
0300
0001
1000
0000
0100
,
0000
0020
0000
0130
0000
1000
0002
0000
,
0103
0000
0020
0000
0130
0002
0000
2003
,
0000
0000
0000
0000
3000
0001
0020
0000
,
0130
0000
0020
0000
0031
2000
0000
3020
,
0000
2030
0000
3002
0000
0013
0100
0000
,
0000
0010
0000
0000
0001
0000
0000
1000
,
0000
0001
0200
0000
0320
0000
2030
0000
,
0000
0000
3000
0000
0001
0040
0000
0030
,
0001
2000
0000
0000
3001
0020
0000
0230
,
0000
0000
0300
2000
,
0000
3002
0000
0203
,
0310
2000
0000
3002
0000
0000
0013
0200
,
0000
1300
0002
0000
1003
0020
0000
0230
,
0000
0000
0000
0000
0301
2000
0000
0000
,
3001
0020
0000
0000
0000
0000
0230
0000
,
0310
0002
0000
2003
0000
0000
3001
0200
,
0000
0310
2000
0000
3001
0020
0000
0032
,
0000
0000
0000
0000
1003
0200
0000
0000
,
0000
0000
0000
0000
,
0000
0000
0300
0000
;

//---------------dance-single - Ace Of Arrows (2019)----------------
#NOTES:
     dance-single:
     Ace Of Arrows (2019):
     Easy:
     4:
     0.248,0.000,0.000,0.258,0.000:
0000
0000
0000
0000
,
0000
0000
0000
0000
,
0000
0000
0000
0000
,
0000
0000
0000
0000
,
0000
0000
0000
0000
,
0001
0000
0001
0000
0001
0000
0000
0002
,
0000
0000
0000
0000
0000
0003
0000
0000
,
1000
0000
1000
0000
1000
0000
0000
0010
,
0000
0010
0000
0010
0000
0000
0000
0000
,
0100
0000
0000
0100
0000
0000
0100
0000
,
0000
0100
0000
0000
0001
0000
0001
0000
,
0002
0000
0000
0000
0003
0000
0000
1000
,
0000
0000
0000
1000
0000
0000
0000
2000
,
0000
0000
3000
0000
,
0001
0000
0001
0000
,
0010
0000
0010
0000
,
0020
0000
0030
0000
,
0100
0000
0100
0000
,
1000
0000
1000
0000
,
0001
0000
0000
0001
0000
0000
0000
0002
,
0000
0000
0003
0000
,
0000
0000
0000
0010
0000
0000
0000
0010
,
0000
0000
0000
0020
0000
0000
0000
0000
,
0030
0000
0000
0100
0000
0000
0000
0100
,
0000
1000
1000
4000
,
3000
0000
0000
0001
0000
0000
0000
0001
,
0000
0000
0000
0001
0000
0000
1000
0000
,
1000
0000
1000
0000
1000
0000
0000
0100
,
0000
0200
0000
0000
,
0300
0000
0000
0010
0000
0000
0000
0010
,
0000
0000
0000
0020
0000
0000
0000
0000
,
0030
0000
0000
0001
0000
0000
0000
0001
,
0000
1000
1000
2000
,
3000
0000
0000
0010
0000
0010
0000
0010
,
0000
0000
0000
0100
0000
0000
0100
0000
,
0100
0000
0000
0001
0000
0000
0002
0000
,
0000
0000
0003
0000
,
1000
0000
0000
1000
0000
0000
2000
0000
,
0000
0000
3000
0000
,
0100
0000
0000
0100
0000
0000
0200
0000
,
0000
0000
0300
0000
,
0010
0000
0000
0010
0000
0000
0010
0000
,
0000
0001
0001
0001
,
0002
0000
0003
0000
,
1000
0000
0000
1000
0000
1000
0000
2000
,
0000
0000
0000
3000
,
0000
0000
0010
0000
0010
0000
0000
0020
,
0000
0000
0000
0000
,
0030
0000
0000
0000
,
0100
0000
0100
0000
0100
0000
0000
0001
,
0000
0002
0000
0000
0000
0000
0003
0000
,
1000
0000
1000
0000
1000
0000
0000
0100
,
0000
0100
0000
0100
0000
0100
0000
0000
,
0010
0000
0010
0000
0010
0000
0000
0100
,
0000
0200
0000
0000
0300
0000
0000
1000
,
0000
0000
0000
1000
0000
0000
0000
0001
,
0000
0001
0000
0001
0000
0001
0000
0000
,
0100
0000
0100
0000
0100
0000
0000
0010
,
0000
0020
0000
0000
0000
0000
0030
0000
,
1000
0000
1000
0000
1000
0000
0000
0001
,
0000
0001
0000
0001
0000
0001
0000
0000
,
0010
0000
0000
0010
0000
0000
0010
0000
,
0000
0010
0000
0000
0100
0000
0100
0000
,
0200
0000
0000
0000
0300
0000
0000
1000
,
0000
0000
0000
1000
0000
0000
0000
0001
,
0000
0002
0000
0000
0000
0000
0003
0000
,
0100
0000
0100
0000
,
0200
0000
0300
0000
,
0010
0000
0010
0000
,
1000
0000
1000
0000
,
0001
0001
0001
0000
,
0010
0000
0010
0000
,
0001
0000
0001
0000
,
1000
0000
0000
1000
0000
0000
0000
2000
,
0000
0000
3000
0000
,
0000
0000
0000
0010
0000
0010
0000
0010
,
0000
0000
0000
0020
0000
0000
0000
0000
,
0030
0000
0000
0100
0000
0100
0000
0100
,
0000
0001
0001
0004
,
0003
0000
0000
1000
0000
1000
0000
1000
,
0000
0000
0000
0100
0000
0000
0100
0000
,
0100
0000
0100
0000
0100
0000
0000
1000
,
0000
2000
0000
0000
,
3000
0000
0000
0001
0000
0001
0000
0001
,
0000
0000
0000
0002
0000
0000
0000
0000
,
0003
0000
0000
0100
0000
0100
0000
0100
,
0000
0010
0010
0020
,
0030
0000
0000
1000
0000
1000
0000
2000
,
0000
3000
0000
0001
0000
0000
0001
0000
,
0001
0000
0000
0001
0000
0000
0002
0000
,
0000
0000
0003
0000
,
0010
0000
0000
0010
0000
0000
0020
0000
,
0000
0000
0030
0000
,
0100
0000
0000
0100
0000
0000
0200
0000
,
0000
0000
0300
0000
,
1000
0000
0000
1000
0000
0000
1000
0000
,
0000
0001
0001
0001
,
0002
0000
0003
0000
,
0100
0000
0000
0100
0000
0100
0000
0200
,
0000
0000
0000
0300
,
0000
0001
0000
0000
0001
0000
0000
0002
,
0000
0000
0000
0000
,
0003
0000
0000
0000
,
1000
0000
1000
0000
1000
0000
0000
0100
,
0000
0200
0000
0000
0000
0000
0300
0000
,
0010
0000
0010
0000
0010
0000
0000
0001
,
0000
0001
0000
0001
0000
0001
0000
0000
,
1000
0000
1000
0000
1000
0000
0000
0010
,
0000
0020
0000
0000
0030
0000
0000
0100
,
0000
0000
0000
0100
0000
0000
0000
0001
,
0000
0001
0000
0001
0000
0001
0000
0000
,
1000
0000
1000
0000
1000
0000
0000
0100
,
0000
0200
0000
0000
0000
0000
0300
0000
,
0010
0000
0010
0000
0010
0000
0000
0100
,
0000
0100
0000
0100
0000
0100
0000
0000
,
1000
0000
0000
1000
0000
0000
1000
0000
,
0000
1000
0000
0000
0001
0000
0001
0000
,
0002
0000
0000
0000
0003
0000
0000
0100
,
0000
0000
0000
0100
0000
0000
0000
0001
,
0000
0002
0000
0000
0000
0000
0003
0000
,
1000
0000
1000
0000
,
1000
0000
1000
0000
,
0001
0000
0001
0000
,
0002
0000
0000
0000
,
0003
0000
0000
0000
,
0100
0000
0100
0000
,
0010
0000
0010
0000
,
2000
0000
0000
0000
,
3000
0000
0001
0001
,
0002
0000
0003
0000
,
0010
0010
0010
0000
,
0100
0000
0100
0000
,
1000
1000
1000
0000
,
0002
0000
0003
0000
,
0100
0000
0100
0100
,
0200
0000
0000
0000
0300
0000
0000
0020
,
0000
0030
1000
1000
,
2000
0000
0000
0000
,
3000
0001
0002
0003
,
0010
0000
0000
0010
0000
0000
0020
0000
,
0000
0030
0100
0100
,
0200
0000
0000
0000
,
0300
1000
2000
3000
,
0001
0001
0002
0000
,
0003
0100
0100
0100
,
0200
0000
0000
0000
,
0300
0000
0001
0000
0001
0000
0000
0002
,
0000
0000
0000
0000
,
0003
0000
2000
0000
,
3000
0000
0010
0010
0010
0000
0200
0000
,
0000
0300
0001
0000
0001
0000
0001
0000
,
0000
0000
1000
1000
1000
0000
0200
0000
,
0000
0300
0010
0000
0010
0000
0020
0000
,
0030
0000
0000
0001
,
0001
0000
0001
0000
0000
0002
0000
0000
,
0000
0003
0000
1000
,
1000
0000
1000
0000
0000
0010
0000
0010
,
0000
0010
0000
0010
0000
0000
0100
0000
,
0100
0000
0100
0000
0000
0001
0000
0002
,
0000
0000
0003
0000
0000
1000
0000
0000
,
0000
1000
0000
0000
0000
0100
0000
0100
,
0000
0100
0000
0100
0000
0000
0010
0000
,
0010
0000
0010
0000
0000
0100
0000
0200
,
0000
0000
0300
1000
,
1000
0000
1000
0000
0000
0001
0000
0001
,
0000
0001
0000
0001
0000
0000
0100
0000
,
0000
0100
0000
0000
0100
0000
0000
0100
,
0000
0010
0010
0020
,
0000
0000
0030
0000
0000
1000
0000
0000
,
0000
1000
0000
0000
0000
0001
0000
0002
,
0000
0000
0003
0010
,
0000
0010
0000
0020
,
0000
0000
0000
0000
,
0030
0000
0100
0000
0000
0100
0000
0200
,
0000
0000
0000
0300
0000
2000
0000
0000
,
0000
0000
0000
3000
0000
0000
0001
0000
,
0000
0001
0000
0000
0000
0000
1000
0000
,
0000
0000
1000
0000
0000
0010
0000
0020
,
0000
0000
0000
0030
0000
0200
0000
0000
,
0000
0000
0000
0000
,
0000
0000
0300
0000
;

//---------------dance-single - Ace Of Arrows (2019)----------------
#NOTES:
     dance-single:
     Ace Of Arrows (2019):
     Beginner:
     1:
     0.185,0.000,0.000,0.363,0.000:
0000
0000
0000
0000
,
0000
0000
0000
0000
,
0000
0000
0000
0000
,
0000
0000
0000
0000
,
0000
0000
0000
0000
,
1000
0000
1000
0000
,
2000
0000
3000
0000
,
0001
0000
0001
0000
,
0002
0000
0003
0000
,
0200
0000
0300
0000
,
0010
0000
0010
0000
,
0020
0000
0030
0000
,
2000
0000
3000
0000
,
0001
0000
0001
0000
,
0002
0000
0003
0000
,
0010
0000
0010
0000
,
0020
0000
0030
0000
,
0100
0000
0100
0000
,
0200
0000
0300
0000
,
1000
0000
1000
0000
,
2000
0000
3000
0000
,
0000
0000
0001
0000
,
0002
0000
0003
0000
,
0000
0000
0100
0000
,
0200
0000
0300
0000
,
0000
0000
0010
0000
,
0020
0000
0030
0000
,
1000
0000
1000
0000
,
2000
0000
0000
0000
,
3000
0000
0001
0000
,
0002
0000
0003
0000
,
0000
0000
0010
0000
,
0010
0000
0020
0000
,
0030
0000
0100
0000
,
0200
0000
0300
0000
,
1000
0000
1000
0000
,
2000
0000
3000
0000
,
0001
0000
0001
0000
,
0002
0000
0003
0000
,
0100
0000
0100
0000
,
0200
0000
0300
0000
,
0010
0000
0010
0000
,
0010
0000
0000
0000
,
2000
0000
3000
0000
,
0001
0000
0001
0000
,
0002
0000
0000
0000
,
0003
0000
0010
0000
,
0020
0000
0000
0000
,
0030
0000
0000
0000
,
0100
0000
0100
0000
,
0200
0000
0300
0000
,
1000
0000
1000
0000
,
2000
0000
3000
0000
,
0001
0000
0001
0000
,
0002
0000
0003
0000
,
1000
0000
1000
0000
,
2000
0000
3000
0000
,
0010
0000
0010
0000
,
0020
0000
0030
0000
,
0100
0000
0100
0000
,
0200
0000
0300
0000
,
0002
0000
0003
0000
,
1000
0000
1000
0000
,
2000
0000
3000
0000
,
0100
0000
0100
0000
,
0200
0000
0300
0000
,
0020
0000
0030
0000
,
0001
0000
0001
0000
,
0002
0000
0003
0000
,
1000
0000
1000
0000
,
2000
0000
3000
0000
,
0001
0000
0001
0000
,
0002
0000
0003
0000
,
0100
0000
0100
0000
,
0200
0000
0300
0000
,
0000
0000
0010
0000
,
0020
0000
0030
0000
,
0000
0000
1000
0000
,
2000
0000
3000
0000
,
0000
0000
0001
0000
,
0002
0000
0003
0000
,
1000
0000
1000
0000
,
2000
0000
0000
0000
,
3000
0000
0100
0000
,
0200
0000
0300
0000
,
0000
0000
0010
0000
,
0020
0000
0030
0000
,
0000
0000
0001
0000
,
0002
0000
0003
0000
,
0010
0000
0010
0000
,
0020
0000
0030
0000
,
0100
0000
0100
0000
,
0200
0000
0300
0000
,
1000
0000
1000
0000
,
2000
0000
3000
0000
,
0001
0000
0001
0000
,
0001
0000
0000
0000
,
0200
0000
0300
0000
,
0001
0000
0001
0000
,
0002
0000
0003
0000
,
0000
0000
1000
0000
,
2000
0000
0000
0000
,
3000
0000
0000
0000
,
0100
0000
0100
0000
,
0200
0000
0300
0000
,
0010
0000
0010
0000
,
0020
0000
0030
0000
,
0001
0000
0001
0000
,
0002
0000
0003
0000
,
1000
0000
1000
0000
,
2000
0000
3000
0000
,
0010
0000
0010
0000
,
0020
0000
0030
0000
,
0100
0000
0100
0000
,
0200
0000
0300
0000
,
0002
0000
0003
0000
,
1000
0000
1000
0000
,
2000
0000
3000
0000
,
0100
0000
0100
0000
,
0200
0000
0300
0000
,
0020
0000
0030
0000
,
0001
0000
0001
0000
,
0002
0000
0003
0000
,
1000
0000
1000
0000
,
2000
0000
3000
0000
,
0010
0000
0010
0000
,
0020
0000
0030
0000
,
0100
0000
0100
0000
,
0200
0000
0300
0000
,
0002
0000
0003
0000
,
2000
0000
3000
0000
,
0010
0000
0010
0000
,
0020
0000
0030
0000
,
0200
0000
0300
0000
,
0001
0000
0001
0000
,
0002
0000
0003
0000
,
2000
0000
3000
0000
,
0200
0000
0000
0000
,
0300
0000
0000
0000
,
0010
0000
0010
0000
,
0020
0000
0030
0000
,
0002
0000
0003
0000
,
0000
0000
1000
0000
,
1000
0000
2000
0000
,
3000
0000
0010
0000
,
0020
0000
0000
0000
,
0030
0000
0100
0000
,
0200
0000
0000
0000
,
0300
0000
0000
0000
,
0000
0001
0001
0002
,
0003
1000
1000
2000
,
3000
0100
0100
0200
,
0300
0010
0010
0020
,
0030
0000
0000
0001
,
0000
0001
0000
0002
,
0000
0003
0000
1000
,
0000
1000
0000
2000
,
0000
3000
0000
0010
,
0000
0010
0000
0020
,
0000
0030
0000
0100
,
0000
0100
0000
0200
,
0000
0300
0000
0001
,
0000
0001
0000
0002
,
0000
0003
0000
1000
,
0000
1000
0000
2000
,
0000
3000
0000
0200
,
0000
0300
0000
0010
,
0000
0010
0000
0020
,
0000
0030
0000
0001
,
0000
0001
0000
0002
,
0000
0003
0000
2000
,
0000
3000
0000
0010
,
0000
0010
0000
0020
,
0000
0030
0000
1000
,
0000
1000
0000
2000
,
0000
3000
0000
0001
,
0000
0001
0000
0002
,
0000
0003
0000
0100
,
0000
0100
0000
0200
,
0000
0000
0000
0000
,
0000
0000
0300
0000
;
