#TITLE:Africa;
#SUBTITLE:;
#ARTIST:Toto;
#TITLETRANSLIT:;
#SUBTITLETRANSLIT:;
#ARTISTTRANSLIT:;
#GENRE:;
#CREDIT:Ace Of Arrows;
#BANNER:Africa - Bn.png;
#BACKGROUND:Africa - Bg.jpg;
#LYRICSPATH:;
#CDTITLE:Ace Of Arrows.png;
#MUSIC:Africa.ogg;
#OFFSET:2.427;
#SAMPLESTART:86.800;
#SAMPLELENGTH:12.000;
#SELECTABLE:YES;
#BPMS:0.000=92.700,278.000=92.450;
#STOPS:;
#BGCHANGES:;
#KEYSOUNDS:;

//---------------dance-single - Ace Of Arrows (2019)----------------
#NOTES:
     dance-single:
     Ace Of Arrows (2019):
     Hard:
     8:
     0.432,0.000,0.064,0.858,0.468: // measure 1
0000
0000
0000
0000
,  // measure 2
0000
0000
0000
0000
,  // measure 3
0000
0000
0000
0000
,  // measure 4
0000
0000
0000
0000
,  // measure 5
0000
0000
0000
0000
,  // measure 6
2000
0000
0000
3001
0000
0010
0000
0001
1000
0000
0010
0000
0200
0000
0304
4000
,  // measure 7
0000
0000
0000
0000
0000
0000
0000
3003
,  // measure 8
2000
0000
0000
3100
0000
0010
0000
0001
0010
0000
0100
0000
2000
0000
3004
0040
,  // measure 9
0000
0000
0000
0000
0000
0000
0000
0033
,  // measure 10
0020
0000
0000
0130
0000
1000
0000
0001
0100
0000
0001
0000
2000
0000
3040
4000
,  // measure 11
0000
0000
0000
0000
0000
0000
0000
3030
,  // measure 12
2000
0000
0000
3001
0000
0100
0000
0010
1000
0000
0001
0000
0020
0000
0430
4000
,  // measure 13
0000
0000
0000
0000
0000
0000
0000
3300
,  // measure 14
0000
1000
0001
1000
0200
0000
0000
0000
0310
0002
0000
0000
2003
0000
3100
0020
,  // measure 15
0000
0000
0030
0000
0000
0000
0000
0000
0002
0000
0000
0000
2003
0000
3010
0100
,  // measure 16
0000
0002
0000
0000
1003
0000
0100
0000
0010
0001
0000
0000
2000
0000
3100
0020
,  // measure 17
0000
0000
0000
0000
0000
0031
1000
0000
0002
0000
0000
1003
0000
0010
0000
0100
,  // measure 18
0010
0000
1000
0000
0002
0000
0000
0000
0023
0000
0130
0000
1000
0001
0000
0200
,  // measure 19
0000
0000
0310
0000
1000
0001
0000
0020
0000
0000
0030
0000
0000
0000
0000
0001
,  // measure 20
0010
0001
0000
2000
0000
0000
3010
0000
0100
0000
0001
2000
0000
0000
3100
0000
,  // measure 21
0020
0000
0031
2000
0000
0000
3010
0000
0200
0000
0000
0000
0000
0301
2000
0000
,  // measure 22
3200
0000
0000
0310
0000
0001
0000
1000
0010
0000
1000
0000
0002
0000
0000
0000
,  // measure 23
0023
0000
0130
0000
1000
0000
0001
0100
0000
0020
0000
0130
0002
0000
1003
0020
,  // measure 24
0000
0000
0030
0000
0000
0000
0000
0000
1000
0001
1000
0200
0000
0000
0310
0000
,  // measure 25
0002
0000
1003
0020
0000
1030
0002
0000
0000
0003
0000
0010
0200
0000
1300
0000
,  // measure 26
0002
0000
0000
0000
0000
0103
0020
0000
2030
0000
0000
3001
0000
1000
0000
0001
,  // measure 27
0100
0000
0010
0000
2000
0000
0000
0000
3002
0000
0013
0200
0000
2300
0000
3002
,  // measure 28
0000
2003
0000
3020
0000
0230
0000
0302
0000
0000
0000
0000
0003
0000
0000
0000
,  // measure 29
1000
0100
0000
0020
0000
0000
0130
0000
1000
0001
0000
2000
0000
3010
0200
0000
,  // measure 30
0000
0000
0000
0000
0300
0000
0000
0000
0001
0000
0000
1000
0100
0000
0000
1000
,  // measure 31
0001
0000
1000
0000
0010
0000
0100
0000
0002
0000
1003
0100
2000
0000
3001
0010
,  // measure 32
0000
0000
0001
2000
0000
3100
0010
0200
0000
0000
0000
0000
0000
0000
1300
0002
,  // measure 33
0000
0000
0000
0000
0000
0000
0003
0000
0000
0000
2000
0000
3001
0010
0001
0010
,  // measure 34
0001
1000
0000
0020
0000
0230
0000
0302
0000
0000
0000
1003
0100
2000
0000
3002
,  // measure 35
0000
0000
0000
0000
0000
0000
0003
0000
0000
0000
1000
0000
0010
0000
1000
0002
,  // measure 36
0000
0000
0000
0000
0013
0000
0100
2000
0000
0000
0000
0000
0000
0000
3001
0200
,  // measure 37
0000
0000
0000
0000
0000
0000
0300
0000
0000
0000
0010
0100
0010
0000
1000
0002
,  // measure 38
0000
0000
1003
0200
0000
0320
0000
0000
0032
0000
1003
0020
0000
2030
0000
0000
,  // measure 39
3002
0000
0000
0000
0000
0013
0200
0000
2300
0000
0000
0000
0000
3001
0200
0000
,  // measure 40
0320
0000
0000
0130
0000
0002
0000
0000
2003
0000
0000
3010
0000
0100
0000
0001
,  // measure 41
1000
0000
0100
0000
2000
0000
3004
0400
0000
0000
0000
0000
0000
0000
0000
0000
,  // measure 42
0000
0000
0000
0000
0000
0000
0303
0000
0200
0000
0000
0310
0000
1000
0000
0010
,  // measure 43
1000
0000
0001
0000
0020
0000
0430
4000
0000
0000
0000
0000
0000
0000
0000
0000
,  // measure 44
0000
0000
0000
0000
0000
0000
3300
0000
0000
1000
0001
0000
0021
0000
0000
0000
,  // measure 45
0130
2000
0000
0000
3002
0000
0103
0020
0000
0000
0030
0000
0000
0000
2000
0000
,  // measure 46
3001
0020
0000
0130
0000
2000
0000
0000
3001
0200
0000
0000
0310
0000
1000
0000
,  // measure 47
0002
0000
0013
0200
0000
2300
0000
3000
1002
0000
0000
0000
0000
0000
0103
0020
,  // measure 48
0000
0000
0000
1030
0000
0001
0000
1000
0100
0000
0010
0000
0002
0000
0000
0000
,  // measure 49
2003
0000
3010
0200
0000
0301
0000
1000
0000
0001
0000
0010
0000
0100
0000
2200
,  // measure 50
0000
0000
3300
0000
2000
0000
3001
0000
1000
0010
1000
0020
0000
0230
0000
0300
,  // measure 51
0102
0000
1003
0000
0001
0000
0100
0020
0000
2030
0000
3001
0020
0000
0130
0000
,  // measure 52
2100
0000
0000
0000
0000
3001
0010
0002
0000
0000
0000
1003
0000
0010
0000
0100
,  // measure 53
0001
0000
0100
0000
0020
0000
0000
0000
2030
0000
3002
0000
0023
0000
0130
2000
,  // measure 54
0000
3001
0000
0200
0000
0320
0000
0000
0230
0000
0000
0000
0300
0000
0000
0000
,  // measure 55
0001
2000
0000
3200
0000
0000
0310
0000
0200
0000
1300
0001
0000
1000
0020
0000
,  // measure 56
0130
0001
2000
0000
3000
0000
0000
0000
,  // measure 57
1001
0000
0000
0001
0010
0000
0100
0000
2000
0000
3001
0100
0002
0000
1003
0200
,  // measure 58
0000
0000
0310
0002
0000
1003
0001
2000
0000
0000
0000
0000
0000
0000
3010
0200
,  // measure 59
0000
0000
0000
0000
0000
0000
0300
0000
0000
0000
0002
0000
1003
0010
1000
0010
,  // measure 60
1000
0002
0000
0023
0000
0230
0000
2300
0000
0000
0000
3001
1000
0002
0000
0023
,  // measure 61
0000
0000
0000
0000
0000
0000
0030
0000
0000
0000
0100
0000
1000
0000
0001
0200
,  // measure 62
0000
0000
0000
0000
0310
0000
1000
0002
0000
0000
0000
0000
0000
0000
1003
0020
,  // measure 63
0000
0000
0000
0000
0000
0000
0030
0000
0000
0000
1000
0001
2000
0000
3100
0020
,  // measure 64
0000
0000
0130
2000
0000
3002
0000
0000
0203
0000
0310
2000
0000
3002
0000
0003
,  // measure 65
0021
0000
0000
0000
0000
0130
2000
0000
3002
0000
0000
0000
0000
0103
0020
0030
,  // measure 66
2010
0000
0000
3001
0000
0020
0000
0030
0210
0000
0000
1300
0000
0001
0000
0100
,  // measure 67
0010
0000
1000
0000
0002
0000
0043
0400
0000
0000
0000
0000
0000
0000
0000
0000
,  // measure 68
0000
0000
0000
0000
0000
0000
0330
0000
0200
0000
0000
1300
0000
0001
0000
1000
,  // measure 69
0100
0000
0010
0000
0002
0000
4003
0004
0000
0000
0000
0000
0000
0000
0000
0000
,  // measure 70
0000
0000
0000
0000
0000
0000
3003
0000
0000
0001
0200
0000
0310
0000
1000
0001
,  // measure 71
0000
0001
1000
0000
0100
0010
0100
0000
2000
0000
3001
0100
0000
0100
0020
0000
,  // measure 72
0000
0000
4030
0000
0000
0000
3000
0000
0000
0001
0020
0000
0230
0000
1300
0001
,  // measure 73
2000
0000
0000
0000
0000
0000
0000
0000
0000
3010
0000
0000
0000
0000
0100
0000
0000
0000
0000
0000
0010
0000
0000
0000
0100
0000
0000
0002
0000
0000
0000
0000
2003
0000
0000
0000
3200
0000
0000
0000
0320
0000
0000
0000
0032
0000
0000
0000
,  // measure 74
2003
0000
0000
3010
0000
0100
0000
0010
1000
0000
0001
0000
0020
0000
0000
0000
,  // measure 75
0032
0000
1003
0010
2000
0000
3001
0010
0002
0000
1003
0010
0000
0100
0000
0002
,  // measure 76
0000
0000
0000
0000
0000
0000
0000
0000
1003
0100
0000
0020
0000
0000
0130
0000
,  // measure 77
1000
0002
0000
0203
0000
0310
2000
0000
3001
0000
0010
0000
0210
0000
0000
0000
,  // measure 78
0300
0000
0000
0000
2000
0000
0000
0000
3002
0000
0000
1003
0010
0000
0100
0000
,  // measure 79
0002
0000
1003
0100
2000
0000
3001
0200
0000
0000
0310
2000
0000
3001
0010
0002
,  // measure 80
0000
0000
0000
0000
0000
0000
1003
0020
0000
0000
0000
0000
0000
0000
0030
0000
,  // measure 81
0000
0000
2000
0000
3001
0010
0100
1000
0100
0020
0000
0032
0000
2003
0000
3020
,  // measure 82
0000
0000
0000
0130
0001
0200
0000
0320
0000
0000
0000
0000
0000
0000
0030
0000
,  // measure 83
0000
0000
2000
0000
3001
0000
0010
0200
0000
0000
0000
0000
2300
0000
3001
0200
,  // measure 84
0000
0000
0000
0000
0000
0000
0310
2000
0000
0000
0000
0000
0000
0000
3000
0000
,  // measure 85
1002
0000
0023
0000
0130
0000
1000
0002
0000
0000
0000
0000
2003
0000
3010
0200
,  // measure 86
0000
0000
0000
0000
0000
0000
0301
2000
0000
3200
0000
0000
0320
0000
0031
2000
,  // measure 87
0000
0000
3020
0000
0130
0000
0001
2000
0000
0000
0000
0000
3200
0000
0310
0002
,  // measure 88
0000
0000
0000
0000
0000
0000
1003
0200
0000
0000
0000
0000
0000
0000
0300
0000
,  // measure 89
0120
0000
0032
0000
1003
0000
0010
0200
0000
0000
0000
0000
0302
0000
1003
0200
,  // measure 90
0000
0000
0000
0000
0000
0000
0310
0002
0000
0000
0000
0000
0000
0000
0003
0000
,  // measure 91
2001
0000
3020
0000
0130
0000
0001
0200
0000
0000
0000
0000
0320
0000
1030
0002
,  // measure 92
0000
0000
0000
0000
0000
0000
0013
0100
0020
0000
0031
2000
0000
3020
0000
0000
,  // measure 93
0030
0000
1000
0001
2000
0000
3100
0020
0000
0000
0031
2000
0000
3020
0000
0000
,  // measure 94
0230
0000
0301
2000
0000
3200
0000
0300
0120
0000
0000
0000
0000
0031
2000
3000
,  // measure 95
1020
0000
0000
0000
0000
0130
0002
0003
2001
0000
0000
3100
0000
0020
0000
0030
,  // measure 96
0012
0000
0000
1003
0000
0010
0000
1000
0001
0000
0010
0000
0200
0000
4300
0004
,  // measure 97
0000
0000
0000
0000
0000
0000
0000
3003
,  // measure 98
0201
0000
0000
0310
0000
1000
0000
0001
0010
0000
0001
0000
2000
0000
3004
0400
,  // measure 99
0000
0000
0000
0000
0000
0000
0000
0303
,  // measure 100
0200
0000
0000
0310
0000
1000
0000
0001
1000
0000
0100
0000
0020
0000
0430
4000
,  // measure 101
0000
0000
0000
0000
0000
0000
0000
3300
,  // measure 102
2000
0000
0000
3001
0000
0100
0000
0010
0100
0000
0001
0000
2000
0000
3004
0040
,  // measure 103
0000
0000
0000
0000
0000
0000
0000
0033
,  // measure 104
0020
0000
0000
0130
0000
1000
0000
0001
1000
0000
0010
0000
0200
0000
0340
4000
,  // measure 105
0000
0000
0000
0000
0000
0000
0000
3030
,  // measure 106
2000
0000
0000
3001
0000
0010
0000
0100
0010
0000
0001
0000
0020
0000
0034
4000
,  // measure 107
0000
0000
0000
0000
0000
0000
0000
3003
,  // measure 108
2002
0000
0000
3003
;

//---------------dance-single - Ace Of Arrows (2019)----------------
#NOTES:
     dance-single:
     Ace Of Arrows (2019):
     Challenge:
     10:
     0.639,0.000,0.402,0.889,0.721:
0000
0000
0000
0000
,
0000
0000
0000
0000
,
0000
0000
0000
0000
,
0000
0000
0000
0000
,
0000
0000
0000
0000
,
0201
0000
0000
0310
0000
1000
0000
0001
0010
0000
0100
0000
2100
0000
3001
0100
,
0010
1000
0010
0100
0001
1000
0001
0010
0100
1000
0100
0010
0001
1000
0001
0000
,
0201
0000
0000
0310
0000
1000
0000
0001
0100
0000
0010
0000
2010
0000
3001
0010
,
0100
1000
0100
0010
0001
1000
0001
0100
0010
0100
0001
1000
0001
0010
0100
0000
,
2100
0000
0000
3001
0000
0100
0000
0010
1000
0000
0001
0000
0021
0000
0130
1000
,
0001
0100
0010
0100
0001
1000
0010
0100
0010
1000
0001
0010
0100
1000
0100
0000
,
0120
0000
0000
0031
0000
1000
0000
0010
0100
0000
0001
0000
2001
0000
3100
0010
,
0001
1000
0001
0100
0001
1000
0010
1000
0001
0010
0100
0010
0001
1000
0001
0000
,
0201
0310
0100
0001
2000
0000
0000
0000
3001
0020
0000
0000
0230
0000
1300
0002
,
0000
0000
0000
1003
0010
0000
0000
0000
0210
0000
0000
0000
0302
0000
1003
0100
,
0000
0020
0000
0000
0130
0000
2000
0000
3001
0100
0000
0000
0020
0000
0130
0002
,
0000
0000
0000
0000
0000
1003
0100
0000
0020
0000
0000
0130
0000
1000
0000
0001
,
0100
0000
0010
0000
2010
0000
0000
0000
3002
0000
0023
0000
0130
2000
0000
3002
,
0000
0000
0103
0000
0010
2000
3000
2002
0000
0000
3003
0001
0020
0000
0000
0130
,
1000
0001
0000
0200
0000
0000
0310
0000
1000
0000
0001
0020
0000
0000
0130
0000
,
2000
0000
3001
0200
0000
0000
0310
0000
2010
0000
0000
0000
0000
3001
0010
0000
,
0210
0000
0000
1300
0000
0001
0000
0100
0010
0000
1000
0000
1002
0000
0000
0000
,
0023
0000
0230
0000
1300
0000
0001
0100
0000
0020
0000
0130
0002
0000
1003
0200
,
0000
0000
0000
0310
0001
0000
0000
0000
1000
0100
0010
0002
0000
0000
1003
0000
,
1020
0000
0130
0002
0000
1003
0200
0000
0000
0300
0000
0010
0200
0000
1300
0000
,
1002
0000
0000
0000
0000
1003
0010
0000
0210
0000
0000
0301
0000
1000
0000
0100
,
0010
0000
0100
0000
2100
0000
0000
0000
3002
0000
0103
0020
0000
1030
0000
0002
,
0000
0023
0000
0230
0000
2300
3000
1002
0000
0000
0000
0103
0010
0000
0000
0000
,
1000
0001
0000
0021
0000
0000
0130
0000
1000
0001
0000
0201
0000
0310
1000
0001
,
0010
0000
0100
0000
2100
0000
3000
0000
1002
0000
0000
0103
0010
0000
0000
1000
,
0001
0000
0011
0000
0110
0000
0100
1000
0200
0000
0310
0100
0020
0000
0031
2000
,
0000
0000
3001
0200
0000
0310
0100
0020
0000
0000
0000
0000
0000
0000
1030
0002
,
0000
0000
0000
0013
0100
1000
0100
0000
0120
0000
0032
0000
1003
0010
0100
0001
,
0100
0020
0000
2030
0000
3001
0000
0021
0000
0000
0000
0130
1000
0002
0000
0203
,
0000
0000
0000
0310
1000
0001
0010
0000
0210
0000
1300
0000
1001
0000
0001
0200
,
0000
0000
0000
0000
0310
0000
1000
1002
0000
0000
0000
0000
0000
0000
0013
0200
,
0000
0000
0000
1300
0001
0100
0010
0000
2010
0000
3001
0010
0001
0000
1000
0020
,
0000
0000
0130
0002
0000
2003
0000
3000
1200
0000
0310
0002
0000
2003
0000
3000
,
1020
0000
0000
0000
0000
0130
0001
0000
2001
0000
0000
0000
0000
3100
0010
0000
,
0012
0000
0000
1003
0010
0200
0000
0300
0102
0000
1003
0100
0000
0010
0000
0100
,
1000
0000
0001
0000
0201
0000
0310
1000
0001
0010
0001
1000
0010
1000
0001
0010
,
0001
1000
0100
0010
0001
0010
0100
0000
2100
0000
0000
3001
0000
0100
0000
0010
,
1000
0000
0001
0000
0021
0000
0130
1000
0001
0010
0001
1000
0010
1000
0001
0010
,
0100
1000
0100
0010
0001
1000
0001
0000
0201
0310
1000
0001
0020
0000
0000
0030
,
0110
0200
0000
0000
2300
0000
3001
0200
0000
0000
0000
0300
0000
0000
0020
0000
,
1030
0001
0000
0021
0000
0230
0000
0300
1100
2000
0000
0000
3002
0000
0203
0300
,
0120
0000
1030
0002
0000
2003
0000
3000
1200
0000
0000
0000
0000
0000
0310
0012
,
0000
0000
1003
0010
0000
0100
0000
0010
1000
0000
0001
0000
0201
0000
0000
0000
,
0320
0000
1030
1002
0000
0013
0000
0210
0000
1300
0000
0002
0000
0103
0000
0220
,
0000
0000
0330
0010
2000
0000
3002
0000
1003
0100
1000
0002
0000
0203
0000
0300
,
0120
0000
1030
0000
0001
0000
0010
0200
0000
1300
0000
0001
0200
0000
0310
0000
,
2010
0000
0000
0000
0000
3001
0100
0020
0000
0000
1030
0001
0000
0010
0000
0100
,
1000
0000
0001
0000
0201
0000
0000
0000
0320
0000
1030
0000
1001
0000
0001
0020
,
0000
0130
0000
2100
0000
3002
0000
0003
0202
0000
0003
0310
2000
0000
3000
0000
,
1001
0002
0000
0023
0000
0000
0130
0000
2100
0000
3001
0200
0000
0310
2000
0000
,
3001
0000
0100
0000
0120
0000
0000
0000
1030
0000
0001
0010
0001
0000
1000
0100
,
1000
0000
0000
0001
0100
0000
0010
0000
2010
3001
0010
0001
2000
0000
3010
0200
,
0000
0000
0301
2000
0000
3010
0100
0020
0000
0000
0000
0000
0000
0000
1030
0002
,
0000
0000
0000
0013
0100
1000
0001
0000
0201
0000
0320
0000
1030
0001
0010
0001
,
1000
0020
0000
0230
0000
0302
0003
2001
0000
0000
0000
3100
0010
0002
0003
2001
,
0000
0000
0000
3010
0100
0001
1000
0000
1200
0000
0310
0000
0011
0000
0001
2000
,
0000
0000
0000
0000
3020
0000
0130
0102
0000
0000
0000
0000
0000
0000
1003
0200
,
0000
0000
0000
0310
0100
1000
0001
0000
0201
0000
0310
1000
0002
0000
0013
0200
,
0000
0000
1300
0002
0000
0203
0000
0300
0120
0000
1030
0002
0000
0023
0000
0030
,
0210
0000
0000
0000
0000
1300
0001
0000
0201
0000
0000
0000
0000
0310
1000
0000
,
1002
0000
0000
0103
0010
2000
0000
3000
1002
0000
0000
0013
0000
0100
0000
1000
,
0001
0000
0100
0000
0120
0000
1030
0001
0100
0010
1000
0010
0100
0001
1000
0100
,
0010
0001
1000
0001
0100
0001
1000
0000
1200
0000
0000
0310
0000
0001
0000
1000
,
0010
0000
0100
0000
0102
0000
1003
0100
0010
0001
0010
0100
1000
0001
1000
0010
,
0100
0001
0100
0010
1000
0001
0010
0000
0210
1300
0001
0100
0010
0100
0001
1000
,
0000
0001
0010
0001
1000
0010
0100
0001
1000
0100
0010
0001
0000
1000
0002
0000
,
0000
0000
0000
0000
0000
0000
1003
0000
0100
0000
0010
0000
0001
0000
0000
1000
0000
0000
0020
0000
0000
0000
0000
0000
2030
0000
0000
3001
0000
0000
0010
0000
0000
0100
0000
0000
0010
0000
0000
0001
0000
0000
1000
0000
0000
0010
0000
0000
,
0100
0000
0000
0000
0002
0000
0000
0000
0000
1003
0000
0000
0000
0000
0002
0000
0000
0000
0000
0000
0023
0000
0000
0000
0130
0000
0000
2000
0000
0000
0000
0000
3002
0000
0000
0000
0203
0000
0000
0000
0320
0000
0000
0000
2030
0000
0000
0000
,
3002
0000
1003
0100
0000
0010
0000
0100
1000
0000
0001
0000
0201
0000
0000
0000
,
0310
0000
1000
0000
0001
0000
0010
0000
0100
0000
1000
0000
0100
0000
0010
0000
0001
0000
1000
0000
0001
0000
1000
0100
0000
0000
0010
0001
0000
0000
2000
0000
,
0000
0000
0000
0000
0000
0000
0000
0000
3001
0100
0000
0120
0000
0000
1030
0000
,
1001
0002
0000
0013
0000
0100
1000
0001
0200
0000
0310
0000
2010
0000
0000
0000
,
0000
0000
0000
0000
3002
0000
0003
0000
0011
0000
0000
0010
0100
0000
1000
0000
,
1002
0013
0100
1000
0002
0000
1003
0020
0000
0000
0130
0002
0000
1003
0100
2000
,
0000
0000
0000
0000
0000
0000
3001
0200
0000
0000
0000
0310
1000
0001
0010
0000
,
0210
0000
2300
0000
3001
0100
0010
1000
0010
0200
0000
0302
0000
2003
3000
1200
,
0000
0000
0000
0310
0001
2000
3000
0020
0000
0000
0000
0130
0001
1000
0100
0000
,
0120
0000
0031
0000
1001
0000
1000
0020
0000
0000
0000
0000
0230
0000
0301
2001
,
0000
0000
0000
0000
0000
0000
3100
0020
0000
0000
0000
0031
1000
0010
0100
0000
,
0102
0000
1003
0000
1100
0000
0100
0020
0000
0000
0000
0000
0032
0000
1003
1020
,
0000
0000
0000
0000
0000
0000
0130
0002
0000
2003
0000
0000
3200
0000
0310
0001
,
2001
0000
3010
0000
0110
0000
0100
0002
0000
0000
0000
0000
2003
0000
3100
0120
,
0000
0000
0000
0000
0000
0000
0031
2000
0000
0000
0000
3010
0100
0001
1000
0000
,
1002
0000
0013
0000
0110
0000
0100
2000
0000
0000
0000
0000
3002
0000
1003
1020
,
0000
0000
0000
0000
0000
0000
0130
0002
0000
0000
1003
0100
0010
0200
0000
0300
,
2100
0000
3001
0000
0101
0000
0100
0020
0000
0000
0000
0000
2030
0000
3001
0021
,
0000
0000
0000
0000
0000
0000
0130
1000
0002
0000
0103
0020
0000
2030
0000
3000
,
1002
0000
0013
0100
2000
0000
3001
0201
0000
0000
0310
2000
0000
3002
0000
0003
,
0021
0000
0130
2000
0000
3002
0000
0003
0201
0000
0000
0000
0000
0310
1000
0000
,
1002
0000
0000
0000
0000
0013
0100
0000
2100
0000
0000
3001
0100
0020
0000
0030
,
2010
0000
0000
3001
0000
0010
0000
0100
1000
0000
0001
0000
0201
0000
0310
1000
,
0001
0010
0100
1000
0100
0010
0001
1000
0001
0100
0010
1000
0001
1000
0001
0000
,
0021
0000
0000
0130
0000
1000
0000
0001
0100
0000
0010
0000
2010
0000
3001
0010
,
0100
1000
0001
1000
0010
0100
0001
1000
0001
0010
0100
1000
0001
1000
0100
0000
,
0120
0000
0000
0031
0000
1000
0000
0010
0100
0000
0001
0000
2001
0000
3100
0010
,
0001
0010
0100
1000
0001
1000
0010
0100
0001
0100
0010
1000
0001
1000
0010
0000
,
0210
0000
0000
0301
0000
1000
0000
0100
0010
0000
0001
0000
2001
0000
3010
0100
,
0001
1000
0100
0010
0001
0010
0100
1000
0001
0100
0010
1000
0010
0100
0001
0000
,
2001
0000
0000
3100
0000
0010
0000
0001
1000
0000
0010
0000
0210
0000
0301
1000
,
0100
1000
0001
0100
0001
1000
0100
1000
0001
0100
0001
1000
0100
1000
0001
0000
,
0201
0000
0000
0310
0000
1000
0000
0001
0010
0000
0100
0000
2100
0000
3001
0010
,
0001
1000
0010
1000
0001
0010
0001
1000
0010
1000
0001
0010
0001
1000
0001
0000
,
2002
0000
0000
3003
;

//---------------dance-single - Ace Of Arrows (2019)----------------
#NOTES:
     dance-single:
     Ace Of Arrows (2019):
     Medium:
     6:
     0.219,0.000,0.003,0.439,0.189:
0000
0000
0000
0000
,
0000
0000
0000
0000
,
0000
0000
0000
0000
,
0000
0000
0000
0000
,
0000
0000
0000
0000
,
0002
0000
0003
0000
1000
0100
4000
0000
,
0000
0000
0000
3000
,
0002
0000
0003
0000
0010
0100
0040
0000
,
0000
0000
0000
0030
,
2000
0000
3000
0000
0100
0010
0400
0000
,
0000
0000
0000
0300
,
0020
0000
0030
0000
0001
0010
0004
0000
,
0000
0000
0000
0003
,
0000
0000
1000
0000
0020
0000
0000
0000
1030
0000
0000
0000
0002
0000
0000
0023
,
0000
0000
0030
0000
0000
0000
0000
0000
0100
0000
0000
0000
1000
0000
0000
0002
,
0000
0000
0000
0000
1003
0000
0010
0000
1000
0000
0000
0000
0001
0000
0000
0020
,
0000
0000
0000
0130
2000
0000
0000
0000
,
3000
0000
0000
0000
0000
0000
0000
0000
0000
0000
0001
0000
0100
0000
0000
0002
,
0000
0000
1003
0000
0100
0000
0000
0020
0000
0000
0030
0000
0000
0000
0000
0000
,
0100
0000
0000
2000
0000
0000
3001
0000
0100
0000
0000
0020
0000
0000
1030
0000
,
0001
0000
0000
0020
0000
0000
0130
0000
2000
0000
0000
0000
0000
0000
3001
0000
,
0200
0300
0000
0000
,
0000
0000
0001
0000
1000
0000
0000
0100
0000
0100
0000
0000
0010
0000
0000
0020
,
0000
0000
0030
0000
0000
0000
0000
0000
0001
0000
0000
0002
0000
0000
1003
0000
,
0010
0000
0000
2000
0000
0000
3001
0000
0000
0000
0000
0000
0010
0000
0100
0000
,
0020
0000
0000
0031
2000
0000
3000
0000
,
0000
0000
0000
0000
0000
0000
0000
0000
0000
0000
0000
0001
0000
0100
0000
0002
,
0000
0000
0000
1003
0000
0100
0000
2000
0000
0000
3000
0000
0000
0000
0000
0000
,
0100
0000
0000
0200
0000
0000
0300
0000
0010
0000
0000
0001
0000
0000
0020
0000
,
0000
0030
0200
0300
,
1000
0000
0001
0000
1000
0000
0000
0000
0000
0000
0001
0000
0100
0000
0000
0001
,
0000
0000
0000
1000
0000
0100
0000
2000
0000
0000
0000
0000
0000
0000
0000
3002
,
0000
0000
0000
0003
0000
0100
0010
0000
,
1000
0000
0000
1000
0000
0000
0000
0002
0000
0000
0000
0000
0013
0000
0000
0020
,
0000
0000
0000
0000
0000
0000
0030
0000
0000
0000
0100
0000
0100
0000
0000
2000
,
0000
0000
0000
0000
3001
0000
0000
0002
0000
0000
0000
0000
0000
0000
0000
0203
,
0000
0000
0000
0000
0000
0000
0300
0000
0000
0000
0010
0000
1000
0000
0000
0020
,
0000
0000
0000
1030
0000
0002
0000
0000
1003
0000
0000
0100
0000
0010
0000
0000
,
0200
0000
0000
1300
0002
0000
0000
1003
,
0020
0030
2000
3000
,
0001
0100
0004
0000
0000
0000
0000
0000
,
0000
0003
2000
3000
,
0100
0010
0400
0000
0000
0000
0000
0000
,
0000
0000
0300
0000
0000
1000
0002
0000
,
2003
0000
0000
0000
3010
0000
0000
0020
0000
0000
0030
0000
0000
0000
0100
0000
,
0001
0000
0000
0200
0000
0000
0000
0000
0302
0000
0000
0000
1003
0000
0100
0000
,
2000
0000
0000
3001
0000
0020
0000
0000
0032
0000
0000
0000
0000
0000
0000
2003
,
0000
3000
0000
0000
,
0000
0000
0000
0001
0000
1000
0000
0002
0000
0000
0000
0013
0000
0100
0000
0020
,
0000
0000
0030
0000
0000
0000
0000
0000
0001
0000
0000
0002
0000
0000
0000
0000
,
2003
0000
0000
0000
3010
0000
0000
0020
0000
0000
0000
0000
1030
0000
0001
0000
,
2000
0000
0000
0000
0000
3100
0000
0200
0000
0000
0000
0000
0000
0000
0000
0000
,
0300
0000
0000
0000
0000
0000
0000
0000
0000
0000
0010
0000
0001
0000
0000
0020
,
0000
0000
0000
0031
0000
2000
0000
0000
3002
0000
0000
0000
0003
0000
0000
0000
,
0100
0000
0000
0200
0000
0000
0310
0000
2000
0000
0000
3001
0000
0000
0002
0000
,
0000
0003
0000
0000
,
0020
0000
0000
0000
0030
0000
0000
0000
0000
0000
1000
0000
0001
0000
0000
1000
,
0000
0000
0000
0001
0000
0010
0000
0002
0000
0000
0000
0000
0000
0000
0000
2003
,
0000
0000
0000
3000
0000
0000
0100
0010
,
0100
0000
0000
1000
0000
0001
0000
2000
0000
0000
0000
0000
3010
0000
0000
0020
,
0000
0000
0000
0000
0000
0000
0030
0000
0000
0000
0100
0000
0001
0000
0000
0200
,
0000
0000
0000
0000
0310
0000
0000
0020
0000
0000
0000
0000
0000
0000
0000
2030
,
0000
0000
0000
0000
0000
0000
3000
0000
0000
0000
0001
0000
0010
0000
0000
0002
,
0000
0000
0000
1003
0000
0020
0000
0000
1030
0000
0000
0001
0000
0200
0000
0000
,
0302
0000
0000
1003
0200
0000
0000
0310
,
0002
0003
0020
0030
,
0100
1000
0400
0000
0000
0000
0000
0000
,
0000
0300
2000
3000
,
0001
0100
0004
0000
0000
0000
0000
0000
,
0000
0000
0000
0000
0003
0000
0000
0000
0000
2000
0000
0000
3200
0000
0000
2300
,
0000
0000
3001
0000
0200
0000
0000
0000
0301
0000
0000
1000
0000
0000
0002
0000
,
0000
0000
0003
0000
0000
1000
0200
0000
,
2300
0000
0000
3001
0000
0000
0000
0000
0200
0000
0000
0000
0302
0000
0000
0000
,
2003
0000
3000
0000
,
0001
0000
0010
0000
0002
0000
0000
0000
2003
0000
0000
3010
0000
0100
0000
0020
,
0000
0000
0000
0000
0030
0000
0000
0000
1000
0000
0000
2000
0000
0000
0000
0000
,
3001
0000
0000
0010
0000
0000
0002
0000
0000
0000
0000
0000
0003
0000
0000
0000
,
0000
2000
3020
2030
,
3000
0000
0001
0000
0010
0000
0000
0002
0000
0000
0000
1003
0000
0001
0000
2000
,
0000
0000
0000
0000
0000
0000
0000
3200
0000
0000
0000
0000
0000
0000
0300
0000
,
0000
0000
0010
0000
0100
0000
0000
0000
0010
0000
0000
0001
0000
1000
0000
0002
,
0000
0000
0000
0000
0103
0000
0000
0200
0000
0000
0000
0000
0000
0000
0300
0000
,
0000
0000
0010
0000
1000
0000
0000
0020
0000
0000
0000
0000
1030
0000
0000
0002
,
0000
0000
0000
0000
0000
0000
0000
0023
0000
0000
0000
0000
0000
0000
0030
0000
,
0000
0000
0100
0000
1000
0000
0000
0200
0000
0000
0000
0000
0310
0000
0000
0200
,
0000
0000
0000
0000
0000
0000
0000
2300
0000
0000
0000
0000
0000
0000
3000
0000
,
0000
0000
0001
0000
0100
0000
0000
0002
0000
0000
0000
0000
1003
0000
0000
0200
,
0000
0000
0000
0000
0000
0000
0000
0320
0000
0000
0000
0000
0000
0000
0030
0000
,
0000
0000
0001
0000
0010
0000
0000
0002
0000
0000
0000
0000
1003
0000
0000
0020
,
0000
0000
0000
0000
0000
0000
0000
0230
0000
0000
0000
0000
0000
0000
0300
0000
,
0000
0000
0001
0000
1000
0000
0000
0002
0000
0000
0000
0000
0013
0000
0000
0200
,
0000
0000
0000
0000
0000
0000
0000
2300
0000
0000
0000
0000
0000
0000
3000
0000
,
0000
0000
0001
0000
0100
0000
0000
0002
0000
0000
0000
1003
0000
0200
0000
0000
,
1300
0000
0000
0001
0000
1000
0000
0000
0002
0000
0000
0000
0000
0000
0013
0000
,
0200
0000
0000
1300
0002
0000
0003
0000
,
2000
0000
3000
0000
0010
0100
0040
0000
,
0000
0000
0000
0030
,
0200
0000
0300
0000
0001
0100
0004
0000
,
0000
0000
0000
0003
,
2000
0000
3000
0000
0100
0010
0400
0000
,
0000
0000
0000
0300
,
2000
0000
3000
0000
0001
0010
0004
0000
,
0000
0000
0000
0003
,
0020
0000
0030
0000
0100
1000
0400
0000
,
0000
0000
0000
0300
,
0020
0000
0030
0000
0001
1000
0004
0000
,
0000
0000
0000
0003
,
2002
0000
0000
3003
;

//---------------dance-single - Ace Of Arrows (2019)----------------
#NOTES:
     dance-single:
     Ace Of Arrows (2019):
     Easy:
     4:
     0.159,0.000,0.000,0.324,0.054:
0000
0000
0000
0000
,
0000
0000
0000
0000
,
0000
0000
0000
0000
,
0000
0000
0000
0000
,
0000
0000
0000
0000
,
2000
0000
3000
0000
0010
0010
0040
0000
,
0000
0000
0000
0030
,
0200
0000
0300
0000
0001
0001
0004
0000
,
0000
0000
0000
0003
,
2000
0000
3000
0000
0100
0100
0400
0000
,
0000
0000
0000
0300
,
0020
0000
0030
0000
0001
0001
0004
0000
,
0000
0000
0000
0003
,
0000
1000
1000
0000
0010
0000
0020
0000
,
0030
0000
0100
0100
,
0200
0300
0001
0001
,
0002
0003
2000
0000
,
3000
0000
0000
0010
,
0010
0010
0020
0030
,
1000
1000
2000
3000
,
0001
0001
0002
0003
,
0020
0000
0030
0000
,
0000
0100
0100
0200
,
0300
0000
1000
1000
,
2000
3000
0001
0001
,
0002
0003
0200
0000
,
0300
0000
0000
0010
,
0010
0010
0020
0030
,
2000
0000
0000
0000
3000
0000
0000
0000
0001
0000
0000
0001
0000
0000
0002
0000
,
0000
0003
1000
1000
,
2000
3000
0000
0100
,
0100
0000
0000
0000
0100
0000
0000
0000
0200
0000
0000
0000
0300
0000
0000
2000
,
0000
0000
0000
3000
0000
0000
0001
0000
,
0001
0000
0000
0000
0002
0000
0000
0000
0003
0000
0000
0000
0100
0000
0000
0200
,
0000
0000
0000
0000
0000
0000
0300
0000
0000
0000
0000
0000
0010
0000
0000
0010
,
0000
0000
0000
0000
1000
0000
0000
2000
0000
0000
0000
0000
3000
0000
0000
0002
,
0000
0000
0000
0003
0000
0000
0010
0000
,
0020
0030
0100
0100
,
0200
0300
2000
3000
,
0002
0003
2000
3000
,
0010
0010
0040
0000
0000
0000
0000
0000
,
0000
0030
0200
0300
,
0001
0001
0004
0000
0000
0000
0000
0000
,
0000
0003
0000
1000
,
1000
2000
3000
0000
,
0100
0100
0200
0300
,
0010
0010
0020
0030
,
0002
0000
0003
0000
,
0000
1000
1000
2000
,
3000
0010
0020
0030
,
0100
0100
0200
0300
,
0002
0000
0000
0000
0003
0000
0000
2000
0000
0000
0000
0000
0000
0000
0000
0000
,
3000
0000
0000
0001
,
0001
0002
0003
0000
,
0020
0000
0000
0000
0030
0000
0000
0000
0100
0000
0000
0100
0000
0000
0200
0000
,
0000
0300
0000
0000
,
2000
3000
0000
0001
,
0001
0000
0000
0000
0001
0000
0000
0000
0002
0000
0000
0000
0003
0000
0000
0200
,
0000
0000
0000
0300
0000
0000
0010
0000
,
0020
0000
0000
0000
0030
0000
0000
0000
1000
0000
0000
0000
1000
0000
0000
2000
,
0000
0000
0000
0000
0000
0000
3000
0000
0000
0000
0000
0000
0001
0000
0000
0001
,
0000
0000
0000
0000
0100
0000
0000
0200
0000
0000
0000
0000
0300
0000
0000
0020
,
0000
0000
0000
0030
0000
0000
1000
0000
,
2000
3000
0001
0001
,
0002
0003
0020
0030
,
0200
0300
2000
3000
,
0001
0001
0004
0000
0000
0000
0000
0000
,
0000
0003
2000
3000
,
0010
0010
0040
0000
0000
0000
0000
0000
,
0000
0000
0030
0000
0000
0100
0100
0000
,
0002
0000
0000
0000
0003
0000
0000
0000
1000
0000
0000
1000
0000
0000
2000
0000
,
0000
3000
0000
0100
,
0200
0300
0010
0010
,
0020
0000
0030
0000
,
0002
0003
1000
1000
,
2000
3000
0020
0030
,
0100
0000
0000
0100
0000
0000
0200
0000
0000
0000
0000
0000
0300
0000
0000
0000
,
0000
0002
0003
0000
,
0000
1000
1000
1000
,
2000
0000
0000
0000
3000
0000
0000
0200
0000
0000
0000
0000
0000
0000
0300
0000
,
0000
0010
0020
0030
,
0001
0000
0000
0000
0001
0000
0000
0002
0000
0000
0000
0000
0000
0000
0003
0000
,
0000
0000
0000
0000
1000
0000
0000
2000
0000
0000
0000
0000
3010
0000
0000
0020
,
0000
0000
0000
0000
0000
0000
0000
0230
0000
0000
0000
0000
0000
0000
0300
0000
,
0000
0000
0000
0000
0001
0000
0000
0002
0000
0000
0000
0000
1003
0000
0000
2000
,
0000
0000
0000
0000
0000
0000
0000
3200
0000
0000
0000
0000
0000
0000
0300
0000
,
0000
0000
0000
0000
0010
0000
0000
0020
0000
0000
0000
0000
0031
0000
0000
0002
,
0000
0000
0000
0000
0000
0000
0000
2003
0000
0000
0000
0000
0000
0000
3000
0000
,
0000
0000
0000
0000
0010
0000
0000
0020
0000
0000
0000
0000
0130
0000
0000
0200
,
0000
0000
0000
0000
0000
0000
0000
0302
0000
0000
0000
0000
0000
0000
0003
0000
,
0000
0000
0000
0000
1000
0000
0000
2000
0000
0000
0000
0000
3100
0000
0000
0200
,
0000
0000
0000
0000
0000
0000
0000
0320
0000
0000
0000
0000
0000
0000
0030
0000
,
0000
0001
0002
0003
,
1000
1000
2000
3000
,
0020
0030
0200
0300
,
0002
0000
0003
0000
1000
1000
4000
0000
,
0000
0000
0000
3000
,
0200
0000
0300
0000
0010
0010
0040
0000
,
0000
0000
0000
0030
,
0002
0000
0003
0000
1000
1000
4000
0000
,
0000
0000
0000
3000
,
0020
0000
0030
0000
0100
0100
0400
0000
,
0000
0000
0000
0300
,
0002
0000
0003
0000
1000
1000
4000
0000
,
0000
0000
0000
3000
,
0200
0000
0300
0000
0010
0010
0040
0000
,
0000
0000
0000
0030
,
0002
0000
0000
0003
;

//---------------dance-single - Ace Of Arrows (2019)----------------
#NOTES:
     dance-single:
     Ace Of Arrows (2019):
     Beginner:
     2:
     0.084,0.000,0.000,0.159,0.000:
0000
0000
0000
0000
,
0000
0000
0000
0000
,
0000
0000
0000
0000
,
0000
0000
0000
0000
,
0000
0000
0000
0000
,
0002
0000
0003
0004
,
0000
0000
0000
0003
,
2000
0000
3000
4000
,
0000
0000
0000
3000
,
0020
0000
0030
0040
,
0000
0000
0000
0030
,
0200
0000
0300
0400
,
0000
0000
0000
0300
,
0001
0000
0001
0000
,
0001
0000
0000
0000
,
1000
0000
1000
0000
,
2000
0000
3000
0000
,
0000
0000
0001
0000
,
0001
0000
0001
0000
,
0000
0000
0100
0000
,
0100
0000
0200
0000
,
0300
0000
0000
0000
,
0010
0000
0010
0000
,
0010
0000
0000
0000
,
1000
0000
1000
0000
,
2000
0000
3000
0000
,
0000
0000
0000
0000
,
0002
0000
0003
0000
,
0010
0000
0020
0000
,
0000
0030
0000
0000
,
0000
0000
0100
0000
,
0100
0000
0100
0000
,
0200
0000
0300
0000
,
1000
0000
1000
0000
,
2000
0000
3000
0000
,
0001
0000
0001
0000
,
0002
0000
0003
0000
,
0100
0000
0100
0000
,
0200
0000
0000
0000
,
0300
0000
0020
0000
,
0030
0040
0000
0000
,
0000
0030
2000
0000
,
3000
4000
0000
0000
,
0000
3000
0001
0000
,
0001
0000
0001
0000
,
0000
0000
0010
0000
,
0010
0000
0020
0000
,
0030
0000
0000
0000
,
0100
0000
0100
0000
,
0200
0000
0300
0000
,
1000
0000
1000
0000
,
2000
0000
3000
0000
,
0000
0000
0001
0000
,
0002
0000
0003
0000
,
0100
0000
0200
0000
,
0000
0300
0000
0000
,
0000
0000
0010
0000
,
0010
0000
0010
0000
,
0020
0000
0030
0000
,
0100
0000
0100
0000
,
0200
0000
0300
0000
,
0001
0000
0001
0000
,
0002
0000
0003
0000
,
1000
0000
1000
0000
,
2000
0000
0000
0000
,
3000
0000
0200
0000
,
0300
0400
0000
0000
,
0000
0300
0020
0000
,
0030
0040
0000
0000
,
0000
0030
0001
0000
,
0001
0000
0004
0000
,
0003
0000
1000
0000
,
1000
0000
4000
0000
,
3000
0000
0000
0000
,
0040
0000
0000
0000
,
0030
0000
0100
0000
,
0200
0000
0000
0300
,
0000
0000
0000
0000
,
0001
0000
0001
0000
,
0001
0000
0002
0000
,
0003
0000
0010
0000
,
0010
0000
0020
0000
,
0030
0000
0100
0000
,
0200
0300
0200
0000
,
0300
0000
1000
0000
,
2000
3000
2000
0000
,
3000
0000
0001
0000
,
0002
0003
0002
0000
,
0003
0000
0100
0000
,
0200
0300
0200
0000
,
0300
0000
0010
0000
,
0020
0030
0020
0000
,
0030
0000
1000
0000
,
1000
0000
2000
0000
,
0000
0000
3000
0000
,
0002
0000
0003
0004
,
0000
0000
0000
0003
,
0020
0000
0030
0040
,
0000
0000
0000
0030
,
0200
0000
0300
0400
,
0000
0000
0000
0300
,
2000
0000
3000
4000
,
0000
0000
0000
3000
,
0002
0000
0003
0004
,
0000
0000
0000
0003
,
0200
0000
0300
0400
,
0000
0000
0000
0300
,
0020
0000
0000
0030
;
