#TITLE:Wings;
#SUBTITLE:;
#ARTIST:Jenny Stigle;
#TITLETRANSLIT:;
#SUBTITLETRANSLIT:;
#ARTISTTRANSLIT:;
#GENRE:;
#CREDIT:AceOfArrows;
#BANNER:Wings - Bn.png;
#BACKGROUND:Wings - Bg.jpg;
#LYRICSPATH:;
#CDTITLE:Ace Of Arrows.png;
#MUSIC:Wings.ogg;
#OFFSET:1.420;
#SAMPLESTART:69.500;
#SAMPLELENGTH:12.000;
#SELECTABLE:YES;
#BPMS:0.000=104.000,174.000=90.000;
#STOPS:;
#BGCHANGES:2.333=Lunar Silver Star Opening Video.avi=1.000=0=0=1=====,
186.333=Wings - Bg.jpg=1.000=0=0=1=Centered====,
99999=-nosongbg-=1.000=0=0=0 // don't automatically add -songbackground-
;
#KEYSOUNDS:;

//---------------dance-single - AceOfArrows (2018)----------------
#NOTES:
     dance-single:
     AceOfArrows (2018):
     Challenge:
     9:
     0.667,0.254,0.581,1.000,0.899: // measure 1
0000
0000
0000
0000
,  // measure 2
0001
0010
0100
1000
0100
0010
0001
1000
0010
0100
0001
0100
,  // measure 3
0010
1000
0001
0010
0100
1000
0001
1000
0010
0100
0001
1000
,  // measure 4
1200
0000
0310
0001
1000
0010
0210
0000
0302
0000
2003
3000
,  // measure 5
1020
0000
0230
0000
0302
0003
2001
0000
3200
0000
0320
0030
,  // measure 6
0012
0000
1003
0010
1000
0001
0020
0000
0000
0030
0000
0000
,  // measure 7
0210
0000
0000
0000
0000
0000
0300
0000
0000
1000
0100
1000
0100
0000
0010
0000
0100
0000
1000
0000
0001
0010
0100
0010
,  // measure 8
0002
0000
1003
0010
0100
0001
2001
0000
3200
0000
0000
0310
,  // measure 9
0012
0000
2003
0000
0000
3100
0020
0000
0130
1000
0001
0100
,  // measure 10
0120
0000
1030
0001
0010
0100
2000
0000
3002
0000
0203
0300
,  // measure 11
0120
0000
1030
0001
0010
0100
2100
0000
3001
0100
0010
1000
,  // measure 12
1002
0000
0000
0000
0000
0000
0000
0000
0000
0000
0000
0000
0103
0000
0000
0000
0010
0000
0000
0000
1000
0000
0000
0000
1002
0000
0000
0000
0000
0000
0000
0000
0023
0000
0000
0000
0000
0000
0000
0000
0230
0000
0000
0000
0300
1000
0100
0010
,  // measure 13
0002
0000
0000
0000
0000
0000
1003
0100
0010
0001
0010
0100
2000
0000
0000
0000
0000
0000
3000
0000
0000
0000
0000
0000
,  // measure 14
1002
0000
0000
0000
0103
0000
0120
0000
0000
0000
0030
0000
,  // measure 15
2010
0000
3001
0000
0010
0000
0210
0000
0000
0000
0300
0000
,  // measure 16
2100
0000
3002
0000
0103
0000
0120
0000
0000
0000
1030
0000
,  // measure 17
1002
0000
0000
0013
0100
1000
1004
0000
0000
0000
0003
0000
,  // measure 18
0201
0000
0000
0000
0310
0000
2010
0000
0000
0000
3000
0000
,  // measure 19
1002
0000
0013
0000
0100
0000
2200
0000
0000
0000
3300
0000
,  // measure 20
1002
0000
0103
0000
0010
0000
2010
0000
0000
3001
0010
0200
,  // measure 21
2000
0000
0000
0000
0000
0000
0000
0000
0000
0000
0000
0000
0000
0000
0000
0000
0000
0000
0000
0000
0000
0000
0000
0000
0000
0000
0000
0000
0000
0000
0000
0000
0000
0000
0000
0000
0000
0000
0000
0000
0000
0000
0000
0000
0000
0000
0000
0000
0000
0000
0000
0000
0000
0000
0000
0000
0000
0000
0000
0000
0000
0000
0000
0000
0000
0000
0000
0000
0000
0000
0000
0000
0000
0000
0000
0000
0000
0000
3000
0000
4000
0000
0000
0000
0000
0000
0000
0000
0000
0000
0000
0000
0000
0000
0000
0000
0000
0000
0000
0000
0000
0000
0000
0000
0000
0000
0000
0000
0000
0000
0000
0000
0000
0000
0000
0000
0000
0000
0000
0000
0000
0000
0000
0000
0000
0000
0000
0000
0000
0000
0000
0000
0000
0000
0000
0000
0000
0000
0000
0000
0000
0000
0000
0000
0000
0000
0000
0000
0000
0000
0000
0000
0000
0000
0000
0000
0000
0000
0000
0000
3300
0000
0000
0000
0000
0000
0000
0000
0000
0000
0000
0000
0000
0000
0000
0000
0000
0000
0000
0000
0000
0000
0000
0000
0000
0000
0000
0000
0000
0000
0000
0000
,  // measure 22
1002
0000
0100
0000
1000
0000
0203
0000
0320
0000
2030
3000
,  // measure 23
4001
0000
0010
0000
0001
0000
3020
0000
0230
0000
0302
0003
,  // measure 24
0201
0000
0010
0000
0001
0000
0320
0000
2030
0000
3002
0003
,  // measure 25
0021
0000
0100
0000
0001
0000
0230
0000
1300
0100
0010
0001
,  // measure 26
2001
0000
0000
3010
0100
0001
2001
0000
3200
0000
0320
0030
,  // measure 27
0014
0000
0000
1003
0010
0100
0102
0000
2003
0000
3000
0100
,  // measure 28
0110
0010
0002
0000
0000
1003
1020
0000
0230
0000
0302
0003
,  // measure 29
2002
0003
3100
0010
0001
1000
1020
0000
0130
0001
1000
0100
,  // measure 30
0120
0000
0031
1000
0010
0100
0202
0303
2002
3003
2200
0000
,  // measure 31
3300
0000
0000
0000
0000
0000
0000
0000
0000
0000
0000
0000
4000
0004
0000
0000
0000
0000
3000
0000
0203
0000
0300
0000
,  // measure 32
0120
0000
0000
0000
1030
0000
1002
0000
0013
0000
0200
0300
,  // measure 33
4200
0000
0300
3001
0100
0010
2010
0000
3002
0000
0023
0030
,  // measure 34
0210
0000
2300
0000
3002
0003
0201
0000
0310
1000
0001
0010
,  // measure 35
0210
0000
2300
0000
0000
3001
0401
0000
0310
1000
0001
0010
,  // measure 36
0210
0000
0000
1300
0001
0100
0120
0000
0000
1030
0002
0003
,  // measure 37
4001
0000
3100
0010
0001
1000
1020
0000
0230
0000
0302
0003
,  // measure 38
2001
0000
0000
3100
0010
0001
2000
0000
3020
0000
0230
0300
,  // measure 39
0102
0000
0000
1003
0100
0010
0100
1000
0001
0100
0010
1000
,  // measure 40
1002
0000
0000
0000
0000
0000
0000
0000
0000
0000
0000
0000
0000
0000
0000
0000
0000
0000
0000
0000
0000
0000
0000
0000
0000
0000
0000
0000
0000
0000
0000
0000
0000
0000
0000
0000
0000
0000
0000
0000
0000
0000
0000
0000
0000
0000
0000
0000
0010
0000
0000
0000
0000
0000
0000
0000
0000
0000
0000
0000
0000
0000
0000
0000
1000
0000
0000
0000
0000
0000
0000
0000
0000
0000
0000
0000
0000
0000
0000
0000
0100
0000
0000
0000
0000
0000
0000
0000
0000
0000
0000
0000
0000
0000
0000
0000
2000
0000
0000
0000
0000
0000
0000
0000
0000
0000
0000
0000
0000
0000
0000
0000
3000
0000
0000
0000
0000
0000
0000
0000
0000
0000
0000
0000
0000
0000
0000
0000
0010
0000
0000
0000
0000
0000
0000
0000
0000
0000
0000
0000
0000
0000
0000
0000
0000
0000
0000
0000
0000
0000
0000
0000
0000
0000
0000
0000
0000
0000
0000
0000
1000
0000
0000
0000
0000
0000
0000
0000
0000
0000
0000
0000
0000
0000
0000
0000
0000
0000
0000
0000
0000
0000
0000
0000
0000
0000
0003
0000
0000
0000
0000
0000
,  // measure 41
0104
0000
2000
0000
3000
0100
2000
3000
0010
0000
1000
0000
,  // measure 42
0023
0000
0130
1000
0001
0100
0020
0000
2030
0000
3002
0003
,  // measure 43
0021
0000
0130
1000
0001
0100
0120
1030
0001
0010
0100
1000
,  // measure 44
1002
0103
0010
1000
0001
0010
0210
0000
2300
0000
3002
0003
,  // measure 45
0201
0000
0000
0000
0000
0000
0310
0100
0010
0100
0010
1000
0001
0010
0001
0010
0002
0000
0000
0000
0000
0000
0000
0000
,  // measure 46
0003
0000
0000
0000
1000
0100
0010
0100
2000
0000
0000
0000
0000
0000
0000
0000
0000
0000
0000
0000
0000
0000
0000
0000
0000
0000
0000
0000
0000
0000
0000
0000
0000
0000
0000
0000
0000
0000
0000
0000
0000
0000
0000
0000
0000
0000
0000
0000
,  // measure 47
0000
0000
0000
0000
0000
0000
0000
3000
0000
0000
0000
0000
;

//---------------dance-single - AceOfArrows (2018)----------------
#NOTES:
     dance-single:
     AceOfArrows (2018):
     Hard:
     7:
     0.512,0.211,0.236,1.000,0.631:
0000
0000
0000
0000
,
1000
0100
1000
0100
0010
0001
0020
0000
0130
0000
1000
0000
,
0001
0100
0001
0100
0010
0100
0020
0000
1030
0000
0001
0000
,
0022
0000
0000
0003
0000
0000
0230
0000
2300
0000
3002
0000
,
0023
0000
0230
0000
2300
0000
3002
0000
0203
0000
0320
0000
,
0230
0000
0301
0100
0010
0100
0002
0000
0000
0000
0003
0000
,
2000
0000
0000
0000
3000
0000
0001
0010
0100
1000
0100
0010
,
0002
0000
0000
0000
0000
0000
2003
0000
3020
0000
0000
0130
,
0002
0000
2003
0000
0000
3100
0020
0000
0230
0000
2300
0000
,
3002
0000
1003
0010
0100
0010
2000
0000
3002
0000
0023
0000
,
0230
0000
1300
0100
0010
0100
2000
0000
3002
0000
0203
0000
,
0320
0000
1030
0010
0100
0010
2000
0000
3002
0000
0023
0000
,
0430
4000
0000
0000
0000
0000
0000
0000
0000
0000
0000
0000
3300
0000
0000
0000
0000
0000
0000
0000
0000
0000
0000
0000
,
1002
0000
0000
0000
0103
0000
0020
0000
0000
0000
0030
0000
,
2010
0000
3002
0000
0023
0000
0230
0000
0000
0300
0000
0000
,
2100
0000
3002
0000
0203
0000
0320
0000
0000
0000
0230
0300
,
0102
0000
0000
1003
0100
0010
0004
0000
0000
0000
0003
0000
,
2001
0000
0000
0000
3020
0000
0230
0000
0000
0000
0300
0000
,
0102
0000
2003
0000
3200
0000
0320
0000
0000
0000
0030
0000
,
0012
0000
2003
0000
3020
0000
0230
0000
0000
0301
2000
0000
,
0200
0000
0000
0000
0000
0000
0000
0000
0000
0000
0000
0000
0000
0000
0000
0000
0000
0000
0000
0000
0000
0000
0000
0000
0000
0000
0000
0000
0000
0000
0000
0000
0000
0000
0000
0000
0000
0000
0000
0000
0000
0000
0000
0000
0000
0000
0000
0000
0000
0000
0000
0000
0000
0000
0000
0000
0000
0000
0000
0000
0000
0000
0000
0000
0000
0000
0000
0000
0000
0000
0000
0000
0000
0000
0000
0000
0000
0000
0300
0000
0400
0000
0000
0000
0000
0000
0000
0000
0000
0000
0000
0000
0000
0000
0000
0000
0000
0000
0000
0000
0000
0000
0000
0000
0000
0000
0000
0000
0000
0000
0000
0000
0000
0000
0000
0000
0000
0000
0000
0000
0000
0000
0000
0000
0000
0000
0000
0000
0000
0000
0000
0000
0000
0000
0000
0000
0000
0000
0000
0000
0000
0000
0000
0000
0000
0000
0000
0000
0000
0000
0000
0000
0000
0000
0000
0000
0000
0000
0000
0000
3300
0000
0000
0000
0000
0000
0000
0000
0000
0000
0000
0000
0000
0000
0000
0000
0000
0000
0000
0000
0000
0000
0000
0000
0000
0000
0000
0000
0000
0000
0000
0000
,
0120
0000
0001
0000
0100
0000
0032
0000
1003
0000
0010
0000
,
0210
0000
0010
0000
0001
0000
0320
0000
1030
0000
0001
0000
,
0102
0000
1000
0000
0100
0000
2003
0000
3100
0000
0010
0000
,
0210
0000
0010
0000
1000
0000
0320
0000
0031
0000
1000
0000
,
1002
0000
0000
0013
0100
1000
0200
0000
0320
0000
0032
0000
,
4003
0000
0000
3001
0010
0100
0020
0000
0032
0000
0003
1000
,
0100
0010
0200
0000
0000
1300
0002
0000
2003
0000
3002
0000
,
0203
0000
0310
1000
0001
1000
0020
0000
1030
0001
0010
0001
,
2000
0000
3001
0010
0100
0010
0002
0000
2003
0000
3020
0000
,
0030
0000
0000
0000
0000
0000
0400
0000
0000
0000
0302
0003
,
2001
0000
0000
0000
3200
0000
0320
0000
0230
0000
2300
3000
,
2004
0000
0000
0000
0000
0000
0000
0000
3003
0000
0002
0003
,
0021
0000
0230
0000
2300
3000
2004
0000
0000
0000
3003
0000
,
0201
0000
0320
0000
0000
1030
2004
0000
0000
0000
3003
0000
,
0021
0000
0000
0130
1000
0001
0201
0000
0000
0000
0320
0030
,
4010
0000
0000
0000
3000
0000
0002
0000
0023
0000
0230
0300
,
2200
0000
0000
0000
3300
0000
1002
0000
0203
0000
0320
0030
,
2020
0000
0000
0000
0030
0000
3002
0000
0000
0000
0013
0000
,
0220
0000
0000
0000
0000
0000
0000
0000
0000
0000
0000
0000
0000
0000
0000
0000
0000
0000
0000
0000
0000
0000
0000
0000
0000
0000
0000
0000
0000
0000
0000
0300
,
0400
0000
0000
0000
0000
0000
0030
0000
2300
0000
3002
0000
,
0023
0000
0230
0000
0000
1300
0002
0000
0103
0000
0010
0000
,
2000
0000
3001
0010
0100
0010
0002
0000
1003
0010
0100
0010
,
2000
0000
3001
0100
0010
0100
0002
0000
2003
0000
3200
0000
,
0320
0000
0000
0000
0000
0000
0034
4000
0000
0000
0000
0000
0000
0000
0000
0000
3003
0000
0000
0000
0000
0000
0000
0000
,
0000
0000
1000
0100
0020
0000
0000
0000
0000
0000
0000
0000
0000
0000
0000
0000
0000
0000
0000
0000
0000
0000
0000
0000
,
0000
0000
0000
0000
0000
0000
0000
0030
0000
0000
0000
0000
;

//---------------dance-single - AceOfArrows (2018)----------------
#NOTES:
     dance-single:
     AceOfArrows (2018):
     Medium:
     5:
     0.231,0.085,0.000,0.508,0.222:
0000
0000
0000
0000
,
0004
0000
0000
0000
1003
0000
0400
0000
0000
0000
0310
0000
,
0004
0000
0000
0000
1003
0000
0040
0000
0000
0000
0130
0000
,
0002
0000
0000
0000
0000
0000
2003
0000
0000
0000
3100
0000
,
0020
0000
0000
0000
0130
0000
2000
0000
0000
0000
0000
0000
,
3001
0000
0400
0000
0000
0000
0300
0000
0000
0000
0000
0000
,
0020
0000
0230
0000
,
0302
0000
0000
0000
0000
0000
1003
0000
0020
0000
0000
0000
,
0130
0000
0002
0000
0000
0000
2003
0000
0000
0000
0000
0000
,
3020
0000
0000
0000
0000
0000
0000
0000
1030
0000
0001
0000
,
2000
0000
3200
0000
,
0320
0000
0032
0000
,
2003
0000
3000
0000
,
0002
0000
0000
0000
1003
0000
0020
0000
0000
0000
0030
0000
,
0200
0000
0000
0000
0301
0000
2000
0000
0000
3000
0000
0000
,
0002
0000
0000
0000
0013
0000
0200
0000
0000
0000
1300
0000
,
0002
0000
0000
0000
1003
0000
0040
0000
0000
0000
0030
0000
,
0200
0000
0000
0000
0301
0000
2000
0000
0000
0000
3000
0000
,
0002
0000
0000
0000
0013
0000
0200
0000
0000
0000
0300
0000
,
2000
0000
0000
0000
3001
0000
0020
0000
0000
0000
0430
0000
,
0000
0000
0000
0000
0000
0000
0000
0000
0000
0000
0300
0000
,
0020
0000
0000
0000
0000
0000
0000
0000
0031
0000
1000
0000
,
0004
0000
0000
0000
0000
0000
0000
0000
1003
0000
0010
0000
,
2000
0000
0000
0000
0000
0000
0000
0000
3010
0000
0100
0000
,
0040
0000
0000
0000
0000
0000
0000
0000
0000
0000
0030
0000
,
2000
0000
0000
0000
3001
0000
0020
0000
0030
0000
0001
0000
,
2000
0000
0000
0000
3010
0000
0200
0000
0300
0000
0000
0000
,
0001
0000
0002
0000
0000
0000
2003
0000
0000
0000
3010
0000
,
0020
0000
0000
0000
0000
0000
0000
0000
0000
0000
0000
0000
0000
0000
0000
0000
0000
0000
0000
0000
0000
0000
0000
0030
0040
0000
0000
0000
0000
0000
0000
0000
,
0000
0000
0000
0000
0000
0000
1030
0000
0001
0000
2000
0000
,
3000
0000
0000
0000
0000
0000
0000
0000
0000
0000
0001
0000
,
0020
0000
0000
0000
0031
0000
2000
0000
0000
0000
3100
0000
,
0040
0000
0000
0000
0000
0000
0000
0000
0030
0000
0001
0000
,
2000
0000
0000
0000
3010
0000
0400
0000
0000
0000
0300
0000
,
0001
0000
2000
0000
0000
0000
3400
0000
0000
0000
0300
0000
,
0020
0000
0000
0000
0031
0000
2000
0000
0000
0000
3010
0000
,
0400
0000
0000
0000
0300
0000
0001
0000
1000
0000
0001
0000
,
2000
0000
0000
0000
0000
0000
3001
0000
0100
0000
0001
0000
,
0200
0000
0302
0000
,
2000
0000
0000
0000
0000
0000
0000
0000
0000
0000
0000
0000
0000
0000
0000
0000
0000
0000
0000
0000
0000
0000
0000
0000
0000
0000
0000
0000
0000
0000
0000
3000
,
4000
0000
0000
0000
0000
0000
0000
0000
0000
0000
3003
0000
,
0001
0000
0200
0000
0000
0000
0320
0000
0000
0000
0000
0000
,
2030
0000
3002
0000
,
0023
0000
0000
0000
0000
0000
0031
0000
1000
0000
0001
0000
,
2000
0000
0000
3400
0000
0000
0000
0000
0300
0000
0000
0000
,
0000
0000
0020
0000
0000
0000
0000
0000
0000
0000
0000
0000
,
0000
0000
0000
0000
0000
0000
0000
0030
0000
0000
0000
0000
;

//---------------dance-single - AceOfArrows (2018)----------------
#NOTES:
     dance-single:
     AceOfArrows (2018):
     Easy:
     2:
     0.105,0.021,0.000,0.127,0.000:
0000
0000
0000
0000
,
4000
0000
3000
0000
,
0004
0000
0003
0000
,
0100
0000
0100
0000
,
0200
0000
0300
0000
,
0040
0000
0030
0000
,
2000
0000
3000
0000
,
0001
0000
0001
0000
,
0002
0000
0003
0000
,
0020
0000
0030
0000
,
0100
0000
0100
0000
,
1000
0000
1000
0000
,
2000
0000
3000
0000
,
0001
0000
0001
0000
,
0001
0000
0001
0000
,
0100
0000
0100
0000
,
0100
0000
0100
0000
,
0001
0000
0001
0000
,
0001
0000
0001
0000
,
1000
0000
1000
0000
,
4000
0000
0000
3000
,
0020
0000
0030
0000
,
0400
0000
0300
0000
,
0002
0000
0003
0000
,
2000
0000
3000
0000
,
0001
0000
0001
0000
,
1000
0000
1000
0000
,
0010
0000
0010
0000
,
0020
0000
0000
0000
0000
0000
0000
0000
0000
0000
0000
0000
0000
0000
0000
0000
0000
0000
0000
0000
0000
0000
0000
0030
0040
0000
0000
0000
0000
0000
0000
0000
,
0000
0000
0030
0000
,
0000
0000
0000
0000
,
1000
0000
1000
0000
,
4000
0000
3000
0000
,
0001
0000
0004
0003
,
0100
0000
0400
0300
,
0010
0000
0010
0000
,
0040
0030
1000
0000
,
2000
0000
3001
0000
,
0002
0000
0010
0000
,
0020
0000
0000
0000
0000
0000
0000
0000
0000
0000
0000
0000
0000
0000
0000
0000
0000
0000
0000
0000
0000
0000
0000
0000
0000
0000
0000
0000
0000
0000
0000
0030
,
0040
0000
0000
0033
,
0002
0000
0003
0000
,
1000
0000
1000
0000
,
0001
0000
0001
0000
,
0400
0000
0000
0300
,
0020
0000
0000
0000
,
0000
0000
0000
0000
0000
0000
0000
0030
0000
0000
0000
0000
;

//---------------dance-single - AceOfArrows (2018)----------------
#NOTES:
     dance-single:
     AceOfArrows (2018):
     Beginner:
     1:
     0.096,0.021,0.000,0.173,0.000:
0000
0000
0000
0000
,
0004
0000
0003
0000
,
0004
0000
0003
0000
,
1000
0000
1000
0000
,
2000
0000
3000
0000
,
0010
0000
0010
0000
,
0020
0000
0030
0000
,
1000
0000
1000
0000
,
2000
0000
3000
0000
,
0020
0000
0030
0000
,
0100
0000
0000
0000
,
0100
0000
0000
0000
,
0200
0000
0300
0000
,
0001
0000
0001
0000
,
0002
0000
0003
0000
,
1000
0000
1000
0000
,
2000
0000
3000
0000
,
0100
0000
0100
0000
,
0200
0000
0300
0000
,
0010
0000
0010
0000
,
0040
0000
0030
0000
,
0002
0000
0003
0000
,
4000
0000
3000
0000
,
0020
0000
0030
0000
,
0200
0000
0300
0000
,
0001
0000
0001
0000
,
0002
0000
0003
0000
,
1000
0000
1000
0000
,
2000
0000
0000
0000
,
0000
0000
3000
0000
,
0000
0000
0000
0000
,
0010
0000
0010
0000
,
0040
0000
0030
0000
,
0200
0000
0300
0000
,
0002
0000
0003
0000
,
0100
0000
0100
0000
,
0400
0000
0300
0000
,
0001
0000
0001
0000
,
0002
0000
1000
0000
,
2000
0000
0000
0000
,
0000
0000
0000
0000
,
3003
0000
0000
0000
,
1000
0000
1000
0000
,
2000
0000
3000
0000
,
0004
0000
0000
0003
,
0020
0000
0000
0000
,
0000
0000
0000
0000
0000
0000
0000
0030
0000
0000
0000
0000
;
