#TITLE:Vanilla Mate;
#SUBTITLE:;
#ARTIST:Mitsukiyo feat. Lilie;
#TITLETRANSLIT:;
#SUBTITLETRANSLIT:;
#ARTISTTRANSLIT:;
#GENRE:;
#CREDIT:Ace Of Arrows;
#BANNER:Vanilla Mate - Bn.png;
#BACKGROUND:Vanilla Mate - Bg.jpg;
#LYRICSPATH:;
#CDTITLE:Ace Of Arrows.png;
#MUSIC:Vanilla Mate.ogg;
#OFFSET:1.920;
#SAMPLESTART:80.360;
#SAMPLELENGTH:12.000;
#SELECTABLE:YES;
#BPMS:0.000=123.000,136.000=61.500,144.000=123.000,244.000=61.500;
#STOPS:;
#BGCHANGES:;
#KEYSOUNDS:;

//---------------dance-single - AceOfArrows (2018)----------------
#NOTES:
     dance-single:
     AceOfArrows (2018):
     Challenge:
     9:
     0.667,0.000,0.342,0.952,0.425: // measure 1
0000
0000
0000
0000
,  // measure 2
0000
0000
0000
0000
,  // measure 3
2000
0000
0000
0000
0000
0000
3001
0000
0100
0000
0010
0100
0010
0000
2000
0000
,  // measure 4
0000
0000
0000
0000
0000
3001
0000
0200
,  // measure 5
0000
0000
0000
0000
0000
0000
0301
1000
0002
0000
0013
0100
0000
0100
2000
0000
,  // measure 6
0000
3001
0100
0010
0200
0301
2000
3100
,  // measure 7
0120
0031
1000
0010
1000
1001
0000
0021
,  // measure 8
0000
0000
0130
0000
1000
0000
0001
0000
0100
0000
0110
0000
0000
1010
0000
0000
,  // measure 9
1002
0013
0100
0110
0011
0001
1000
1200
,  // measure 10
0000
0000
0310
0001
0010
0100
1000
0100
1000
0001
0100
0001
0100
0010
2000
0000
,  // measure 11
3002
0000
0000
0000
0000
0000
0000
0000
0000
0000
0000
0000
0203
0000
0000
0000
0000
0000
0000
0000
0000
0310
0000
0000
1000
0000
0000
0000
0000
0000
0002
0000
0000
0000
0000
0000
0013
0100
0000
0000
0000
0000
2000
0000
0000
0000
0000
0000
,  // measure 12
0000
0000
0000
0000
0000
0000
3001
0000
0000
0000
0000
0000
0200
0000
0000
0000
0000
0000
0000
0000
0000
0310
0000
0000
1000
0000
0000
0000
0000
0000
0002
0000
0000
0000
0000
0000
1003
0100
0000
0000
0000
0000
0020
0000
0000
0000
0000
0000
,  // measure 13
0000
0000
0031
0000
1000
0000
0010
0100
0002
0000
1003
0100
0000
0100
0020
0000
,  // measure 14
0000
0000
0000
0000
0000
0000
0230
0000
0000
0000
1300
0000
0001
0100
0020
0000
,  // measure 15
0000
0000
0000
0000
0000
0000
1030
0000
0000
0000
0000
0000
0002
0000
0000
0000
0000
0000
0000
0000
0000
0013
0000
0000
0100
0000
0000
0000
0000
0000
2000
0000
0000
0000
0000
0000
3001
0100
0000
0000
0000
0000
0020
0000
0000
0000
0000
0000
,  // measure 16
0000
0000
1030
0000
0001
0000
0200
0000
0301
1000
0100
1000
0001
0000
0200
0000
,  // measure 17
0000
0000
0310
0000
2000
0000
3001
0010
0200
0000
0310
0001
0000
0001
2000
0000
,  // measure 18
0000
0000
3010
0000
0210
0000
0300
0000
0102
0000
1003
0100
0020
0000
0030
0000
,  // measure 19
0012
0000
0000
0000
2003
0000
0000
3010
0200
0000
0301
0000
1000
0000
0200
0000
,  // measure 20
0000
0000
0310
0001
1000
0001
0000
0100
0010
0000
1000
0000
0001
0000
0040
0000
,  // measure 21
0000
0000
0130
1000
0001
1000
0100
0000
0020
0000
0130
0000
1000
0000
0002
0000
,  // measure 22
0000
0013
0004
0000
1003
0000
0020
0000
0000
0030
0110
0000
0100
0000
0202
0000
,  // measure 23
0000
0000
0303
0000
0002
0000
0000
1003
0200
0000
0310
0000
0100
0000
2000
0000
,  // measure 24
0000
0000
3001
0010
0100
0010
0000
0001
2000
0000
0000
0000
3020
0000
0000
0130
,  // measure 25
0000
0001
1000
0100
0010
0100
1000
1002
,  // measure 26
0000
0000
0103
0000
0020
0000
0000
0000
1030
0001
0100
0001
2000
0000
3000
0000
,  // measure 27
1200
0000
0000
0000
0320
0000
0000
0031
1000
0000
0010
0000
0100
0000
0002
0000
,  // measure 28
0000
0000
1003
0100
0010
0100
0000
1000
0002
0000
0103
0000
0010
0000
4000
0000
,  // measure 29
0000
3000
0000
0000
0001
0100
0000
0020
0000
1030
0001
1000
0200
0000
0310
0000
,  // measure 30
0011
0000
0001
0000
2000
0000
3000
1020
0000
0130
0001
1000
0100
0000
0220
0000
,  // measure 31
0000
0000
0330
0000
0020
0000
0000
0031
1000
0000
0010
0000
0100
0000
0002
0000
,  // measure 32
0000
0000
1003
0010
0100
0010
0000
1000
0002
0000
0000
0000
0023
0000
0000
0130
,  // measure 33
0000
0000
1000
0000
0001
0000
0100
0000
0010
0000
1000
0000
0010
0000
0100
0001
,  // measure 34
0200
0000
0310
0000
1000
0001
0000
0000
0020
0000
0130
0000
1000
0000
0001
0000
,  // measure 35
0021
0000
0000
0000
0230
0000
0000
1300
0001
0000
0100
0000
0010
0000
0200
0000
0000
0000
0301
0000
1000
0000
0200
0000
0000
0000
0000
0000
0300
0000
0000
0000
,  // measure 36
0020
0000
0000
0000
0031
0000
1000
0000
0001
0000
0010
0000
0100
0000
2000
0000
0000
0000
3001
0010
0002
0000
0000
0000
1003
0000
0100
0000
0010
0001
0020
0000
,  // measure 37
0000
0000
0130
1000
0100
0010
0001
0010
0001
1000
0001
1000
0010
0100
0010
0100
,  // measure 38
0001
0000
1000
0000
0010
0000
0210
0000
0000
0301
1000
0001
0010
0100
0010
0100
,  // measure 39
2000
3001
0100
0220
0300
1030
0001
0022
,  // measure 40
0003
0000
0000
0000
0000
0000
0130
0000
0000
0000
0000
0000
1000
0000
0000
0000
0000
0000
0001
0000
0000
0000
0000
0000
0101
0000
0000
0000
0000
0000
0100
0020
0000
0000
0000
0000
0130
0000
0000
0001
0000
0000
1000
0000
0000
0000
0000
0000
,  // measure 41
1200
0000
0000
0000
0320
0000
0000
0130
1000
0000
0001
0000
0100
0000
0020
0000
,  // measure 42
0000
0000
0430
0000
0000
0000
0302
0000
0000
0003
2001
0000
0000
3200
0000
0300
,  // measure 43
0120
0000
0032
0000
1003
0010
0100
0102
,  // measure 44
0000
0000
1003
1200
0000
0340
0000
0030
,  // measure 45
0012
0000
2003
0000
3010
0100
0001
2001
,  // measure 46
0000
3100
0010
0002
0003
1000
0010
0410
,  // measure 47
0000
0301
1000
1040
0000
0130
0001
2001
,  // measure 48
0000
0000
3010
0000
0100
0000
0102
0000
0000
0000
1003
0100
0010
0100
2000
3000
,  // measure 49
1002
0000
0000
0000
0203
0000
0000
0310
1000
0000
0001
0000
0010
0000
0200
0000
,  // measure 50
0000
0000
0310
0000
0001
0000
2001
0000
0000
0000
3010
0100
0001
0100
0000
0000
,  // measure 51
0120
0000
2030
0000
3001
0010
0100
2100
,  // measure 52
0000
0000
3001
0000
0100
0010
0000
2010
0000
0000
0000
0000
3001
0000
0010
0000
,  // measure 53
0210
0000
1000
2000
0300
0000
3001
0101
,  // measure 54
0000
0000
0200
0000
0310
1000
0020
0000
0000
0000
1030
0000
0001
0000
0011
0000
,  // measure 55
0000
0010
0100
2100
0000
3001
0100
0020
,  // measure 56
0030
0000
1000
0000
0001
0000
0021
0000
0000
0000
0130
0000
0100
1000
0001
0000
,  // measure 57
0101
0000
0100
0000
0010
0000
1000
0000
0001
0000
0010
0100
0010
0100
1000
0001
,  // measure 58
2000
0000
0000
0000
3002
0000
0000
0103
0010
0000
2000
0000
3001
0010
0200
0000
,  // measure 59
0000
0000
0000
0000
0000
0000
1300
0000
0000
0000
0000
0000
0002
0000
0000
0000
0000
0000
0000
0000
0000
0103
0000
0000
0010
0000
0000
0000
0000
0000
2000
0000
0000
0000
0000
0000
3001
0010
0000
0000
0000
0000
0200
0000
0000
0000
0000
0000
,  // measure 60
0000
0000
1300
0000
0002
0000
1003
0010
2000
0000
3001
0100
0000
0100
0020
0000
,  // measure 61
0000
0000
1030
0000
0002
0000
1003
0100
0010
0001
0010
0001
1000
0010
1000
0000
,  // measure 62
1002
0000
0000
0000
0003
0000
1000
0200
0000
0000
0000
0000
0300
0000
0020
0000
,  // measure 63
0230
0000
0000
0000
0000
0000
1300
0001
2000
0000
3010
0100
0000
0100
0002
0000
0000
0000
0000
0000
0000
0000
0000
0000
0000
0000
0000
0000
0003
0000
0000
0000
;

//---------------dance-single - AceOfArrows (2018)----------------
#NOTES:
     dance-single:
     AceOfArrows (2018):
     Hard:
     7:
     0.442,0.000,0.007,0.836,0.178:
0000
0000
0000
0000
,
0000
0000
0000
0000
,
0002
0000
0000
1003
0100
0010
0100
2000
,
0000
0000
0000
0000
0000
3001
0000
0200
,
0000
0000
0000
0000
0000
0000
0310
0000
1000
0000
0001
0010
0000
0001
0020
0000
,
0000
0130
1000
0100
0020
0000
0230
0000
,
2300
0000
0000
0000
3000
0002
0000
0203
,
0000
0000
0310
0000
0000
0000
1000
0000
0000
0000
0002
0000
0000
0023
0000
0000
,
0230
0000
0000
0300
0000
0010
0001
0020
,
0000
0000
0034
0000
0000
0000
0000
0000
0000
0000
0000
0000
1003
0100
2000
0000
,
0000
0000
0000
0000
0000
0000
3001
0200
,
0000
0000
0000
0000
0000
0000
0310
2000
,
0000
0000
0000
0000
0000
0000
3001
0010
0002
0000
1003
0010
0000
1000
0020
0000
,
0000
0000
0000
0000
0000
0000
0230
0000
0000
0000
0000
0000
0301
1000
0002
0000
,
0000
0000
0000
0000
0000
0000
1003
0200
,
0000
0000
0000
0000
0000
0000
0310
0002
,
0000
0000
0000
0000
0000
0000
1003
0010
2000
0000
3001
0100
0000
0001
0200
0000
,
0000
0310
2000
0000
3002
0000
0023
0000
,
0230
0000
0000
0000
2300
0000
0000
3001
0010
0000
0100
0000
0010
0000
0002
0000
,
0000
0000
0003
0000
1000
0010
0100
0002
,
0000
0003
1000
0100
0010
0001
0010
0200
,
0000
0000
1300
0002
0000
0103
0010
0200
,
0000
0000
0000
0000
0302
0000
0000
1003
0100
0000
0010
0000
0100
0000
2000
0000
,
0000
0000
0000
0000
3000
0000
0001
0000
0200
0000
0000
0000
0320
0000
0000
1030
,
0000
0001
0010
0100
1000
0100
0010
0002
,
0000
1003
0020
0000
0130
0001
0200
0000
,
0320
0000
0000
0000
2030
0000
0000
3001
0010
0000
0100
0000
0010
0000
0002
0000
,
0000
0000
0003
0000
1000
0010
0100
0020
,
0000
0000
0030
0000
1000
0001
0000
0020
0000
0031
1000
0001
2000
0000
3010
0000
,
0200
0000
0302
0000
2003
0000
0000
3200
0000
0000
0000
0000
0300
0000
0220
0000
,
0000
0000
0330
0000
0020
0000
0000
0031
1000
0000
0100
0000
1000
0000
0002
0000
,
0000
0000
0000
0000
0003
0000
1000
0000
0020
0000
0000
0000
0230
0000
0000
0301
,
0000
1000
0100
0010
0001
0010
0100
2000
,
0000
0000
0000
0000
3001
0010
0000
0000
0002
0000
0000
0000
0003
0000
0000
0000
,
2000
0000
0000
0000
3002
0000
0000
0013
0100
0000
0010
0000
0001
0000
2000
0000
0000
0000
3001
0000
0010
0000
0002
0000
0000
0000
0003
0000
0000
0000
0000
0000
,
2000
0000
3001
0010
0100
1000
0100
0020
0000
0032
0000
0000
0003
1000
0100
2000
,
0000
0000
3001
0000
1000
0000
0002
0000
0000
0000
0000
0000
0003
0000
1000
0010
,
1000
0001
0010
0200
0000
0300
0000
0000
,
1000
0100
0010
0002
0000
1003
0100
0020
,
0000
0130
1000
0100
0000
0020
0230
0300
,
2000
0000
3002
0000
1003
0010
0100
0002
,
0000
0000
4003
0000
0000
0000
3200
0000
0000
0000
0320
0000
0000
0230
0000
0000
,
2300
0000
3002
0000
0103
0010
0100
0002
,
0000
0000
1003
0020
0000
0430
0000
0300
,
0002
0000
2003
0000
3100
0010
0001
0020
,
0000
0130
1000
0002
0003
1000
0001
0040
,
0000
0130
1000
0004
0000
1003
0010
0200
,
0000
0301
1000
0400
0000
0000
0300
0000
,
0020
0000
0230
0000
0300
1000
0001
0020
,
0000
0130
0010
0002
0000
2003
0000
3000
,
0020
0000
0230
0000
0301
1000
0100
2000
,
0000
0000
3001
0000
0010
0100
0000
2000
0000
0000
0000
0000
3001
0000
0100
0000
,
0020
0000
0130
0002
0000
0000
1003
0100
,
0000
0020
0000
0230
0000
1300
0001
0100
,
0000
0010
1000
0002
0000
1003
0100
0010
,
0000
0100
1000
0002
0000
1003
0020
0000
,
1030
0001
0010
0100
0010
0001
1000
0020
,
0000
0000
0000
0000
0000
0000
0130
0002
,
0000
0000
0000
0000
0000
0000
1003
0200
,
0000
0000
0000
0000
0000
0000
1300
0001
2000
0000
3100
0010
0000
0100
0020
0000
,
0000
0000
0000
0000
0000
0000
0034
0000
0000
0000
0000
0000
1003
0010
2000
0000
,
0000
0000
0000
0000
0000
0000
3001
0020
0000
0000
0000
0000
0000
0000
0230
0000
,
2300
0000
0000
0000
0000
0000
3001
0010
0002
0000
1003
0100
0000
1000
0200
0000
0000
0000
0000
0000
0000
0000
0000
0000
0000
0000
0000
0000
0300
0000
0000
0000
;

//---------------dance-single - AceOfArrows (2018)----------------
#NOTES:
     dance-single:
     AceOfArrows (2018):
     Medium:
     6:
     0.331,0.000,0.000,0.676,0.058:
0000
0000
0000
0000
,
0000
0000
0000
0000
,
2000
0000
0000
3001
0000
0010
0000
0002
,
0000
0000
0000
0000
0000
0003
0000
2000
,
0000
0000
0000
0000
0000
0000
3000
0000
0010
0000
0000
0010
0000
0000
0020
0000
,
0000
0030
1000
0001
,
2000
0000
0000
0000
3000
0001
0000
0200
,
0000
0000
0000
0300
0000
0001
0000
0000
,
2000
0000
0000
0000
3000
0001
0000
0020
,
0000
0000
0430
0000
0000
0000
1300
0002
,
0000
0000
0000
0000
0000
0000
1003
0020
,
0000
0000
0000
0000
0000
0000
1030
0002
,
0000
0000
0000
0000
0000
0000
0000
0000
1003
0000
0000
1000
0000
0000
2000
0000
,
0000
0000
0000
3000
0000
0000
0001
0200
,
0000
0000
0000
0000
0000
0000
0301
2000
,
0000
0000
0000
0000
0000
0000
3001
0020
,
0000
0000
0000
0000
0000
0000
0000
0000
0130
0000
0000
0100
0000
0000
0200
0000
,
0000
1300
0001
0010
,
0002
0000
2003
0000
3020
0000
1030
0002
,
0000
0003
0000
0000
1000
0000
0001
0020
,
0000
0030
0001
0000
1000
0000
0100
0020
,
0000
0000
0130
2000
0000
3001
0100
0002
,
0000
0000
2003
0000
3100
0010
0000
0200
,
0000
0000
0300
0000
0000
0000
1000
0000
0002
0000
0000
0000
2003
0000
0000
3100
,
0000
0010
0001
0000
2000
0000
3001
0020
,
0000
0130
2000
0000
3004
0000
0003
0000
,
2000
0000
3020
0000
0230
0000
0301
2000
,
0000
0000
3000
0000
0001
0000
0100
0020
,
0000
0030
1000
0000
0001
0010
0001
0000
,
1000
0000
0100
0000
2000
0000
0000
3002
0000
0000
0000
0000
0003
0000
0200
0000
,
0000
0300
0010
0000
1000
0000
0001
0020
,
0000
0000
0000
0000
0030
0000
0100
0000
2000
0000
0000
0000
3002
0000
0000
0103
,
0000
0000
0010
0000
1000
0000
0001
0020
,
0000
0130
0200
0300
,
1000
0000
0001
0000
1000
0000
0000
0100
0000
0000
0000
0200
0000
0300
0000
0000
,
1000
0000
0001
0000
1000
0000
0000
0020
0000
0000
0000
0030
0000
0000
0000
2000
,
0000
0000
3001
0020
0000
0000
0000
0031
,
1000
0000
0001
2000
0000
0000
3000
0000
,
0020
0000
1030
0002
0000
1003
0100
2000
,
0000
3001
0010
0001
0000
0020
0130
0000
,
0000
0000
0020
0000
0032
0000
1003
0020
,
0000
0000
4030
0000
0000
0000
3002
0000
0000
0000
1003
0000
0000
1000
0000
0000
,
2000
0000
3020
0000
0130
0000
0001
2000
,
0000
0000
3001
0020
0000
0430
0000
0300
,
2000
0000
3002
0000
0203
0000
0310
2000
,
0000
3001
0010
0002
0000
1003
0100
4000
,
0000
3001
0100
0004
0000
0103
0010
0200
,
0000
0301
1000
0004
0000
0000
0003
0000
,
2000
0000
3200
0000
0300
1000
0001
2000
,
0000
3001
0100
0002
0000
2003
0000
3000
,
0200
0000
0320
0000
0032
0000
1003
0020
,
0000
0000
1030
0000
0001
0000
0000
0002
0000
0000
0000
0000
1003
0000
0100
0000
,
2000
0000
3001
0020
0000
0000
0130
1000
,
0000
0002
0000
0203
0000
0301
1000
0001
,
0000
1000
0100
2000
0000
3001
0010
0001
,
0000
1000
0001
2000
0000
0000
0000
3000
,
0000
0001
0100
0000
0020
0000
1030
0002
,
0000
0000
0000
0000
0000
0000
1003
0200
,
0000
0000
0000
0000
0000
0000
0310
0002
,
0000
0000
0000
0000
0000
0000
0000
0000
1003
0000
0000
1000
0000
0000
2000
0000
,
0000
0000
0000
3040
0000
0000
1030
0002
,
0000
0000
0000
0000
0000
0000
1003
0200
0000
0000
0000
0000
0000
0000
0320
0000
,
0032
0000
0000
0000
0000
0000
0000
0000
1003
0000
0000
1000
0000
0000
2000
0000
0000
0000
0000
0000
0000
0000
0000
0000
0000
0000
0000
0000
3000
0000
0000
0000
;

//---------------dance-single - AceOfArrows (2018)----------------
#NOTES:
     dance-single:
     AceOfArrows (2018):
     Easy:
     4:
     0.183,0.000,0.000,0.371,0.004:
0000
0000
0000
0000
,
0000
0000
0000
0000
,
0001
0000
0000
0001
0000
0000
0000
0002
,
0000
0000
0000
0000
0000
0003
0000
2000
,
0000
0000
3000
0000
2000
0000
3000
2000
,
0000
3000
0001
0001
,
0002
0000
0000
0000
0003
0010
0000
0020
,
0000
0000
0000
0030
0000
0100
0000
0200
,
0000
0000
0000
0300
0000
1000
0000
4000
,
0000
0000
3000
0002
,
0000
0000
0003
2000
,
0000
0000
3000
0200
,
0000
0000
0300
0000
0020
0000
0030
0020
,
0000
0000
0030
0002
,
0000
0000
0003
2000
,
0000
0000
3000
0020
,
0000
0000
0030
0000
0200
0000
0300
0200
,
0000
0000
0300
0000
,
0001
0000
0001
0000
0001
0000
0000
0002
,
0000
0000
0003
0000
1000
0000
0000
1000
,
0000
0000
0010
0000
0010
0000
0000
0020
,
0000
0000
0000
0030
0000
0100
0000
0100
,
0000
0000
0001
0000
0001
0000
0000
0002
,
0000
0003
1000
1000
,
1000
0000
0000
0000
0100
0000
0000
0200
,
0000
0000
0300
0000
,
0010
0000
0010
0000
0010
0000
0000
0020
,
0000
0000
0030
0000
0001
0000
0000
0001
,
0000
1000
1000
1000
,
2000
0000
0000
0000
3000
0000
0000
0010
,
0000
0000
0010
0000
0010
0000
0000
0020
,
0000
0030
0100
0100
,
0100
0000
0001
0001
,
0002
0000
0003
0000
,
1000
1000
2000
3000
,
0001
0001
0002
0003
,
0010
0000
0000
0020
0000
0000
0030
0000
,
0100
0000
0000
0200
0000
0000
0300
0000
,
1000
0000
0000
2000
0000
3000
0000
0002
,
0000
0000
0000
0003
0000
0020
0030
0000
,
0000
0000
0100
0000
0100
0000
0000
0200
,
0000
0300
1000
1000
,
1000
0000
0000
0000
0001
0000
0000
0002
,
0000
0000
0000
0003
0000
0000
0000
0000
,
1000
0000
1000
0000
1000
0000
0000
0020
,
0000
0000
0000
0030
0000
0000
0000
0100
,
0000
0100
0000
0100
0000
0000
0000
0001
,
0000
0000
0000
0002
0000
0000
0003
0000
,
1000
0000
1000
0000
0000
0100
0000
0200
,
0000
0000
0000
0300
0000
0000
0000
0000
,
0010
0000
0010
0000
0010
0000
0000
0020
,
0000
0000
0000
0030
0000
0000
0001
0000
,
0001
0000
0000
0001
0000
0000
0000
1000
,
0000
1000
0000
2000
0000
0000
3000
0000
,
0010
0000
0000
0020
0000
0000
0030
0000
,
0100
0000
0000
0200
0000
0000
0000
0000
,
0300
0000
0001
0000
0001
0000
0000
0002
,
0000
0000
0003
2000
,
0000
0000
3000
0200
,
0000
0000
0300
0000
0020
0000
0030
0020
,
0000
0000
0030
0002
,
0000
0000
0003
2000
0000
0000
3000
0002
,
0000
0000
0003
0000
0200
0000
0300
0200
0000
0000
0000
0000
0000
0000
0300
0000
;

//---------------dance-single - AceOfArrows (2018)----------------
#NOTES:
     dance-single:
     AceOfArrows (2018):
     Beginner:
     2:
     0.128,0.000,0.000,0.276,0.000:
0000
0000
0000
0000
,
0000
0000
0000
0000
,
2000
0000
3000
0000
,
2000
0000
3000
0000
,
1000
0000
2000
0000
,
3000
0000
0001
0000
,
0002
0000
0003
0000
,
0002
0000
0003
0000
,
0002
0000
0003
0000
,
0004
0000
0003
0000
,
0200
0000
0300
0000
,
0200
0000
0300
0000
,
0100
0000
0200
0000
,
0300
0000
0000
0000
,
0002
0000
0003
0000
,
0002
0000
0003
0000
,
0001
0000
0002
0000
,
0003
0000
0000
0000
,
1000
0000
1000
0000
,
2000
0000
3000
0000
,
0010
0000
0010
0000
,
0020
0000
0030
0000
,
0100
0000
0100
0000
,
0100
0000
0200
0000
,
0300
0000
0001
0000
,
0002
0000
0003
0000
,
1000
0000
1000
0000
,
2000
0000
3000
0000
,
0010
0000
0010
0000
,
0020
0000
0030
0000
,
0100
0000
0100
0000
,
0100
0000
0200
0000
,
0300
0000
0001
0000
,
0002
0000
0003
0000
,
1000
0000
2000
3000
,
0001
0000
0002
0003
,
0100
0000
0100
0000
,
0200
0000
0300
0000
,
0010
0000
0010
0000
,
0010
0000
0020
0030
,
0000
0000
0100
0000
,
0100
0000
0200
0000
,
0300
0000
0001
0000
,
0002
0000
0003
0000
,
1000
0000
1000
0000
,
2000
0000
3000
0000
,
0010
0000
0010
0000
,
0020
0000
0030
0000
,
0200
0000
0300
0000
,
0001
0000
0001
0000
,
1000
0000
1000
0000
,
2000
0000
3000
0000
,
0100
0000
0200
0000
,
0300
0000
0010
0000
,
0010
0000
0010
0000
,
0010
0000
0020
0000
,
0030
0000
0001
0000
,
0002
0000
0003
0000
,
0002
0000
0003
0000
,
1000
0000
2000
0000
,
3000
0000
0000
0000
,
0002
0003
0002
0003
,
0100
0000
0200
0000
0000
0000
0000
0300
;
