#TITLE:Sweet Magic;
#SUBTITLE:(English Fandub);
#ARTIST:JubyPhonic;
#TITLETRANSLIT:;
#SUBTITLETRANSLIT:;
#ARTISTTRANSLIT:;
#GENRE:;
#CREDIT:Ace Of Arrows;
#BANNER:Sweet Magic - bn.png;
#BACKGROUND:Sweet Magic - bg.jpg;
#LYRICSPATH:;
#CDTITLE:Ace Of Arrows.png;
#MUSIC:Sweet Magic (English Fandub).ogg;
#OFFSET:8.860;
#SAMPLESTART:77.000;
#SAMPLELENGTH:12.000;
#SELECTABLE:YES;
#BPMS:0.000=123.000,208.000=61.500,216.000=123.000;
#STOPS:;
#BGCHANGES:19.000=Sweet Magic Video.avi=1.000=1=0=1===CrossFade==,
99999=-nosongbg-=1.000=0=0=0 // don't automatically add -songbackground-
;
#KEYSOUNDS:;

//---------------dance-single - Ace Of Arrows (2018)----------------
#NOTES:
     dance-single:
     Ace Of Arrows (2018):
     Challenge:
     10:
     0.809,0.000,0.548,1.000,0.481:
0000
0000
0000
0000
,
0000
0000
0000
0000
,
0000
0000
0000
0000
,
0000
0000
0000
0000
,
0000
0000
0000
0000
,
4000
0000
0000
0000
3010
0000
0400
0000
0000
0000
0301
0000
1000
0001
1000
0000
,
1010
0000
0010
0000
0100
0001
0000
1000
0000
0100
0000
0010
0100
0000
1000
0000
,
1001
0000
0001
0000
1000
0100
0000
1000
0001
0000
0100
0000
0110
0000
0000
0000
,
1010
0000
1000
0000
0001
0010
0000
0100
0000
1000
0000
0100
0010
0000
0001
0000
,
1001
0000
1000
0000
0010
0100
0000
0001
1000
0000
0100
0000
0010
0001
0010
0100
,
2000
3000
2002
3000
0203
0000
0310
1000
,
0002
0000
0013
0100
1000
0002
0000
0103
,
0000
0000
0000
0000
0220
0000
0300
0030
2020
0000
0000
3030
2002
0000
0000
3003
,
0011
0010
0000
0200
0000
0000
1300
0000
1001
0001
0000
0200
0000
0000
0310
0000
,
2000
3000
1002
0000
0013
0100
1000
0100
,
0020
0030
0022
0030
1003
0020
0000
0130
,
0000
0000
0000
0000
0202
0000
0000
0303
0220
0000
0000
0330
2020
0000
0000
3030
,
1001
0001
0000
0020
0000
0000
0130
0000
1100
1000
0000
0002
0000
0000
0103
0000
,
0220
0000
0300
0000
2030
0000
0000
0000
3002
0000
0013
0200
0000
0000
2300
0000
,
3001
0200
0000
0320
0000
0000
0130
0000
0202
0000
0300
0000
1003
0100
0000
0020
,
0000
0000
0000
0000
0230
0000
1300
0000
1002
0000
0103
0020
0000
0000
1030
0000
,
1001
0001
0000
0020
0000
0000
0130
0000
2200
0000
0300
0000
3001
0100
0001
0000
,
2002
0000
0003
0000
3200
0000
0000
0000
0320
0000
0130
2000
0000
0000
3001
0000
,
0101
0200
0000
0320
0000
0000
1030
0000
2002
0000
3000
0000
0023
0000
0230
0300
,
2200
0000
0300
0000
3001
0200
0300
0220
0000
0000
0000
0300
2030
0000
3001
0000
,
0022
0000
0003
0000
0230
0000
1300
0001
0100
0010
0100
0001
1000
0000
0010
0100
,
0020
0000
0000
0000
2030
0000
0000
3001
0020
0000
0230
0000
0300
0000
2000
0000
,
3002
0203
2300
3200
0302
0000
1003
2200
,
0000
0000
3300
0000
0200
0000
0000
0310
0002
0000
2003
0000
3000
0000
0010
0100
,
0001
0200
0000
0320
0000
0000
1030
0000
0002
0000
0000
0000
0013
0100
1000
0000
,
2002
0000
3000
0000
0203
0000
0000
0310
2000
0000
3002
0000
0003
0000
0010
0100
,
2000
3001
0100
0010
2010
0000
3001
0010
,
0220
0000
0030
0000
1300
0001
0000
0202
0000
0000
0003
0000
0310
0000
1000
0000
,
2002
0000
3000
0000
0023
0000
0130
2000
0000
3001
0100
0000
0010
1000
0001
1000
,
0020
0000
0230
0000
0302
0000
1003
0000
0200
0000
0310
0002
0000
0000
1003
0000
,
0020
0130
0001
1000
0200
0000
0300
0000
,
0020
0000
0130
0000
1000
0000
0001
0200
0000
0000
0310
0000
1000
0000
0002
0000
,
0200
0000
1000
0010
2000
0000
3303
0000
,
0200
0000
0310
0000
1000
0000
0001
0000
0020
0000
0130
2000
0000
0000
3001
0000
,
0100
0000
0010
0000
1000
0000
0001
0000
1000
0010
0100
0001
0100
0010
1000
0001
,
1000
0200
0300
0010
0011
0002
0003
1000
,
1020
0130
0120
1030
1020
0130
0120
1030
,
1001
0000
0001
0000
0010
0100
0000
0010
0000
0001
0000
1000
0010
0000
0100
0000
,
0101
0000
0001
0000
1000
0100
0000
0010
0001
1000
0001
0010
0100
1000
0001
2000
,
0002
0000
0000
0000
0010
0000
3003
0000
0001
0010
0000
0200
0000
0000
1300
0000
,
2002
0000
0000
0000
0010
0000
3003
0000
0001
0100
0000
0020
0000
0000
1030
0000
,
2002
0000
0000
0000
0010
0000
3003
0000
0022
0000
0000
0033
2200
0000
0000
3300
,
1002
0000
0203
0000
0320
0000
2030
3000
1001
0002
0000
0023
0000
0000
0130
0000
,
2200
0000
0000
0000
0010
0000
3300
0000
1000
0001
0000
2000
0000
0000
3002
0000
,
0200
0000
0000
0000
1000
0000
0303
0000
0001
1000
0000
0020
0000
0000
2030
0000
,
0002
0000
0000
0000
0010
0000
3003
0000
2020
0000
0000
3030
2002
0000
0000
3003
,
0011
0000
0010
0000
0100
0000
1000
0000
1001
0002
0000
0203
0000
0310
2000
0000
,
3002
0000
0000
0000
2003
0000
0000
0000
3200
0000
0000
0000
0320
0000
0000
0000
0031
0000
0010
0000
0002
0000
0000
0000
2003
0000
0000
0000
3002
0000
0000
0000
0013
0000
0100
0000
0010
0000
0100
0000
1000
0000
0100
0000
1000
0000
0100
0000
0010
0000
0001
0000
0010
0000
0001
0000
0020
0000
0000
0000
0230
0000
1300
0100
,
0010
0001
0010
0001
1000
0001
1000
0001
0100
0010
0100
0010
0200
0000
0302
0000
1003
0100
1000
0100
0010
0001
0010
0001
1000
0010
1000
0010
0100
0001
0100
0001
,
2000
0000
0000
0000
0000
0000
3100
0010
0002
0000
0000
0000
0000
0000
0000
0000
2003
0000
0000
0000
3010
0000
0200
0000
0000
0000
0000
0000
0301
0000
0000
0000
,
1001
0000
1000
0000
0100
0000
0010
0000
0011
0001
0000
2000
0000
0000
3010
0000
,
0110
0000
0100
0000
0002
0000
1003
0000
1100
0100
0000
0020
0000
0000
0031
0000
,
1001
0000
0000
0000
0000
0000
1000
0000
0000
0000
0000
0000
0020
0000
0000
0000
0000
0000
0000
0000
0000
0130
0000
0000
0001
0000
0000
2000
0000
0000
0000
0000
0000
3200
0000
0000
0000
0000
0000
0000
0000
0000
1300
0000
0100
0000
0010
0000
,
0002
0000
0000
0000
0000
0000
1003
0000
0000
0000
0000
0000
0001
0000
0010
0000
0100
0000
2000
0000
0000
0000
0000
0000
3001
0000
0000
0100
0000
0000
0000
0000
0000
0020
0000
0000
0000
0000
0000
0000
0000
0000
1030
0000
0000
0000
0000
0000
,
0001
0000
0010
0000
0100
0000
1000
0000
0000
0001
0000
0000
0100
0000
0000
0010
0000
0000
1000
0000
0000
0010
0000
0000
0100
0000
0000
0001
0000
0000
1000
0000
0000
0100
0000
0000
0010
0000
0000
0100
0000
0000
0000
0000
0000
2000
0000
0000
,
0000
0000
3001
0100
0010
0100
0000
0002
0000
0000
1003
0020
0000
0130
0001
1000
,
0000
0000
0001
0010
0100
0010
0000
0002
0000
1003
0010
1000
0001
0010
0100
1000
,
1002
0103
0020
1030
1002
0013
0200
1300
,
1002
0000
0103
0000
0020
0000
1030
0001
0020
0000
0130
0000
2000
0000
3001
0100
,
0020
1030
0002
1003
1020
0130
0002
1003
,
1200
0000
0310
0000
0002
0000
0013
0100
2000
0000
3001
0000
0100
0010
1000
0010
,
0210
0301
0200
0310
2010
3001
0020
0130
,
2100
3001
0200
0310
2010
3001
0020
0130
,
2100
0000
3001
0000
0200
0000
0310
0000
2010
0000
3001
0000
0010
0100
1000
0100
,
0020
0000
0031
0000
1000
0000
0001
0100
0010
1000
0010
0100
0001
1000
0001
0000
,
0021
0000
0130
0000
1000
0000
0001
0000
0100
0000
0010
2000
0000
0000
3001
0000
,
0021
0130
1000
0001
0202
0000
0303
0000
,
0001
0000
1000
0000
0200
0000
0310
0200
0000
0000
1300
0000
0001
0000
1000
0000
,
2200
0000
0010
0001
0020
0000
3330
0000
,
2000
0000
3001
0000
0100
0000
0010
0000
2000
0000
3001
0020
0000
0000
0130
0000
,
1100
0000
1000
0000
0001
0000
0200
0000
0310
1000
0001
1000
0100
0000
0010
0000
,
0012
0000
1003
0020
0000
0030
0200
0300
0101
0000
0001
2000
0000
3000
0100
0000
,
0120
0000
0031
0000
1002
0000
0013
0000
0012
0000
1003
0000
1002
0000
0023
0030
,
0110
0000
0100
0000
1000
0001
0000
0101
0000
0100
0000
0010
1000
0000
0001
0000
,
0011
0000
0010
0000
0100
1000
0000
0001
0100
0000
0010
0000
1010
0000
0000
0000
,
1001
0000
0001
0000
0010
0100
0000
1100
0000
1000
0000
0001
0100
0000
0010
0000
,
1010
0000
1000
0000
0001
0010
0000
0100
0010
0001
1000
0001
0100
0010
1000
0001
,
0202
0000
0303
0000
0222
0000
0333
0000
0100
0010
0000
2000
0000
0000
3100
0000
,
2220
0000
0000
0000
3330
0000
0000
0000
0010
0001
0000
2000
0000
0000
3010
0000
,
0220
0000
0330
0000
0202
0303
2002
3003
,
1200
0000
0310
0000
0002
0000
1003
0000
1010
0010
0000
0200
0000
0000
0002
0000
,
2020
0000
0000
0000
3333
0000
0000
0000
0001
1000
0000
0200
0000
0000
0320
0000
,
0002
0000
0000
0000
1000
0000
0033
0000
0001
1000
0000
0020
0000
0000
2030
0000
,
0020
0000
0001
3030
2002
3003
0022
0033
,
0210
0000
2300
0000
3002
0000
0103
0000
0110
0020
0000
2030
0000
0000
3001
0000
,
0202
0000
0000
0000
0010
0000
0303
0000
0100
0010
0000
2000
0000
0000
3002
0000
,
2000
0000
0000
0000
0010
0000
3003
0000
0001
0010
0000
0200
0000
0000
0320
0000
,
0200
0000
1000
0330
0022
0033
2002
3003
,
1020
0000
0130
0000
0002
0000
1003
0000
0100
0010
0000
0002
0000
0000
1003
0000
,
2200
3000
0320
0032
0000
2003
0010
0001
,
0000
0000
0000
0000
3010
0000
0100
0000
0002
0000
2003
0000
3200
0000
0320
0030
,
0012
0000
2003
3010
0220
0330
0102
1003
,
2020
3000
0230
0301
2000
3100
0020
0130
,
2200
0300
3002
0103
0120
0000
2030
3001
,
0201
0000
0320
1030
0002
0013
0100
1000
,
1001
0000
0001
0000
0100
0010
0000
1000
0000
0001
0000
0010
0100
0000
1000
0000
,
0001
0100
0000
0001
1000
0000
0002
0020
0000
0000
0003
0000
0230
0000
2300
3000
,
2002
3000
0203
0310
2010
3001
0020
0130
,
2100
3001
0200
0310
2010
3001
0020
0130
,
2100
3001
0200
0310
2010
3001
0020
0130
,
2100
3001
0200
0310
2000
3001
2000
3100
,
0120
0031
2000
3010
0210
0301
2000
3100
,
0120
0031
2000
3010
0100
0001
1000
0100
,
0120
0031
2000
3010
0210
0301
2000
3100
,
0120
0031
2000
3010
0200
0301
2000
3100
;

//---------------dance-single - Ace Of Arrows (2018)----------------
#NOTES:
     dance-single:
     Ace Of Arrows (2018):
     Hard:
     8:
     0.578,0.000,0.074,1.000,0.292:
0000
0000
0000
0000
,
0000
0000
0000
0000
,
0000
0000
0000
0000
,
0000
0000
0000
0000
,
0000
0000
0000
0000
,
0004
0000
0013
0400
0000
1300
0001
0100
,
0001
0000
1000
0000
0100
0010
0000
0001
0000
0010
0000
0100
1000
0000
0001
0000
,
1000
0000
0010
0000
1000
0001
0000
0001
1000
0000
0010
0000
1000
0000
0000
0000
,
0001
0000
0100
0000
0010
1000
0000
0001
0000
1000
0000
0100
0010
0000
0001
0000
,
1000
0000
0010
0000
1000
0001
0000
0001
1000
0000
0100
0000
0010
0000
0001
0000
,
2000
0000
3020
0000
0030
0000
1000
0001
,
2000
0000
3200
0000
0300
0020
0000
0031
,
0000
2001
3020
0230
,
0301
1000
0000
0200
0000
0000
0310
0000
0100
1000
0000
0002
0000
0000
1003
0000
,
0100
0000
0220
0000
0330
0000
0010
0001
,
0020
0000
0230
0000
0300
2000
0000
3001
,
0000
0201
0320
2030
,
3001
0010
0000
0200
0000
0000
0310
0000
0001
1000
0000
0020
0000
0000
0130
0000
,
0002
0000
0000
0000
2003
0000
0000
0000
3002
0000
0013
0200
0000
0000
1300
0000
,
0001
0100
0000
0020
0000
0000
1030
0000
0002
0000
0000
0000
0000
0000
0003
0000
,
0000
0000
0000
0000
2000
0000
3100
0000
0020
0000
0130
2000
0000
0000
3001
0000
,
0010
0200
0000
2300
0000
0000
3002
0000
0200
0000
0000
0000
0303
0000
0000
0000
,
0000
0000
0000
0000
0002
0000
0000
0000
2003
0000
3010
0200
0000
0000
0302
0000
,
1003
0200
0000
0320
0000
0000
0130
0000
2000
0000
0000
0000
3002
0000
0103
0000
,
0020
0000
0000
0000
1030
0001
0000
0020
0000
0000
0000
0000
0130
0000
1000
0000
,
0002
0000
0000
0000
2003
0000
3010
0200
0000
0000
0000
0000
0300
0000
0000
0000
,
0102
0000
0000
0000
2003
0000
0000
3100
0020
0000
0032
0000
0003
0000
1000
0000
,
0020
0130
0001
1000
0200
0000
0310
0002
,
0003
0000
0000
0000
2000
0000
0000
3010
0200
0000
0302
0000
0003
0000
1000
0100
,
1000
0200
0000
0320
0000
0000
0031
0000
2000
0000
0000
0000
3000
0000
0000
0000
,
1002
0000
0000
0000
0203
0000
0000
0310
2000
0000
3002
0000
0003
0000
0010
0100
,
0020
0031
1000
0010
0200
0000
0301
1000
,
0200
0000
0000
0000
0310
0001
0000
2000
0000
0000
0000
0000
3010
0000
0100
0000
,
0002
0000
0000
0000
0203
0000
0310
2000
0000
0000
0000
0000
3000
0000
0000
0000
,
0001
0000
0010
0000
0100
0000
1000
0000
0100
0000
0010
0002
0000
0000
1003
0000
,
0010
0100
0001
0100
0020
0000
0030
0000
,
1000
0000
0001
0000
0010
0000
0001
2000
0000
0000
3010
0000
0100
0000
0001
0000
,
2000
0000
3001
0020
0200
0000
0330
0000
,
0010
0000
0001
0000
1000
0000
0010
0000
1000
0000
0001
0020
0000
0000
0130
0000
,
1000
0000
0100
0000
0010
0000
0001
0000
2000
0000
0000
0000
3000
0000
0001
0010
,
0002
2003
3000
0010
0200
0302
0003
1000
,
0020
0130
0020
0130
0020
0130
0020
0130
,
0001
0000
1000
0000
0001
0010
0000
0100
0000
1000
0000
0100
0010
0000
0001
0000
,
1000
0000
0001
0000
0100
0010
0000
0010
0100
0000
0001
0000
1000
0000
0000
0000
,
2200
0000
0000
0000
3300
0000
0000
0000
0100
0010
0000
0002
0000
0000
1003
0000
,
2020
0000
0000
0000
3030
0000
0000
0000
0010
0100
0000
0002
0000
0000
1003
0000
,
2002
3003
0002
0023
,
0130
0000
1000
0000
0001
0000
0100
0000
0010
1000
0000
0002
0000
0000
0013
0000
,
0220
0000
0000
0000
0330
0000
0000
0000
0100
1000
0000
0002
0000
0000
1003
0000
,
0020
0000
0000
0000
0030
0000
0000
0000
0100
0001
0000
2000
0000
0000
3001
0000
,
0200
0300
0020
2030
,
3001
0000
0010
0000
0100
0000
1000
0000
0100
0010
0000
0002
0000
1003
0001
0000
,
1000
0000
0001
0000
1000
0000
0001
0000
1000
0000
0010
0000
0200
0000
0300
0000
0004
4000
0000
0000
0000
0000
0000
0000
0000
0000
0000
0000
3003
0000
0000
0000
,
0004
0400
0000
0000
0000
0000
0000
0000
0000
0000
0000
0000
0303
0000
0000
0000
0400
0040
0000
0000
0000
0000
0000
0000
0000
0000
0000
0000
0330
0000
0000
0000
,
0020
0000
0000
0000
2030
0000
0000
0000
3002
0000
0013
0200
0000
0000
1300
0000
,
0001
0000
0100
0000
0010
0000
0100
0000
0001
1000
0000
0200
0000
0000
0310
0000
,
0001
0000
1000
0000
0010
0000
0100
0000
0010
1000
0000
0002
0000
0000
0013
0000
,
0100
0000
1000
0000
0002
0000
0000
0000
1003
0100
0000
0020
0000
0000
0230
0000
,
2300
0000
0000
0000
3002
0000
0000
0000
0103
0010
0000
0200
0000
0000
0302
0000
,
1003
0000
0001
0000
0100
0010
0100
0000
0001
0000
1000
0000
0001
0010
0000
0200
,
0000
0000
1300
0000
0001
0100
0000
0002
0000
0000
1003
0020
0000
0000
0130
0002
,
0000
0000
1003
0000
0001
0010
0000
0200
0000
0000
0000
0000
0000
0000
0300
0000
,
2000
0000
3002
0013
0200
0000
2300
3001
,
0200
0000
0320
1030
0001
0010
0100
1000
,
0002
0000
0203
0310
2000
0000
3002
0013
,
0200
0000
2300
3001
0200
0301
0200
0301
,
2000
0000
3002
0103
0020
0000
2030
3001
,
0020
0000
0230
1300
0001
0100
0010
1000
,
0002
0000
2003
3100
0020
0000
0230
1300
,
0002
0000
0000
0000
0000
0000
4003
0040
0000
0000
0000
0000
0000
0000
3030
0000
,
1000
0000
0001
0000
0020
0000
0031
0000
1000
0000
0010
0200
0000
0000
0301
0000
,
2000
3100
0010
0001
2000
0000
3000
0000
,
0020
0000
0130
0000
0002
0000
1003
0200
0000
0000
0310
0000
0001
0000
1000
0000
,
0020
0000
0130
0001
2000
0000
3000
0000
,
0020
0000
0130
0000
0001
0000
1000
0000
0100
0000
0010
0002
0000
0000
1003
0000
,
0010
1000
0002
1003
0020
0000
0030
1000
,
0001
0000
0010
0200
0300
0000
1000
0000
0002
0000
0103
0020
0030
0000
1000
0000
,
0002
0013
0002
1003
0002
0103
0002
1003
,
0010
0000
0100
0000
0001
1000
0000
0100
0000
0010
0000
0001
1000
0000
0010
0000
,
1000
0000
0001
0000
0100
0010
0000
0010
0100
0000
0001
0000
1000
0000
0000
0000
,
0100
0000
0010
0000
0100
1000
0000
0001
0000
1000
0000
0010
0100
0000
0010
0000
,
1000
0000
0001
0000
0010
0100
0000
0100
0010
0000
0001
0000
1000
0000
0000
0000
,
2002
0000
0000
0000
3003
0000
0000
0000
0001
0100
0000
0020
0000
0000
1030
0000
,
2002
0000
0000
0000
3003
0000
0000
0000
0001
0010
0000
0200
0000
0000
1300
0000
,
2002
3003
0002
0203
,
0320
0000
1030
0000
0001
0000
0010
0000
0100
1000
0000
0002
0000
0000
0103
0000
,
0220
0000
0000
0000
0330
0000
0000
0000
0010
1000
0000
0002
0000
0000
0013
0000
,
0200
0000
0000
0000
0300
0000
0000
0000
1000
0001
0000
0200
0000
0000
0310
0000
,
2000
3000
1002
0023
,
0230
0000
1300
0000
0001
0000
0100
0000
0001
2000
0000
3200
0000
0000
0310
0000
,
0022
0000
0000
0000
0033
0000
0000
0000
0001
2000
0000
3020
0000
0000
0130
0000
,
0002
0000
0000
0000
0003
0000
0000
0000
1000
0100
0000
0020
0000
0000
0130
0000
,
2200
3300
2000
3002
,
0203
0000
0310
0000
1000
0000
0001
0000
0010
0200
0000
2300
0000
0000
3001
0000
,
0202
0000
0003
0320
0000
2000
0000
0000
,
0000
0000
0030
3001
0020
0031
2000
3100
,
0020
0000
0230
1300
0002
0000
2003
0000
,
3010
0100
0000
0002
0000
0000
1003
0000
0200
0000
0310
0000
0200
0000
0310
0000
,
0002
0000
2003
3010
0200
0000
0302
1003
,
0200
0000
0320
0130
1000
0001
0100
0010
,
1000
0000
0001
0000
0010
0100
0000
1000
0000
0001
0000
1000
0010
0000
0100
0000
,
0001
1000
0000
1000
0001
0000
0001
0020
0000
0000
0000
0000
0230
0000
1300
0000
,
0002
0000
2003
3100
0020
0000
0230
1300
,
0002
0000
2003
3010
0100
0001
1000
0100
,
0020
0000
0230
1300
0002
0000
2003
3010
,
0200
0000
0301
1000
0002
0013
0002
1003
,
0020
0000
0230
0301
2000
0000
3200
0310
,
0002
0000
2003
3010
0100
0001
1000
0100
,
0020
0000
0230
1300
0002
0000
2003
3010
,
0200
0000
0302
1003
0020
1030
0002
0103
;

//---------------dance-single - Ace Of Arrows (2018)----------------
#NOTES:
     dance-single:
     Ace Of Arrows (2018):
     Medium:
     6:
     0.392,0.000,0.000,0.740,0.126:
0000
0000
0000
0000
,
0000
0000
0000
0000
,
0000
0000
0000
0000
,
0000
0000
0000
0000
,
0000
0000
0000
0000
,
0004
0000
0000
0003
,
1000
0000
0100
0000
1000
0000
0000
0001
0000
1000
0000
0000
0001
0000
0000
0000
,
0010
0100
0010
0000
0001
0010
0001
0000
,
1000
0000
0001
0000
1000
0000
0000
0010
0000
1000
0000
0000
0010
0000
0000
0000
,
0100
0010
0100
0000
0001
1000
0001
0000
,
2000
0000
3200
0000
0300
0000
1000
0001
,
2000
0000
3001
0200
0000
0320
0000
1030
,
0000
0002
0023
0230
,
1300
0000
0000
2000
0000
0000
3001
0000
0100
0000
0000
0200
0000
0000
0301
0000
,
1000
0000
0002
0000
0003
0000
1000
0100
,
2000
0000
3002
0000
0000
0203
0000
0310
,
0000
2000
3002
0023
,
0130
0000
0000
0200
0000
0000
1300
0000
0001
0000
0000
0002
0000
0000
1003
0000
,
0010
0000
0000
0000
2000
0000
0000
0000
3001
0000
0000
0001
0000
0000
0010
0000
,
0100
0000
0000
2000
0000
0000
3001
0000
0200
0000
0000
0000
0000
0000
0300
0000
,
0000
0000
0000
0000
0001
0000
0100
0000
0002
0000
0000
2003
0000
0000
3000
0000
,
0010
0000
0000
2000
0000
0000
3001
0000
0200
0000
0000
0000
0000
0000
0300
0000
,
0000
0000
0000
0000
0020
0000
0000
0000
0130
0000
0000
0200
0000
0000
0301
0000
,
2000
0000
0000
3002
0000
0000
0013
0000
0200
0000
0000
0000
1300
0000
0100
0000
,
2000
0000
0000
0000
3001
0000
0000
0002
0000
0000
0000
0000
0103
0000
0010
0000
,
0200
0000
0000
0000
0301
0000
0000
0002
0000
0000
0000
0000
0003
0000
0000
0000
,
0000
0000
2000
0000
3001
0020
0030
0001
,
2000
0000
3010
0100
0020
0000
1030
0002
,
0003
0000
2000
0000
3100
0020
0030
0001
,
2000
0000
0000
3002
0000
0000
0013
0000
0200
0000
0000
0000
0300
0000
0000
0000
,
0000
0000
2000
0000
3001
0020
0030
0001
,
2000
0000
3010
0100
0020
0000
1030
0001
,
2000
0000
0000
0000
3100
0000
0000
0200
0000
0000
0000
0000
1300
0000
0001
0000
,
2000
0000
0000
0000
3010
0000
0000
0020
0000
0000
0000
0000
0030
0000
0000
0000
,
1000
0000
0010
0000
1000
0000
0000
0000
0001
0000
0000
0002
0000
0000
0003
0000
,
1000
0100
1000
0000
0002
0000
0003
0000
,
0010
0100
0010
0000
0001
0010
0001
0000
,
2000
0000
0001
0001
0002
0000
3003
0000
,
1000
0000
0010
0000
1000
0000
0000
0000
0001
0000
0000
0001
0000
0000
0000
0000
,
1000
0001
1000
0000
0020
0000
0030
1000
,
0002
0003
0000
0010
0100
0010
0000
0000
,
0001
1000
0001
0000
1000
0100
1000
0000
,
0001
0000
0100
0000
0001
0000
0000
1000
0000
0100
0000
0000
1000
0000
0000
0000
,
0100
0010
0100
0000
1000
0100
1000
0000
,
0002
0000
0000
0000
0003
0000
0000
0000
2000
0000
0000
3200
0000
0000
0310
0000
,
0002
0000
0000
0000
0003
0000
0000
0000
1000
0000
0000
0020
0000
0000
0130
0000
,
0002
0003
2000
3020
,
1030
0000
0001
0000
2000
0000
0000
0000
3001
0000
0000
0002
0000
0000
0013
0000
,
0200
0000
0000
0000
0300
0000
0000
0000
0010
0000
0000
0020
0000
0000
0130
0000
,
2000
0000
0000
0000
3000
0000
0000
0000
0001
0000
0000
0002
0000
0000
1003
0000
,
0020
0030
2000
3002
,
1003
0000
0010
0000
1000
0000
0000
0000
0001
0000
0000
0002
0000
0000
0013
0000
,
0100
0100
0200
0300
4000
0000
0000
3000
,
0004
0000
0000
0003
0400
0000
0000
0300
,
0000
0000
0000
0000
0020
0000
0000
0000
1030
0000
0000
2000
0000
0000
0000
0000
,
3001
0000
0010
0000
0001
0000
0000
0000
1000
0000
0000
2000
0000
0000
0000
0000
,
3001
0000
0100
0000
0001
0000
0000
0000
1000
0000
0000
2000
0000
0000
0000
0000
,
3001
0000
1000
0000
0002
0000
0000
0000
0013
0000
0000
0020
0000
0000
0000
0000
,
0030
0000
0000
0000
0200
0000
0000
0000
1300
0000
0000
1000
0000
0000
0000
0000
,
0004
0000
0000
0003
,
1000
0000
0000
0000
0010
0000
0000
0020
0000
0000
0000
0130
0000
0000
0100
0000
,
0000
0000
0000
0000
0001
0000
0000
0002
0000
0000
4003
0000
0000
0000
0000
0000
,
3000
0000
0002
0013
0000
0000
0002
1003
,
0000
0000
0002
0000
1003
0100
2000
0000
,
3000
0000
0200
0310
0000
0000
0200
1300
,
0000
0000
0002
0000
0203
0310
0200
0000
,
0300
0000
0002
1003
0000
0000
0002
0013
,
0000
0000
0200
0000
1300
0001
2000
0000
,
3000
0000
0020
0130
0000
0000
0020
1030
,
0020
0000
0000
0430
0000
0000
0300
0000
,
0001
0000
1000
0000
0001
0000
0000
0000
0010
0000
0000
0020
0000
0000
0000
0000
,
0031
1000
0002
0000
0203
0000
0300
0000
,
0010
0100
0010
0000
1000
0001
1000
0000
,
0200
0000
0010
0010
0020
0000
0330
0000
,
0010
0000
0001
0000
0010
0000
0000
0000
0100
0000
0000
0200
0000
0000
0000
0000
,
1300
0001
2000
0000
3020
0000
0030
0000
,
0100
0000
0000
0100
0000
0000
0000
0000
0001
0000
0000
0001
0000
0000
0000
0000
,
1000
0001
1000
0000
0100
0010
0100
0000
,
1000
0000
0100
0000
1000
0000
0000
0001
0000
0100
0000
0000
0001
0000
0000
0000
,
1000
0010
1000
0000
0010
0100
0010
0000
,
0100
0000
0001
0000
0100
0000
0000
0010
0000
1000
0000
0000
0010
0000
0000
0000
,
1000
0001
1000
0000
0100
0010
0100
0000
,
2000
0000
0000
0000
3000
0000
0000
0000
0001
0000
0000
0020
0000
0000
0031
0000
,
2000
0000
0000
0000
3000
0000
0000
0000
0010
0000
0000
0020
0000
0000
1030
0000
,
0002
0003
2000
3200
,
0310
0000
0100
0000
0020
0000
0000
0000
0031
0000
0000
0002
0000
0000
1003
0000
,
0020
0000
0000
0000
0030
0000
0000
0000
1000
0000
0000
2000
0000
0000
3001
0000
,
0020
0000
0000
0000
0030
0000
0000
0000
0100
0000
0000
0200
0000
0000
1300
0000
,
0002
0003
2000
3020
,
1030
0000
0001
0000
1000
0000
0000
0000
0010
0000
0000
0020
0000
0000
0130
0000
,
0002
0000
0000
0000
0003
0000
0000
0000
1000
0000
0000
2000
0000
0000
3100
0000
,
0020
0000
0000
0000
0030
0000
0000
0000
0001
0000
0000
0002
0000
0000
1003
0000
,
0200
0300
2000
3002
,
0103
0000
0010
0000
0100
0000
0000
0000
0001
0000
0000
0002
0000
0000
1003
0000
,
0200
0000
0300
0020
0000
0002
0000
0000
,
0030
0000
0000
0000
1003
0010
2000
0000
,
3000
0000
0002
0013
0000
0000
0002
1003
,
0000
0000
0020
0000
1030
0001
2000
0000
,
3002
0000
0000
0203
0000
0000
0000
0000
0000
0000
0000
0000
0302
0000
1003
0000
,
0000
0000
0002
0000
0013
0100
0020
0000
,
0031
0000
1000
0000
0001
0000
0000
1000
0000
0100
0000
0000
1000
0000
0000
0000
,
0001
0000
0000
0000
1000
0000
0000
0020
0000
0000
0000
0000
0230
0000
0000
0000
,
0302
0000
2003
3100
0000
0000
2000
3001
,
0000
0000
0200
0000
0310
1000
0020
0000
,
0030
0000
0200
0301
0000
0000
0200
0310
,
0000
0000
2000
0000
3002
0013
0002
0000
,
0003
0000
0020
0130
0000
0000
0020
0031
,
0000
0000
0020
0000
0130
1000
0200
0000
,
0300
0000
2000
3001
0000
0000
2000
3010
,
0000
0000
2000
0000
3002
0013
0200
1300
;

//---------------dance-single - Ace Of Arrows (2018)----------------
#NOTES:
     dance-single:
     Ace Of Arrows (2018):
     Easy:
     3:
     0.224,0.000,0.000,0.405,0.000:
0000
0000
0000
0000
,
0000
0000
0000
0000
,
0000
0000
0000
0000
,
0000
0000
0000
0000
,
0000
0000
0000
0000
,
4000
0000
3000
0000
,
0001
0001
0001
0000
,
0010
0010
0010
0000
,
0100
0100
0100
0000
,
1000
1000
1000
0000
,
0000
0002
0003
0000
,
2000
3000
0000
0020
,
0000
0030
0010
0000
,
0100
0100
0200
0300
,
0001
0002
0003
0020
,
0030
0000
0000
0002
,
0003
0001
0000
0000
,
1000
1000
2000
0000
,
3000
0010
0020
0030
,
0100
0000
0100
0000
0200
0000
0000
0300
,
0000
0001
0002
0003
,
1000
0000
1000
0000
2000
0000
0000
3000
,
0000
0001
0002
0003
,
0010
0010
0020
0030
,
0100
0100
0200
0300
,
1000
1000
2000
3000
,
0000
0001
0001
0000
,
0100
0100
0200
0000
,
0300
0010
0010
0000
,
1000
0000
1000
0000
2000
0000
0000
3000
,
0000
0001
0001
0000
,
0100
0100
0200
0300
,
0010
0010
0020
0030
,
1000
1000
2000
3000
,
0001
0001
0002
0003
,
0010
0010
0020
0030
,
0001
0001
0002
0003
,
1000
1000
2000
3000
,
0010
0010
0020
0030
,
0100
0100
0200
0300
,
0001
0000
1000
0000
,
0010
0010
0020
0030
,
0100
0100
0100
0000
,
0001
0001
0001
0000
,
2000
3000
0100
0100
,
0200
0300
0010
0010
,
0020
0030
0001
0001
,
0002
0003
1000
1000
,
2000
3000
0010
0010
,
0020
0030
0100
0100
,
0200
0300
0001
0001
,
0002
0003
2000
3000
,
0100
0100
0400
0300
,
4000
3000
0004
0003
,
0000
1000
2000
3000
,
0010
0010
0020
0030
,
0100
0100
0200
0300
,
0001
0001
0002
0003
,
0000
1000
2000
3000
,
0400
0000
0000
0000
,
0300
0000
0020
0000
0000
0030
0000
0000
,
0001
0001
0002
0000
,
0003
0000
2000
3000
0000
0000
0020
0030
,
0000
0100
0100
0200
,
0300
0000
0002
0003
0000
0000
2000
3000
,
0000
0000
0010
0000
0040
0000
0000
0030
,
0000
0000
0200
0300
0000
0000
0002
0003
,
0000
1000
1000
2000
,
3000
0000
0002
0003
0000
0000
0100
0000
,
0200
0000
0300
0000
,
0010
0010
0020
0030
,
1000
1000
2000
3000
,
0001
0001
0002
0003
,
0010
0010
0020
0030
,
0100
0100
0200
0300
,
1000
1000
2000
3000
,
0002
0003
0200
0300
,
0010
0010
0020
0030
,
1000
1000
1000
0000
,
0001
0001
0001
0000
,
0010
0010
0010
0000
,
0100
0100
0100
0000
,
2000
3000
0001
0001
,
0002
0003
0100
0100
,
0200
0300
0010
0010
,
0020
0030
0100
0100
,
0200
0300
0001
0001
,
0002
0003
1000
1000
,
2000
3000
0100
0100
,
0200
0300
0010
0010
,
0020
0030
0001
0001
,
0002
0003
1000
1000
,
2000
3000
0010
0010
,
0020
0030
0100
0100
,
0200
0300
0002
0000
,
0000
0000
1003
1000
,
0000
0000
0020
0030
0000
0000
0200
0300
,
0000
0000
0001
0001
,
0002
0000
0000
0000
0003
0000
2000
3000
,
0000
0002
0003
0000
,
1000
1000
1000
0000
,
0010
0010
0020
0030
,
0100
0000
0200
0300
0000
0000
0002
0003
,
0000
1000
1000
2000
,
3000
0000
0020
0030
0000
0000
0200
0300
,
0000
0000
0001
0000
0004
0000
0000
0003
,
0000
0000
2000
3000
0000
0000
0200
0300
,
0000
0010
0020
0000
,
0030
0000
0002
0003
0000
0000
2000
3000
,
0000
0000
0100
0000
0400
0000
0000
0300
;

//---------------dance-single - Ace Of Arrows (2018)----------------
#NOTES:
     dance-single:
     Ace Of Arrows (2018):
     Beginner:
     1:
     0.114,0.000,0.000,0.161,0.000: // measure 1
0000
0000
0000
0000
,  // measure 2
0000
0000
0000
0000
,  // measure 3
0000
0000
0000
0000
,  // measure 4
0000
0000
0000
0000
,  // measure 5
0000
0000
0000
0000
,  // measure 6
0004
0000
0003
0000
,  // measure 7
4000
0000
3000
0000
,  // measure 8
4000
0000
3000
0000
,  // measure 9
0004
0000
0003
0000
,  // measure 10
0004
0000
0003
0000
,  // measure 11
0000
0100
0000
0000
,  // measure 12
0200
0000
0000
0000
,  // measure 13
0300
0000
0000
0000
,  // measure 14
0001
0000
0001
0000
,  // measure 15
0002
0000
0003
0000
,  // measure 16
0020
0000
0000
0000
,  // measure 17
0030
0000
0000
0000
,  // measure 18
0100
0000
0200
0000
,  // measure 19
0300
0000
1000
0000
,  // measure 20
1000
0000
0000
0000
2000
0000
0000
3000
,  // measure 21
0000
0000
0001
0000
,  // measure 22
0001
0000
0000
0000
0002
0000
0000
0003
,  // measure 23
0000
0000
0100
0000
,  // measure 24
0100
0000
0100
0000
,  // measure 25
0010
0000
0010
0000
,  // measure 26
0020
0000
0030
0000
,  // measure 27
0000
0000
1000
0000
,  // measure 28
2000
0000
3000
0000
,  // measure 29
1000
0000
0001
0000
,  // measure 30
0001
0000
0000
0000
0002
0000
0000
0003
,  // measure 31
0000
0000
0010
0000
,  // measure 32
0010
0000
0010
0000
,  // measure 33
0100
0000
0100
0000
,  // measure 34
0200
0000
0300
0000
,  // measure 35
1000
0000
1000
0000
,  // measure 36
0001
0000
0001
0000
,  // measure 37
0010
0000
0010
0000
,  // measure 38
0020
0000
0030
0000
,  // measure 39
0100
0000
0100
0000
,  // measure 40
0200
0000
0300
0000
,  // measure 41
1000
0000
1000
0000
,  // measure 42
4000
0000
3000
0000
,  // measure 43
0040
0000
0030
0000
,  // measure 44
0400
0000
0300
0000
,  // measure 45
0001
0000
0001
0000
,  // measure 46
0001
0000
2000
0000
,  // measure 47
3000
0000
0100
0000
,  // measure 48
0100
0000
0200
0000
,  // measure 49
0300
0000
0010
0000
,  // measure 50
0010
0000
0020
0000
,  // measure 51
0030
0000
0001
0000
,  // measure 52
0001
0000
0002
0003
,  // measure 53
2000
3000
0004
0003
,  // measure 54
4000
3000
0040
0030
,  // measure 55
0000
0000
0100
0000
,  // measure 56
0200
0000
0300
0000
,  // measure 57
0001
0000
0001
0000
,  // measure 58
0002
0000
0000
0000
,  // measure 59
0003
0000
0010
0000
,  // measure 60
0400
0000
0000
0000
,  // measure 61
0300
0000
1000
0000
,  // measure 62
2000
0000
3000
0000
,  // measure 63
0000
0010
0000
0010
,  // measure 64
0000
0020
0000
0030
,  // measure 65
0000
0100
0000
0100
,  // measure 66
0000
0400
0000
0300
,  // measure 67
0000
0001
0000
0001
,  // measure 68
0000
0002
0000
0003
,  // measure 69
0000
1000
0000
1000
,  // measure 70
0000
0000
0000
0000
,  // measure 71
0001
0000
0001
0000
,  // measure 72
0002
0000
0003
0000
,  // measure 73
0010
0000
0010
0000
,  // measure 74
0020
0000
0030
0000
,  // measure 75
0100
0000
0100
0000
,  // measure 76
0200
0000
0300
0000
,  // measure 77
1000
0000
1000
0000
,  // measure 78
4000
0000
3000
0000
,  // measure 79
0004
0000
0003
0000
,  // measure 80
0400
0000
0300
0000
,  // measure 81
0040
0000
0030
0000
,  // measure 82
4000
0000
3000
0000
,  // measure 83
0001
0000
0001
0000
,  // measure 84
0001
0000
1000
0000
,  // measure 85
2000
0000
3000
0000
,  // measure 86
0010
0000
0010
0000
,  // measure 87
0010
0000
0100
0000
,  // measure 88
0100
0000
0200
0000
,  // measure 89
0300
0000
0001
0000
,  // measure 90
0002
0000
0003
0000
,  // measure 91
0001
0000
1000
0000
,  // measure 92
1000
0000
2000
0000
,  // measure 93
3000
0000
0100
0000
,  // measure 94
0200
0000
0300
0000
,  // measure 95
0100
0000
0020
0000
,  // measure 96
0000
0000
0030
0000
,  // measure 97
0000
0001
0000
0001
,  // measure 98
0000
0002
0000
0003
,  // measure 99
2000
0000
3000
0010
,  // measure 100
0000
0020
0000
0030
,  // measure 101
0400
0000
0300
0000
,  // measure 102
0010
0000
0000
0000
0020
0000
0000
0030
,  // measure 103
0000
1000
0000
1000
,  // measure 104
0000
2000
0000
3000
,  // measure 105
0000
0001
0000
0001
,  // measure 106
0000
0004
0000
0003
,  // measure 107
0000
0010
0000
0010
,  // measure 108
0000
0020
0000
0030
,  // measure 109
0000
0100
0000
0100
,  // measure 110
0000
0400
0000
0300
;
