#TITLE:Special Life!;
#SUBTITLE:;
#ARTIST:Kotoko;
#TITLETRANSLIT:;
#SUBTITLETRANSLIT:;
#ARTISTTRANSLIT:;
#GENRE:;
#CREDIT:Ace Of Arrows;
#BANNER:Special Life! - Bn.png;
#BACKGROUND:Special Life! - Bg.jpg;
#LYRICSPATH:;
#CDTITLE:Ace Of Arrows.png;
#MUSIC:Special Life!.ogg;
#OFFSET:0.575;
#SAMPLESTART:59.400;
#SAMPLELENGTH:12.000;
#SELECTABLE:YES;
#BPMS:0.000=180.000;
#STOPS:;
#BGCHANGES:1.375=Maid Guy OP.avi=1.000=1=0=1===CrossFade==,
99999=-nosongbg-=1.000=0=0=0 // don't automatically add -songbackground-
;
#KEYSOUNDS:;

//---------------dance-single - Ace Of Arrows (2018)----------------
#NOTES:
     dance-single:
     Ace Of Arrows (2018):
     Challenge:
     10:
     0.865,0.000,1.000,1.000,0.044: // measure 1
0000
0000
0000
0000
,  // measure 2
0000
0000
0000
0000
,  // measure 3
0000
0000
0000
0000
0000
0001
0100
0001
,  // measure 4
2001
3100
0000
0120
0000
0031
1000
0010
,  // measure 5
0210
0301
0000
2001
0000
3010
0100
0001
,  // measure 6
2001
3100
0000
0120
0000
0031
1000
0010
,  // measure 7
0210
0301
0000
2001
0000
3100
0010
0001
,  // measure 8
2001
3010
0000
0210
0000
0301
1000
0100
,  // measure 9
0120
0031
0000
2001
0000
3010
0100
0001
,  // measure 10
2001
3100
0010
0002
0000
1003
0010
0100
,  // measure 11
0101
0001
1000
0100
0120
0031
1000
0010
,  // measure 12
0210
0002
0300
2003
0000
3100
0110
0010
,  // measure 13
0001
1000
1010
0010
0100
0001
1001
1000
,  // measure 14
1100
0000
M00M
0000
0022
0033
0MM0
0000
,  // measure 15
1001
0MM0
0101
M00M
1010
00MM
2002
3MM3
,  // measure 16
0011
0010
0110
0100
1000
0001
0101
0100
,  // measure 17
0010
1000
0000
1000
0001
1000
0000
0100
0010
0100
0000
1000
0002
0000
0000
0003
,  // measure 18
0101
0000
0MM0
0000
2020
0000
3030
0M0M
,  // measure 19
1001
MM00
0011
M00M
0110
0M0M
1100
M0M0
,  // measure 20
1001
0000
0001
0000
0101
0000
0100
0000
0120
0000
0000
0030
2010
0000
3001
0000
,  // measure 21
0021
0100
0000
0031
2001
0000
3020
0030
,  // measure 22
0210
0000
0302
0000
2003
0200
3000
0320
,  // measure 23
0032
2000
0003
3020
0200
0030
0002
0300
,  // measure 24
0020
0000
0003
2030
0002
0000
0000
0000
,  // measure 25
0000
0000
3003
M0M0
,  // measure 26
0201
0000
0020
0300
0002
0030
2003
0020
,  // measure 27
3000
0200
0030
0302
2000
0003
0200
3000
,  // measure 28
2000
0000
0300
3020
0002
0000
0000
0000
,  // measure 29
0000
0000
0033
00MM
,  // measure 30
1200
0000
0302
0000
2000
0003
3000
1200
,  // measure 31
0000
0020
0300
0032
2000
0003
0200
3300
,  // measure 32
0022
0000
0030
0023
2000
0000
0000
0000
,  // measure 33
0000
0000
0000
0000
0000
0000
3030
M0M0
,  // measure 34
0102
0000
2003
0000
3010
0002
0003
2001
,  // measure 35
0000
3020
0000
0130
0102
0000
2003
3000
,  // measure 36
1020
0000
0000
0230
0002
0000
0000
0000
,  // measure 37
0000
0000
0303
0000
,  // measure 38
2002
0000
0003
3100
0220
0000
0330
0000
,  // measure 39
0022
0030
0000
1003
2020
0000
3000
0130
,  // measure 40
0202
0000
0300
1003
2200
0000
3000
0310
,  // measure 41
0022
0000
0030
1003
2020
0000
3030
0000
,  // measure 42
0220
0000
0030
0301
2002
0000
0003
3100
,  // measure 43
0220
0000
0000
0000
0300
0000
0031
0000
2001
0000
3010
0000
0100
0000
0001
1000
,  // measure 44
0002
0000
0000
0000
1000
0000
0100
0000
1000
0000
0100
0000
2003
0000
3001
0010
,  // measure 45
0001
1000
0010
0220
0000
0000
0330
0000
,  // measure 46
0101
0001
1000
0200
0000
0310
0001
1000
,  // measure 47
1020
0000
0002
0030
2000
0003
3200
0300
,  // measure 48
0102
0000
0023
2000
0000
0000
0000
0000
,  // measure 49
0000
0000
0000
0000
0000
0000
3030
MM00
,  // measure 50
0012
0000
2003
0000
3010
0100
0001
2002
,  // measure 51
3003
2020
3030
0202
0300
1003
0100
0010
,  // measure 52
0012
0000
2003
0000
3010
0100
0001
2001
,  // measure 53
0000
3100
0010
0012
0000
1003
0010
0100
,  // measure 54
0101
0001
1000
2200
0000
0000
3300
0000
,  // measure 55
0110
0010
0001
2002
0000
0000
3003
0000
,  // measure 56
1010
0010
0100
0102
0000
1003
0100
1000
,  // measure 57
2002
0000
0000
3003
,  // measure 58
0101
0100
0010
2020
0030
3001
0010
0100
,  // measure 59
1100
1000
0001
0202
0003
0310
1000
0001
,  // measure 60
0021
0000
0130
2100
0000
3001
0100
0010
,  // measure 61
2020
0000
3030
0000
1002
0013
0100
2000
,  // measure 62
0011
0000
0101
0000
,  // measure 63
0001
0100
0001
0010
0001
0100
3002
0103
,  // measure 64
0220
0330
2020
3030
2002
3003
0022
0033
,  // measure 65
0220
0030
2300
3000
1002
0013
0200
0300
,  // measure 66
2200
0000
0000
0000
,  // measure 67
0000
3300
0000
0000
0000
0000
0000
0000
;

//---------------dance-single - Ace Of Arrows (2018)----------------
#NOTES:
     dance-single:
     Ace Of Arrows (2018):
     Hard:
     7:
     0.604,0.000,0.177,1.000,0.028:
0000
0000
0000
0000
,
0000
0000
0000
0000
,
0000
0000
0000
0000
,
2000
3100
0000
0020
0000
0000
0030
0000
,
0002
1003
0000
0020
0000
0000
0030
0000
,
0200
0301
0000
2000
0000
3001
0010
0100
,
0020
0031
0000
2000
0000
3001
0100
0010
,
0200
0301
0000
2000
0000
3001
0010
0100
,
0020
0031
0000
2000
0000
3010
0100
0001
,
2000
0000
3001
0020
0000
0031
1000
0200
,
0000
1300
0100
0010
0001
0010
0100
1000
,
0002
0000
0000
2003
0000
0000
3200
0000
,
0320
0031
0010
0100
1000
0100
0010
0001
,
1000
0000
0000
0000
000M
0000
0000
0000
2020
0000
3030
0000
0000
0M00
0000
0000
,
0010
0000
0200
0300
0001
0000
2000
3000
,
0001
0010
0001
0010
0100
0010
0001
0000
,
1000
0001
0000
0001
1000
0000
0000
0000
0100
0010
0000
0010
0200
0000
0300
0000
,
1100
0000
0MM0
0000
0022
0033
0000
0000
,
0001
0000
2000
3000
0010
0000
2000
3000
,
0001
0100
0010
1000
0020
0000
0130
0001
,
2000
0001
0000
0001
0001
0000
3002
0003
,
0021
0000
0230
0000
1300
0002
0000
1003
,
0010
2000
0000
3001
0020
0000
0230
0000
,
2300
0000
0000
3001
0200
0000
0000
0000
,
0000
0000
0300
0000
,
0120
0000
2030
0000
3002
0000
0013
0200
,
0000
2300
0000
3001
0200
0000
0320
0000
,
0230
0000
0000
0301
2000
0000
0000
0000
,
0000
0000
3000
0000
,
1002
0000
0023
0000
0230
0000
0000
2300
,
0000
3002
0000
0103
0020
0000
2030
0000
,
3002
0000
0000
1003
0020
0000
0000
0000
,
0000
0000
0000
0030
,
0210
0000
0302
0000
1003
0200
0000
0320
,
0000
0230
0000
1300
0002
0000
0203
0000
,
0302
0000
0000
1003
0200
0000
0000
0000
,
0000
0000
0300
0000
,
0120
0000
0000
0031
2000
0000
3000
0000
,
1020
0000
0000
0130
0002
0000
0000
1003
,
0200
0000
0000
0310
0002
0000
0000
1003
,
0020
0000
0000
0130
0002
0000
0003
0000
,
2001
0000
0000
3010
0200
0000
0000
0301
,
2000
0000
0000
3001
0010
0100
0010
0001
,
2000
0000
0000
3000
,
0001
1000
0100
0020
0000
0000
0030
0000
,
0100
1000
0001
2000
0000
3001
0100
0010
,
0200
0000
0302
0000
2003
0000
3002
0003
,
0201
0000
0320
2000
0000
0000
0000
0000
,
0000
0000
0000
3030
,
0102
0000
2003
0000
3100
0010
0001
0020
,
0000
0230
0000
2300
0000
0000
3000
0000
,
1002
0000
0203
0000
0310
1000
0001
0020
,
0000
0000
0000
0230
0000
0000
0000
1300
,
0100
0010
0100
2000
0000
0000
3000
0000
,
0001
0100
0010
0200
0000
0000
0300
0000
,
0001
1000
0100
2000
0000
3001
0010
0001
,
2000
0000
0000
3000
,
0001
0100
0010
2000
0000
0000
3000
0000
,
0001
0010
0100
2000
0000
0000
3000
0000
,
1002
0000
0103
0020
0000
1030
0001
0010
,
0200
0000
0300
0000
2100
0000
3001
0200
,
0010
0000
0001
0000
,
0010
0001
0010
0302
,
1003
0000
0200
0300
0010
0000
0002
0003
,
2000
3000
0002
0003
1000
0001
0020
0030
,
0220
0000
0000
0000
,
0000
0330
0000
0000
0000
0000
0000
0000
;

//---------------dance-single - Ace Of Arrows (2018)----------------
#NOTES:
     dance-single:
     Ace Of Arrows (2018):
     Medium:
     5:
     0.464,0.000,0.000,1.000,0.000:
0000
0000
0000
0000
,
0000
0000
0000
0000
,
0000
0000
0000
0000
,
0001
0010
0000
0002
0000
0000
0003
0000
,
1000
0100
0000
2000
0000
0000
3000
0000
,
0001
1000
0000
0002
0000
0000
0013
0000
,
0100
1000
0000
0200
0000
0000
0300
0000
,
0010
0001
0000
0020
0000
0000
0030
0000
,
0001
1000
0000
0002
0000
0000
0003
0000
,
2000
0000
0000
3020
0000
0000
0230
0000
,
0000
0302
0000
0000
1003
0100
1000
0000
,
0002
0000
0000
0203
0000
0000
0310
0000
,
2000
0000
0000
0000
,
3001
0000
0020
0030
,
0001
1000
0001
0000
,
1000
0100
1000
0000
0001
0010
0001
0000
,
1000
0010
1000
0002
,
1003
0000
0200
0300
,
0010
0001
0010
0000
,
0001
1000
0001
0000
2000
0000
3001
0100
,
0002
0000
0000
0003
,
2000
0000
3200
0000
0310
0002
0000
1003
,
0010
2000
0000
3001
0020
0000
0032
0000
,
2003
0000
0000
3001
0200
0000
0000
0000
,
0000
0000
0300
0000
,
0002
0000
2003
0000
3200
0000
0310
0002
,
0000
0023
0000
0130
2000
0000
3002
0000
,
2003
0000
0000
3001
0200
0000
0000
0000
,
0000
0000
0300
0000
,
0002
0000
0203
0000
0302
0000
0000
2003
,
0000
3002
0000
0013
0200
0000
2300
0000
,
3002
0000
0000
0103
0020
0000
0000
0000
,
0000
0000
0000
0030
,
2000
0000
3002
0000
0013
0200
0000
0320
,
0000
0032
0000
1003
0020
0000
2030
0000
,
3002
0000
0000
0013
0200
0000
0000
0000
,
0000
0000
0300
0000
,
2000
0000
0000
3001
0200
0000
0300
0000
,
0002
0000
0000
1003
0020
0000
0000
1030
,
0002
0000
0000
1003
0200
0000
0000
0310
,
0002
0000
0000
1003
0020
0000
0000
0030
,
0200
0000
0000
0301
2000
0000
0000
3001
,
0020
0000
0000
0130
1000
0000
0001
1000
,
0002
0000
0000
0003
,
1000
0000
0001
0020
0000
0000
0030
0000
,
0001
0000
1000
0200
0000
1300
0001
0000
,
2000
3020
0230
0302
,
2003
0000
3001
0020
0000
0000
0000
0000
,
0000
0000
0000
0030
,
0001
0000
2000
0000
3002
0000
0013
0200
,
0000
2300
0000
3002
0000
0000
0003
0000
,
2000
0000
3002
0000
0203
0000
0310
2000
,
0000
0000
0000
3002
0000
0000
0003
1000
,
0200
0000
1300
0002
0000
0000
0003
0000
,
2000
0000
3001
0200
0000
0000
0300
0000
,
0020
0000
1030
0002
0000
0000
1003
0100
,
2000
0000
0000
3000
,
0001
0000
0010
0200
0000
0000
0300
0000
,
1000
0000
0001
0200
0000
0000
0300
0000
,
0020
0000
0130
0002
0000
0000
1003
0001
,
2000
0000
3000
0000
0002
0000
0013
0200
,
0000
0000
0000
0000
,
0000
0000
0000
0300
,
1000
0001
1000
0000
,
0010
0100
0020
2030
,
3002
0000
0000
0000
,
0000
0003
0000
0000
0000
0000
0000
0000
;

//---------------dance-single - Ace Of Arrows (2018)----------------
#NOTES:
     dance-single:
     Ace Of Arrows (2018):
     Easy:
     4:
     0.274,0.000,0.000,0.444,0.000:
0000
0000
0000
0000
,
0000
0000
0000
0000
,
0000
0000
0000
0000
,
1000
0000
0000
2000
0000
3000
0000
0000
,
0001
0000
0000
0002
0000
0000
0003
0000
,
0010
0000
0000
0020
0000
0000
0030
0000
,
0100
0000
0000
0200
0000
0000
0300
0000
,
1000
0000
0000
2000
0000
0000
3000
0000
,
0001
0000
0000
0002
0000
0000
0003
0000
,
0020
0000
0030
0200
,
0000
0300
1000
1000
,
2000
0000
0000
3000
0000
0000
0001
0000
,
0002
0000
0003
0000
,
0010
0000
0100
0000
,
1000
1000
1000
0000
,
0001
0001
0001
0000
,
0100
0100
0200
0300
,
0001
0000
1000
0000
,
0010
0010
0010
0000
,
0100
0100
0200
0300
,
0002
0000
0000
0003
,
1000
1000
1000
0000
,
0001
0000
0010
0010
,
0020
0030
0200
0000
,
0000
0000
0300
0000
,
1000
0000
1000
0000
1000
0000
0000
0001
,
0000
0001
0000
0000
0100
0000
0100
0000
,
0200
0300
0002
0000
,
0000
0000
0003
0000
,
1000
0000
1000
0000
1000
0000
0000
0001
,
0000
0001
0000
0000
0100
0000
0100
0000
,
0200
0300
0020
0000
,
0000
0000
0000
0030
,
1000
0000
1000
0000
1000
0000
0000
0001
,
0000
0001
0000
0000
0010
0000
0010
0000
,
0020
0030
0200
0000
,
0000
0000
0300
0000
,
1000
0000
2000
3000
,
0001
0000
0002
0003
,
0100
0000
0200
0300
,
0010
0000
0020
0030
,
0100
0000
0200
0300
,
0001
0000
1000
1000
,
2000
0000
0000
3000
,
0001
0000
0000
0002
0000
0000
0003
0000
,
1000
0000
0000
2000
0000
0000
3000
0000
,
0100
0100
0100
0000
,
0010
0000
0000
0020
0000
0000
0000
0000
,
0000
0000
0000
0030
,
0001
0000
0001
0000
0001
0000
0000
1000
,
0000
1000
0000
2000
0000
0000
3000
0000
,
0010
0000
0010
0000
0010
0000
0000
0200
,
0000
0000
0300
0200
0000
0000
0300
0000
,
0001
0000
0000
0002
0000
0000
0003
0000
,
1000
0000
0000
2000
0000
0000
3000
0000
,
0010
0000
0000
0010
0000
0000
0100
0000
,
0200
0000
0000
0300
,
0001
0000
0000
0002
0000
0000
0003
0000
,
1000
0000
0000
2000
0000
0000
3000
0000
,
0001
0000
0000
0001
0000
0000
0100
0000
,
0100
0000
0000
0000
0010
0000
0000
0020
,
0000
0000
0000
0000
,
0000
0000
0000
0030
,
1000
1000
1000
0000
,
0001
0000
0100
0100
,
0200
0000
0000
0000
,
0000
0300
0000
0000
0000
0000
0000
0000
;

//---------------dance-single - Ace Of Arrows (2018)----------------
#NOTES:
     dance-single:
     Ace Of Arrows (2018):
     Beginner:
     2:
     0.187,0.000,0.000,0.444,0.000:
0000
0000
0000
0000
,
0000
0000
0000
0000
,
0000
0000
0000
0000
,
0002
0000
0000
0003
0000
0000
0000
0000
,
0002
0000
0000
0003
0000
0000
0000
0000
,
2000
0000
0000
3000
0000
0000
0000
0000
,
2000
0000
0000
3000
0000
0000
0000
0000
,
0200
0000
0000
0300
0000
0000
0000
0000
,
0200
0000
0000
0300
0000
0000
0000
0000
,
2000
0000
0000
0000
,
3000
0000
0001
0000
,
0002
0000
0000
0003
0000
0000
0000
0000
,
2000
0000
3000
0000
,
0010
0000
0010
0000
,
0020
0000
0030
0000
,
2000
0000
3000
0000
,
0002
0000
0003
0000
,
0010
0000
0010
0000
,
0020
0000
0030
0000
,
0100
0000
0100
0000
,
0200
0000
0300
0000
,
1000
0000
1000
0000
,
2000
0000
3000
0000
,
0001
0000
0002
0000
,
0000
0000
0003
0000
,
1000
0000
1000
0000
,
2000
0000
3000
0000
,
0001
0000
0002
0000
,
0000
0000
0003
0000
,
0100
0000
0100
0000
,
0200
0000
0300
0000
,
0010
0000
0020
0000
,
0000
0000
0000
0030
,
1000
0000
1000
0000
,
2000
0000
3000
0000
,
0001
0000
0002
0000
,
0000
0000
0003
0000
,
1000
0000
1000
0000
,
2000
0000
3000
0000
,
0100
0000
0100
0000
,
0200
0000
0300
0000
,
1000
0000
1000
0000
,
2000
0000
3000
0000
,
0002
0000
0003
0000
,
2000
0000
3000
0000
,
0100
0000
0100
0000
,
0200
0000
0300
0000
,
0010
0000
0020
0000
,
0000
0000
0030
0000
,
0001
0000
0001
0000
,
0002
0000
0003
0000
,
1000
0000
1000
0000
,
2000
0000
3000
0000
,
0020
0000
0030
0000
,
0200
0000
0300
0000
,
0001
0000
0001
0000
,
0002
0000
0003
0000
,
2000
0000
3000
0000
,
0002
0000
0003
0000
,
0100
0000
0200
0000
,
0300
0000
0010
0000
,
0020
0000
0000
0000
,
0000
0000
0030
0000
,
1000
0000
2000
0000
,
3000
0000
0001
0000
,
0002
0000
0000
0000
,
0000
0003
0000
0000
0000
0000
0000
0000
;
