#TITLE:Prism;
#SUBTITLE:;
#ARTIST:ClariS;
#TITLETRANSLIT:;
#SUBTITLETRANSLIT:;
#ARTISTTRANSLIT:;
#GENRE:;
#CREDIT:Ace Of Arrows;
#BANNER:Prism - Bn.png;
#BACKGROUND:Prism - BG.jpg;
#LYRICSPATH:;
#CDTITLE:Ace Of Arrows.png;
#MUSIC:Prism.ogg;
#OFFSET:0.920;
#SAMPLESTART:61.500;
#SAMPLELENGTH:12.000;
#SELECTABLE:YES;
#BPMS:0.000=165.000,140.000=82.500,148.000=165.000,332.000=82.500,336.000=165.000,708.000=82.500,711.000=41.250;
#STOPS:;
#BGCHANGES:;
#KEYSOUNDS:;

//---------------dance-single - Ace Of Arrows (2017-18)----------------
#NOTES:
     dance-single:
     Ace Of Arrows (2017-18):
     Challenge:
     10:
     0.667,0.389,0.080,1.000,0.221:
0000
0000
0000
0000
,
0002
0013
0200
1300
,
0002
0103
0020
1030
,
0002
0103
0020
0130
,
0004
0000
0003
0000
1000
0100
0010
0100
,
4000
0000
3000
0000
0001
0010
0100
0010
,
0002
0000
0003
0000
1000
0010
0100
0010
,
2000
0000
0000
3001
0200
0000
0000
0000
,
0300
0000
0000
0001
1000
0100
1000
0001
,
0020
0000
0000
0130
2000
0000
0000
0000
,
0000
0000
0000
0000
3000
0000
0001
0000
0010
0000
0001
0000
1000
0100
0010
0100
,
2000
0000
3200
0320
,
0032
0000
2003
3020
,
0230
0000
0302
2003
,
3200
0000
0000
0000
0310
0100
2000
0000
,
3002
0000
0000
0000
,
2003
0000
0000
0000
0000
0000
0000
0000
3002
0000
0000
0000
0000
0000
1003
0100
,
0020
0000
0000
0000
0000
0000
0000
0000
0230
0000
0000
0000
0000
0000
1300
0100
,
0020
0000
0000
0000
0000
0000
0000
0000
0032
0000
1003
0100
0010
0001
0010
0100
,
1000
0100
0010
0200
0000
2300
3000
0001
,
0200
0000
0000
0310
4000
0000
3000
0001
,
0020
0032
2003
3020
,
0230
0302
2003
3020
,
0230
0000
0000
0301
2000
0000
0000
0000
,
0000
0000
3000
0000
0001
0010
0100
0010
,
0002
0000
0000
0000
0000
0000
1003
0010
,
0200
0000
0000
0000
0300
0000
0000
0000
0001
0000
1000
0000
0001
0010
0100
0010
,
0001
1000
0010
0200
0000
0302
0000
1003
,
0200
0000
0000
0310
0002
0000
0003
1000
,
0020
0230
0302
2003
,
3200
0320
0230
2300
,
3002
0000
0000
1003
0020
0000
0000
0000
,
0000
0000
0030
0000
1000
0001
0010
0100
,
2000
0000
0000
3001
0020
0000
0000
0031
,
1000
0000
0100
0000
0010
0001
0010
0001
1000
0010
1000
0010
0100
0001
0100
0001
,
4000
3000
0002
0023
0230
2300
3002
2003
,
3200
0000
0000
0000
0000
0000
0000
0000
0000
0000
0000
0000
0310
0000
0000
0000
0020
0000
0000
0000
0000
0000
0000
0000
0000
0000
0000
0000
0000
0000
0000
0030
0040
0000
0000
0000
0000
0000
0000
0000
0030
0000
0000
0000
0000
0000
0000
0000
0001
0000
0000
0000
0010
0000
0100
0000
0010
0000
0000
0000
0001
0000
0000
0000
,
2000
0000
3000
0000
0001
0100
0010
0100
,
0002
0003
0000
1000
0010
0100
0010
1000
,
0002
0000
0000
0000
2003
0000
0000
0000
3200
0000
0000
0000
0320
0000
0000
0030
,
0110
0000
0100
0000
0000
0000
0000
0000
1000
0100
0010
0100
1000
0001
0010
0200
,
0020
0000
0000
0300
0002
0000
0000
0030
2000
0000
0000
0003
0020
0000
0000
3000
,
0200
0000
0000
0030
0002
0000
0000
0300
2000
0000
0000
0003
0200
0000
0000
3000
,
0020
0000
0000
0300
0002
0000
0000
0030
2000
0000
0000
0003
0020
0000
0000
3000
,
0400
0000
0330
0010
1000
0100
0001
0100
,
4000
0000
3000
0010
1000
0010
0001
0010
,
4000
0000
3000
0001
1000
0100
0001
0100
,
2000
0000
0002
3000
0200
0000
0020
0000
,
2000
0000
0000
3333
,
0202
0000
0000
0300
2000
0000
0000
0003
0200
0000
0000
3000
0020
0000
0000
0300
,
0002
0000
0000
0030
2000
0000
0000
0003
0020
0000
0000
3000
0200
0000
0000
0030
,
0002
0000
0000
0300
2000
0000
0000
0003
0200
0000
0000
3000
0020
0000
0000
0300
,
0004
0000
0033
0000
1000
0100
0010
0100
,
4000
0000
3000
0000
0001
0100
0010
0100
,
0004
0000
0003
0000
1000
0010
0100
0010
,
2000
0000
0000
3001
0200
0000
0000
0000
,
0000
0300
0000
0001
0010
0100
1000
0100
,
0020
0000
0031
1000
0001
0000
1000
0010
1000
0000
0001
0010
0001
0010
0100
0000
,
1100
0000
1000
0000
1002
0000
0103
0000
0010
0000
1000
0000
0002
0000
1003
0100
,
0020
0000
0230
2300
,
3002
0000
0203
0320
,
2030
0000
3002
0023
,
0230
0000
0000
0000
1300
0001
2000
0000
,
3200
0000
0000
0000
,
0320
0000
0000
0000
0000
0000
0000
0000
0032
0000
0000
0000
0000
0000
1003
0100
,
0020
0000
0000
0000
0000
0000
0000
0000
0230
0000
0000
0000
0000
0000
0310
0100
,
2000
0000
3001
0000
0100
0000
0010
0100
0001
0000
1000
0100
0010
0001
0010
0100
,
1000
0001
0100
0020
0000
0230
0000
0301
,
2000
0000
0000
3001
0040
0000
0030
0100
,
2000
3002
0203
0320
,
2030
3002
0023
0230
,
2300
0000
0000
3001
0200
0000
0000
0000
,
0000
0000
0300
0000
0010
0100
0001
1000
,
0200
0000
0000
0000
0000
0000
0310
0001
,
2000
0000
0000
0000
3000
0000
0000
0000
0001
0000
0010
0000
0100
0000
0010
0001
,
1000
0010
0100
0002
0000
2003
0000
3100
,
0020
0000
0000
0130
4000
0000
3000
0001
,
0200
0320
2030
3002
,
2003
0000
3200
0000
0320
0000
0031
1000
,
0200
0000
0000
0310
0002
0000
0000
0000
,
0000
0000
0003
0000
1000
0010
0100
0010
,
2000
0000
3001
0010
0200
0000
0000
1300
,
0001
0010
0001
0000
1000
0100
1000
0000
0001
0100
0010
1000
0010
0100
0001
1000
,
0002
0000
0000
0000
0003
0000
0000
0000
0020
0000
0000
0000
0230
0000
0000
0000
2300
0000
0000
0000
3002
0000
0000
0000
1003
0100
0010
0100
2000
0000
0000
0000
,
3002
0000
0000
1003
0200
0000
0000
0000
,
0000
0000
0300
0000
1000
0100
0001
0100
,
4000
0000
3000
0000
0001
0010
1000
0010
,
0004
0000
0003
1000
0010
0100
0001
0100
,
0010
0100
0010
0100
0001
1000
0001
1000
0100
0010
0100
0010
0001
0000
1000
0000
,
1010
0000
0010
0000
0000
0000
0000
0000
0100
0001
0100
0001
1000
0100
1000
0100
,
0020
0000
0000
0000
0200
0000
0000
0030
2000
0000
0000
0300
0200
0000
0000
3000
,
0002
0000
0000
0300
0200
0000
0000
0003
2000
0000
0000
0300
0002
0000
0000
3000
,
2000
0000
0000
0003
0020
0000
0000
3000
0002
0000
0000
0030
0020
0000
0003
0000
,
2030
0000
0000
0000
3000
0000
0001
0000
1000
0100
0010
0001
1000
0001
0010
0100
,
4000
0000
3000
0001
1000
0010
0001
0010
,
4000
0000
3000
0002
0000
0013
0100
1000
,
1002
0000
0020
0003
0200
0000
2000
0000
,
0002
0000
0000
3333
,
0200
0000
0000
0000
0020
0000
0000
0300
2000
0000
0000
0030
0020
0000
0000
3000
,
0002
0000
0000
0030
2000
0000
0000
0003
0020
0000
0000
3000
0200
0000
0000
0030
,
0002
0000
0000
0300
2000
0000
0000
0003
0020
0000
0000
3000
0002
0000
0030
0000
,
0043
0000
0030
0000
1000
0001
0100
1000
,
0400
0000
0300
0000
0001
1000
0100
0001
,
0400
0000
0300
0000
1000
0100
0010
0100
,
2000
0000
0000
0000
0000
0000
0000
0000
0000
0000
0000
0000
3001
0000
0000
0000
0200
0000
0000
0000
0000
0000
0000
0000
0000
0000
0000
0300
0400
0000
0000
0000
,
0000
0300
0000
0010
0100
0001
1000
0100
,
0020
0000
0000
0000
0000
0000
0130
0000
1000
0000
0001
0000
1000
0010
0100
0010
,
2000
3001
0010
0100
2000
0000
3001
0100
,
0020
0100
2030
0001
,
0010
0001
0100
0001
,
3200
0000
0000
0000
,
0320
0032
2003
3020
,
0130
0001
1000
1100
0000
0100
0010
0001
,
1000
0010
0100
0101
0000
0001
1000
0100
,
0010
0100
1000
1001
0000
0001
0100
0010
,
1000
0000
0001
0000
0010
0000
0110
0000
0000
0000
0100
1000
0100
0010
0100
1000
,
0002
0000
1003
0100
0010
0001
0010
0100
,
2000
0000
3002
0000
0203
0000
0310
2000
,
0000
3000
0001
0100
0010
1000
0010
0100
,
0001
1000
0001
0010
0200
0000
1300
0002
,
0000
0003
2000
0000
3010
0100
0001
1000
,
0200
0320
0032
2003
,
3020
0230
0302
2003
,
3200
0000
0000
0000
0000
0000
0000
0000
0310
0001
0010
0001
1000
0100
1000
0100
,
0020
0000
0130
1000
0002
0000
0103
0010
,
2000
3002
0023
0230
,
2300
3002
0203
0320
,
4030
0000
3000
0000
0001
0100
1000
0100
,
0004
0000
0003
0000
1000
0010
0001
0010
,
4000
0000
3000
0001
0010
0100
0010
0001
,
2000
3020
0230
0302
,
1003
0100
0010
0001
0010
0100
1000
0001
0100
0010
0100
0001
,
2001
0000
3200
0000
0320
0000
0032
0003
,
2001
0000
3020
0000
0230
0000
0302
0003
,
2001
0000
3200
0300
0120
0000
0032
0003
,
2002
0000
3003
1000
0010
0100
0001
0100
,
0020
0000
0030
1000
0001
0010
0100
1000
,
0004
0000
0003
1000
0010
0100
0001
1000
,
1200
0000
0000
0000
0320
0000
0031
0010
0100
0000
1000
0100
0010
0100
1000
0000
,
1002
0000
0000
0000
0203
0000
0000
0000
0320
0000
0000
0000
2030
0000
3001
0100
,
0010
0100
0001
0000
1000
0000
0001
0010
0100
1000
0100
0010
0001
0010
0100
1000
,
0002
0000
0000
0000
0200
0000
0000
0003
0020
0000
0000
0300
0002
0000
0000
0030
,
2000
0000
0000
0003
0200
0000
0000
3000
0002
0000
0000
0300
0020
0000
0000
0003
,
2000
0000
0000
0030
0002
0000
0000
3000
0200
0000
0000
0003
2000
0000
0300
0000
,
3004
0000
0003
0000
1000
0010
0001
0010
,
4000
0000
3000
0000
0001
0100
1000
0100
,
0004
0000
0003
0000
1000
0100
0010
0100
,
2000
0000
0000
0000
0000
0000
0000
0000
0000
0000
0000
0000
3001
0000
0000
0000
0200
0000
0000
0000
0000
0000
0000
0000
0000
0000
0000
0000
0000
0000
0000
0300
,
0400
0000
0300
0001
0100
0010
1000
0001
,
0020
0000
0000
0000
0000
0000
0130
0000
2000
0000
0000
0000
3001
0100
0010
0100
,
0002
0000
0000
0000
0000
0000
1003
0000
0100
0010
0001
0010
0100
1000
0100
0010
,
0002
0000
0000
0000
2000
0000
0000
0003
0020
0000
0000
3000
0002
0000
0000
0030
,
2000
0000
0000
0003
0200
0000
0000
3000
0002
0000
0000
0300
2000
0000
0000
0003
,
0200
0000
0000
3000
0020
0000
0000
0300
2000
0000
0000
0030
0002
0000
0000
3000
,
0400
0000
0003
0000
0300
0000
1000
0000
0001
0100
0010
1000
0010
0100
0001
0000
,
4000
0000
3000
0001
1000
0100
0001
0100
,
4000
0000
3000
0001
0100
0010
0100
0001
,
2001
3200
0020
0002
,
2000
0000
0000
3333
,
0200
0000
0000
0000
2000
0000
0000
0300
0002
0000
0000
3000
0200
0000
0000
0003
,
2000
0000
0000
0300
0002
0000
0000
3000
0020
0000
0000
0003
2000
0000
0000
0030
,
0200
0000
0000
3000
0002
0000
0000
0300
2000
0000
0000
0003
0020
0000
0000
3000
,
0004
0000
0030
0000
0003
0000
0000
0000
1000
0000
0010
0000
0100
0001
1000
0001
,
0400
0000
0300
0000
0010
1000
0001
0010
,
0400
0000
0300
0000
1000
0001
0100
0010
,
2000
0000
0000
3001
0200
0000
0000
0000
,
0300
0000
0000
0010
1000
0001
0010
0100
,
1000
0100
1000
0100
0010
0001
0010
0001
1000
0010
1000
0010
0100
0001
0100
0001
,
1000
0000
0100
0000
0010
0000
0100
0000
1000
0000
0001
0000
0200
0000
0000
0300
,
0120
0000
0000
0000
0000
0000
0000
0000
2030
0000
0000
0000
3002
0000
0000
0003
,
0021
0000
0000
0000
0000
0000
0000
0000
0230
0000
0000
0000
2300
0000
0000
3000
,
1002
0000
0203
0320
,
2030
0000
0000
0000
0000
0000
0000
0000
3001
0000
0010
0000
0200
0000
0000
0300
,
2100
0000
0000
0000
,
3002
0000
0000
0000
0000
0000
0000
0000
0203
0000
0000
0000
0000
0000
0310
1000
,
0002
0000
0000
0000
0000
0000
0000
0000
0023
0000
0000
0000
0000
0000
0130
1000
,
0001
0000
1000
0100
0010
0000
0001
0010
0100
1000
0100
0010
0001
0010
0100
0000
,
1000
0000
0000
0000
0000
0000
0000
0000
0000
0000
0000
0000
0100
0000
0000
0000
0000
0000
0000
0000
0000
0000
0000
0000
0010
0000
0000
0000
0000
0000
0000
0000
0000
0000
0000
0000
0200
0000
0000
0000
0000
0000
0000
0000
0000
0000
0000
0000
0000
0000
0000
0000
0000
0000
0000
0000
0000
0000
0000
0000
1300
0000
0000
0000
0000
0000
0000
0000
0000
0000
0000
0000
0001
0000
0000
0000
0000
0000
0000
0000
0000
0000
0000
0000
0200
0000
0000
0000
0000
0000
0000
0000
0000
0000
0000
0000
0000
0000
0000
0000
0000
0000
0000
0000
0000
0000
0000
0000
0310
0000
0000
0000
0000
0000
0000
0000
0000
0000
0000
0000
1000
0000
0000
0000
0000
0000
0000
0000
0000
0000
0000
0000
0002
0000
0000
0000
0000
0000
0000
0000
0000
0000
0000
0000
0000
0000
0000
0000
0000
0000
0000
0000
0000
0000
0000
0000
1003
0000
0000
0000
0000
0000
0200
0000
0000
0000
0000
0000
0000
0000
0000
0000
0000
0000
0000
0000
0000
0000
0000
0000
0310
0000
0000
0000
0100
0000
0000
0000
0010
0000
0000
0000
,
0002
0000
0000
0000
,
0003
0000
0000
0000
;

//---------------dance-single - Ace Of Arrows (2018)----------------
#NOTES:
     dance-single:
     Ace Of Arrows (2018):
     Hard:
     8:
     0.580,0.518,0.072,1.000,0.020: // measure 1
0000
0000
0000
0000
,  // measure 2
2000
3020
2030
3002
,  // measure 3
0023
0230
2300
3002
,  // measure 4
0203
0320
2030
3002
,  // measure 5
0043
0000
0030
0000
0001
0010
0100
0010
,  // measure 6
0004
0000
0003
0000
1000
0100
0010
0100
,  // measure 7
2000
0000
3000
0000
0001
0100
0010
0100
,  // measure 8
0002
0000
0000
1003
0200
0000
0000
0000
,  // measure 9
0300
0000
0000
1000
0001
0100
0001
1000
,  // measure 10
0020
0000
0000
1030
0002
0000
0000
0000
,  // measure 11
0000
0000
0003
1000
0001
0010
0200
0000
,  // measure 12
2000
0300
3002
0203
,  // measure 13
0320
0000
2030
3002
,  // measure 14
0023
0000
0230
2300
,  // measure 15
3002
0000
0000
0000
1003
0010
0200
0000
,  // measure 16
0302
0000
0000
0000
,  // measure 17
2003
0000
3200
0000
,  // measure 18
0320
0000
0230
0000
,  // measure 19
2300
0000
3004
0000
,  // measure 20
1003
0100
0010
0200
0000
2300
0000
3001
,  // measure 21
0200
0000
0000
0310
4000
0000
0000
3001
,  // measure 22
0020
0230
2300
3002
,  // measure 23
0203
0320
2030
3002
,  // measure 24
0023
0000
0000
0130
2000
0000
0000
0000
,  // measure 25
0000
0000
3000
0000
0001
0100
0010
0100
,  // measure 26
0002
0000
0000
0000
0000
0000
1003
0100
,  // measure 27
2000
0000
3400
0000
,  // measure 28
0310
0001
0010
0200
0000
2300
0000
3001
,  // measure 29
0200
0000
0000
0310
2000
0000
0000
3001
,  // measure 30
0020
0230
2300
3002
,  // measure 31
0203
0320
2030
3002
,  // measure 32
0023
0000
0000
0130
2000
0000
0000
0000
,  // measure 33
0000
0000
3000
0000
0001
0010
0100
0010
,  // measure 34
0002
0000
0000
1003
0200
0000
0000
0310
,  // measure 35
0002
0003
2000
3020
,  // measure 36
4030
0000
0000
3000
0002
0000
0023
0000
0032
0000
2003
0000
3200
0000
2300
0000
,  // measure 37
3002
0000
0000
0013
0200
0000
0000
0000
0000
0000
0300
0000
1000
0100
0010
0100
,  // measure 38
2000
0000
3000
0000
0001
0010
0100
0010
,  // measure 39
0002
0000
0003
1000
0010
0100
0001
0100
,  // measure 40
0020
2030
3002
0023
,  // measure 41
0130
1000
0000
0000
0004
0000
0003
0000
,  // measure 42
2001
0000
0020
3000
0200
0030
0002
0300
,  // measure 43
2000
0003
0200
3000
0020
0300
0200
0030
,  // measure 44
2000
0300
0002
3000
0200
0003
0020
0300
,  // measure 45
4030
0000
3000
0001
0010
0100
1000
0100
,  // measure 46
0040
0000
0030
0001
1000
0100
0010
0100
,  // measure 47
4000
0000
3000
0001
0100
0010
1000
0010
,  // measure 48
0200
0000
0002
0300
2000
0003
0200
3000
,  // measure 49
0020
0000
0000
0330
,  // measure 50
0012
0000
2000
0003
0020
3000
0200
0030
,  // measure 51
0002
0300
2000
0003
0200
3000
0020
0300
,  // measure 52
0200
0030
2000
0300
0002
3000
0200
0003
,  // measure 53
0340
0000
0030
0000
1000
0010
0100
0010
,  // measure 54
4000
0000
3000
0000
0001
0010
0100
0010
,  // measure 55
0004
0000
0003
0000
1000
0001
0100
0001
,  // measure 56
2000
0000
0000
3010
0200
0000
0000
0000
,  // measure 57
0000
0300
0000
0001
1000
0010
1000
0001
,  // measure 58
0020
0000
0000
0130
2000
0000
0000
0000
,  // measure 59
3001
0100
0001
1000
0100
0010
0002
0000
,  // measure 60
2003
0000
3020
0230
,  // measure 61
0302
0000
2003
3020
,  // measure 62
0230
0000
0302
2003
,  // measure 63
3200
0000
0000
0000
0310
0100
2000
0000
,  // measure 64
3002
0000
0000
0000
,  // measure 65
0203
0000
0320
0000
,  // measure 66
2030
0000
3002
0000
,  // measure 67
0023
0000
0430
0000
,  // measure 68
1300
0001
0100
0002
0000
2003
0000
3100
,  // measure 69
0020
0000
0000
0031
2000
0000
3000
0010
,  // measure 70
0200
0302
2003
3200
,  // measure 71
0320
0032
2003
3020
,  // measure 72
0230
0000
0000
0301
2000
0000
0000
0000
,  // measure 73
0000
0000
3000
0000
0001
0010
0100
0010
,  // measure 74
0002
0000
0000
0000
0000
0000
1003
0010
,  // measure 75
2000
0000
3400
0000
,  // measure 76
0310
0100
1000
0200
0000
0320
0000
0031
,  // measure 77
2000
0000
0000
3001
0040
0000
0030
0001
,  // measure 78
2000
3020
0230
0302
,  // measure 79
2003
0000
3200
0000
0320
0000
0031
1000
,  // measure 80
0200
0000
0000
0310
0002
0000
0000
0000
,  // measure 81
0000
0000
0003
0000
1000
0010
0100
0010
,  // measure 82
2000
0000
3001
0010
0200
0000
0000
0310
,  // measure 83
0004
0003
2000
3200
,  // measure 84
0320
0030
0200
2300
3002
2003
3002
0203
,  // measure 85
0320
0000
0000
1030
0002
0000
0000
0000
,  // measure 86
0000
0003
0000
0000
1000
0001
0100
0001
,  // measure 87
4000
0000
3000
0000
0001
1000
0010
1000
,  // measure 88
0004
0000
0003
1000
0100
0010
0100
1000
,  // measure 89
0002
0203
0320
2030
,  // measure 90
3001
0010
0000
0000
0400
0000
0000
0300
,  // measure 91
2100
0000
0002
3000
0200
0003
0020
0300
,  // measure 92
2000
0030
0002
3000
0020
0003
0200
0030
,  // measure 93
0020
0300
0002
0030
2000
0003
0020
3000
,  // measure 94
0200
0000
0330
0010
1000
0001
0010
0100
,  // measure 95
4000
0000
3000
0001
0100
0010
1000
0010
,  // measure 96
0400
0000
0300
0002
0000
1003
0100
0010
,  // measure 97
0002
0000
2000
0003
0020
3000
0200
0330
,  // measure 98
0202
0000
0000
0303
,  // measure 99
2001
0000
0200
3000
0020
0300
0002
0030
,  // measure 100
2000
0003
0020
3000
0200
0030
0002
0300
,  // measure 101
2000
0003
0200
3000
0020
0300
0002
0030
,  // measure 102
4003
0000
3000
0000
0010
0100
0001
1000
,  // measure 103
0400
0000
0300
0000
0010
0100
1000
0001
,  // measure 104
0400
0000
0300
0000
0010
0100
0001
1000
,  // measure 105
0200
0000
0000
1300
0002
0000
0000
0000
,  // measure 106
2003
0000
0000
3001
0100
0010
0100
0001
,  // measure 107
2000
0000
0000
3001
0200
0000
0000
0000
,  // measure 108
0320
0000
1030
0001
0020
0000
0130
1000
,  // measure 109
0002
0203
0320
2030
,  // measure 110
3002
0023
0230
2300
,  // measure 111
3002
0000
0000
0000
,  // measure 112
2003
3020
0230
0302
,  // measure 113
2003
3100
0010
0100
0000
1000
0001
1000
,  // measure 114
0200
0310
0100
1000
0000
0001
0100
0001
,  // measure 115
2000
3010
1000
0001
0000
1000
0100
0010
,  // measure 116
0002
0013
0001
1000
0004
0000
0000
0000
,  // measure 117
0023
0000
0130
1000
0001
0100
0001
1000
,  // measure 118
0200
0000
0320
0000
0230
0000
1300
0002
,  // measure 119
0000
0003
1000
0010
0100
0001
0100
0010
,  // measure 120
1000
0001
0010
0100
2000
0000
3001
0200
,  // measure 121
0000
0300
0020
0000
1030
0001
0010
0001
,  // measure 122
2000
3200
0320
0032
,  // measure 123
2003
3020
0230
0302
,  // measure 124
2003
0000
0000
0000
3040
0000
0000
0030
,  // measure 125
0210
0000
0301
1000
0002
0000
0013
0100
,  // measure 126
2000
3002
0203
0320
,  // measure 127
2030
3002
0023
0230
,  // measure 128
4300
0000
3000
0000
0001
0100
0010
0100
,  // measure 129
0004
0000
0003
0000
1000
0100
0010
0100
,  // measure 130
4000
0000
3000
0001
0010
0100
1000
0100
,  // measure 131
0020
0230
2300
3002
,  // measure 132
0403
0000
0000
0300
,  // measure 133
0120
0000
2030
0000
3002
0000
0023
0030
,  // measure 134
0210
0000
2300
0000
3002
0000
0203
0300
,  // measure 135
0120
0000
2030
0000
3002
0000
0023
0030
,  // measure 136
0210
0000
0300
1000
0001
0100
0010
0100
,  // measure 137
0002
0000
0003
1000
0100
0010
0100
1000
,  // measure 138
0004
0000
0003
0010
0100
1000
0100
0010
,  // measure 139
0002
2003
3002
0200
,  // measure 140
0020
0000
0000
0000
,  // measure 141
0333
0000
0000
0000
0004
0000
0000
0003
,  // measure 142
2001
0000
0200
3000
0020
0300
0002
0030
,  // measure 143
2000
0003
0020
3000
0200
0030
0002
0300
,  // measure 144
2000
0003
0200
3000
0020
0300
0200
0030
,  // measure 145
4300
0000
3000
0000
0001
0100
0010
0100
,  // measure 146
0004
0000
0003
0000
1000
0010
0100
0010
,  // measure 147
4000
0000
3000
0000
0001
1000
0100
1000
,  // measure 148
0002
0000
0000
1003
0200
0000
0000
0000
,  // measure 149
0000
0000
0300
0010
0001
1000
0001
0100
,  // measure 150
0020
0000
0000
1030
0002
0000
0000
0000
,  // measure 151
0023
0000
0000
0130
1000
0001
0200
0300
,  // measure 152
0220
0300
2000
0030
0002
3000
0023
0030
,  // measure 153
0220
0030
2000
0300
0002
3000
0203
0300
,  // measure 154
0220
0300
2000
0030
0002
3000
0023
0030
,  // measure 155
0410
0000
0300
0010
0001
1000
0001
0100
,  // measure 156
0040
0000
0030
1000
0001
0010
0001
1000
,  // measure 157
0400
0000
0300
1000
0001
0100
0001
1000
,  // measure 158
0002
0203
0302
2000
,  // measure 159
0020
0000
0000
3033
,  // measure 160
2002
3000
0200
0003
0020
0300
2030
3000
,  // measure 161
2002
3000
0020
0003
0200
0030
2300
3000
,  // measure 162
2002
3000
0200
0003
0020
0300
2030
3000
,  // measure 163
1004
0000
0003
0000
1000
0100
0010
0100
,  // measure 164
4000
0000
3000
0000
0001
0010
0100
0010
,  // measure 165
0004
0000
0003
0000
1000
0010
0100
0010
,  // measure 166
2000
0000
0000
3001
0200
0000
0000
0000
,  // measure 167
0300
0000
0000
0010
1000
0001
0010
0100
,  // measure 168
2000
0000
0000
3001
0020
0000
0000
0000
,  // measure 169
0031
1000
0001
0100
0010
1000
0002
0003
,  // measure 170
0021
0000
0230
2300
,  // measure 171
3002
0000
2003
3020
,  // measure 172
0230
0000
0302
2003
,  // measure 173
3200
0000
0000
0000
0310
0100
2000
0000
,  // measure 174
3002
0000
0000
0000
,  // measure 175
2003
0000
3200
0000
,  // measure 176
0320
0000
0032
0000
,  // measure 177
0023
0000
0230
0000
,  // measure 178
2300
0000
0000
0000
0000
0000
3002
0000
0000
0000
0013
0000
0100
0000
0020
0000
0000
0000
0031
0000
1000
0000
0002
0000
0000
0000
1003
0200
0000
0000
0320
0000
,  // measure 179
0000
0000
0000
0000
,  // measure 180
0030
0000
0000
0000
;

//---------------dance-single - Ace Of Arrows (2018)----------------
#NOTES:
     dance-single:
     Ace Of Arrows (2018):
     Medium:
     6:
     0.476,0.324,0.000,1.000,0.007:
0000
0000
0000
0000
,
0002
0013
0001
1000
,
0020
0130
0001
1000
,
0200
0310
0001
1000
,
0004
0000
0003
0000
1000
0100
1000
0000
,
0400
0000
0300
0000
1000
0001
1000
0000
,
0020
0000
0030
0000
0100
0001
0100
0000
,
0020
0000
0000
1030
0002
0000
0000
0000
,
0003
0000
0000
0000
1000
0001
1000
0000
,
0020
0000
0000
0130
0002
0000
0000
0000
,
0000
0000
0003
0000
1000
0100
2000
0000
,
3002
0000
1003
0010
,
2000
0000
3001
0010
,
0002
0000
1003
0010
,
2000
0000
0000
0000
3010
0100
0020
0000
,
0230
0000
0000
0000
,
0302
0000
2003
0000
,
3200
0000
0320
0000
,
0032
0000
2003
0000
,
3001
0000
1000
0020
0000
2030
0000
3001
,
0020
0000
0000
0031
4000
0000
3000
0001
,
0200
0302
2003
3200
,
0320
0230
2300
3002
,
2003
0000
0000
3001
0020
0000
0000
0000
,
0000
0000
0030
0000
0001
1000
0001
0000
,
0200
0000
0000
0000
,
0300
0000
0040
0000
,
2030
0000
3001
0020
0000
0032
0000
1003
,
0020
0000
0000
1030
0002
0000
0000
1003
,
0200
0320
0032
2003
,
3002
0203
0320
0230
,
0302
0000
0000
1003
0020
0000
0000
0000
,
0000
0000
0030
0000
1000
0001
2000
0000
,
3200
0000
0000
0310
0002
0000
0000
1003
,
0020
0030
1000
0001
,
4000
0000
0000
3000
0001
0000
0010
0000
0002
0000
0000
0000
0013
0000
0100
0000
,
0020
0000
0000
0000
0032
0000
0000
0000
0000
0000
0003
0000
1000
0100
1000
0000
,
0002
0000
0003
0000
0010
0100
0010
0000
,
0200
0000
0300
0000
1000
0001
1000
0000
,
0020
2030
3002
0023
,
0230
0300
0000
0000
,
2000
3002
0203
0320
,
2030
3002
0023
0230
,
2300
3002
2003
3020
,
0430
0000
0300
0000
0001
1000
0001
0000
,
0040
0000
0030
0000
0001
0010
0001
0000
,
4000
0000
3000
0000
0010
0100
0010
0000
,
2000
3002
0023
0230
,
2000
0000
0000
3300
,
2000
3002
0203
0320
,
2030
3002
0023
0230
,
2300
3002
2003
3200
,
0340
0000
0030
0000
0001
1000
0001
0000
,
0400
0000
0300
0000
0010
0100
0010
0000
,
4000
0000
3000
0000
0001
0100
0001
0000
,
2000
0000
0000
3010
0200
0000
0000
0000
,
0000
0300
0000
0000
0001
1000
0001
0000
,
0020
0000
0000
0130
2000
0000
0000
0000
,
3000
0000
0000
0000
0001
1000
0002
0000
,
0023
0000
0031
1000
,
0002
0000
1003
0010
,
2000
0000
3001
0010
,
0002
0000
0000
0000
1003
0100
1000
0000
,
0002
0000
0000
0000
,
2003
0000
3200
0000
,
2300
0000
3002
0000
,
2003
0000
3020
0000
,
1030
0000
0001
0020
0000
0230
0000
0310
,
0002
0000
0000
1003
0020
0000
0000
1030
,
0002
0023
0230
2300
,
3002
2003
3020
0230
,
0302
0000
0000
1003
0020
0000
0000
0000
,
0000
0000
0030
0000
1000
0001
1000
0000
,
0200
0000
0000
0000
,
0300
0000
4000
0000
,
3001
0000
0010
0200
0000
2300
0000
3001
,
0200
0000
0000
0301
4000
0000
3000
0001
,
0020
0230
2300
3002
,
2003
0000
3020
0000
0230
0000
0301
0100
,
0002
0000
0000
1003
0020
0000
0000
0000
,
0000
0000
0030
0000
0100
0010
0200
0000
,
0302
0000
1003
0100
2000
0000
0000
3001
,
0040
0030
0002
2003
,
3020
0000
1030
0001
2000
0000
3001
0100
,
0002
0000
0000
1003
0020
0000
0000
0000
,
0000
0030
0000
0000
1000
0001
1000
0000
,
0400
0000
0300
0000
0010
0100
0010
0000
,
0004
0000
0003
0000
1000
0010
1000
0000
,
0002
2003
3200
2300
,
3002
0003
0000
0000
,
2000
3020
0230
0302
,
2003
3200
0320
0032
,
0023
0230
2300
3002
,
0203
0000
0300
0000
0010
0100
0010
0000
,
4000
0000
3000
0000
0001
1000
0001
0000
,
0400
0000
0300
0002
0000
0000
1003
0100
,
2000
3002
2003
3002
,
0200
0000
0000
0303
,
0200
0320
2030
3002
,
0023
0230
2300
3002
,
0203
0320
2030
3002
,
0043
0000
0030
0000
0001
1000
0001
0000
,
0400
0000
0300
0000
0010
0100
0010
0000
,
4000
0000
3000
0000
0001
0010
0001
0000
,
2000
0000
0000
3001
0200
0000
0000
0000
,
0300
0000
0000
0000
0010
1000
0010
0000
,
0200
0000
0000
0301
2000
0000
0000
0000
,
3000
0000
0001
0010
0002
0000
1003
0100
,
2000
0000
3001
0010
,
0001
1000
0001
0100
,
0002
0000
0000
0000
,
1003
0100
1000
0001
,
2000
0000
3001
0100
0000
0001
1000
0000
,
0002
0000
0013
0100
0000
0010
0001
0000
,
2000
0000
3010
0100
0000
0010
1000
0000
,
0002
0000
0103
0010
0400
0000
0000
0000
,
0300
0000
0001
1000
0002
0000
0013
0100
,
0020
0000
0032
0000
2003
0000
3010
0200
,
0000
0300
0001
0100
0002
0000
1003
0100
,
2000
0000
3001
1000
0002
0000
0013
0200
,
0000
0300
2000
0000
3001
0100
0001
0000
,
2000
3002
2003
3200
,
0320
0230
2300
3002
,
0203
0000
0340
0000
,
0030
0000
1000
0001
2000
0000
3100
0010
,
0200
2300
3002
0203
,
0320
2030
3002
0023
,
0430
0000
0300
0000
1000
0001
1000
0000
,
0040
0000
0030
0000
0100
0010
0100
0000
,
0004
0000
0003
0000
1000
0001
1000
0000
,
0200
0320
0032
2003
,
3400
0000
0000
0300
,
2000
3001
1000
0010
,
0200
0310
1000
0001
,
2000
3100
0020
0031
,
2000
0000
3000
0000
0001
0010
0001
0000
,
2000
0000
3000
0000
0100
0010
0100
0000
,
4000
0000
3000
0000
0001
0100
0001
0000
,
2000
3020
0230
0302
,
2000
0000
0000
0000
,
3003
0000
0000
0000
,
2000
3020
0230
0302
,
2003
3200
0320
0230
,
2300
3002
0203
0320
,
4030
0000
3000
0000
0001
1000
0001
0000
,
0040
0000
0030
0000
0001
0010
0001
0000
,
4000
0000
3000
0000
0100
0010
0100
0000
,
2000
0000
0000
3001
0200
0000
0000
0000
,
0000
0000
0300
0000
0010
0100
0010
0000
,
2000
0000
0000
3001
0020
0000
0000
0000
,
0000
0000
0030
0000
0001
1000
0002
0000
,
2003
3020
0230
0302
,
2003
3200
0320
0032
,
0023
0230
2300
3002
,
0403
0000
0300
0000
0010
0100
0010
0000
,
4000
0000
3000
0000
0001
1000
0001
0000
,
0400
0000
0300
0000
0001
0100
0001
0000
,
2000
3002
2003
3002
,
0020
0000
0000
0033
,
0020
0230
2300
3002
,
0203
0320
2030
3020
,
0230
0302
2003
3200
,
0340
0000
0030
0000
0001
1000
0001
0000
,
0400
0000
0300
0000
0010
0100
0010
0000
,
4000
0000
3000
0000
0001
1000
0001
0000
,
0020
0000
0000
0130
2000
0000
0000
0000
,
3000
0000
0000
0000
0001
0100
0001
0000
,
2000
0000
0000
3001
0020
0000
0000
0000
,
0000
0030
0000
0000
0001
1000
0002
0000
,
0023
0000
0031
1000
,
0002
0000
1003
0010
,
2000
0000
3001
0010
,
0002
0000
0000
0000
0013
0100
0020
0000
,
0230
0000
0000
0000
,
2300
0000
3002
0000
,
2003
0000
3200
0000
,
0320
0000
0032
0000
,
2003
0000
0000
0000
0000
0000
3000
0000
0000
0000
0000
0000
0000
0000
0100
0000
0000
0000
0000
0000
0000
0000
0020
0000
0000
0000
0000
0030
0000
0000
0002
0000
,
0000
0000
0000
0000
,
0003
0000
0000
0000
;

//---------------dance-single - Ace Of Arrows (2018)----------------
#NOTES:
     dance-single:
     Ace Of Arrows (2018):
     Easy:
     4:
     0.265,0.194,0.000,0.304,0.005:
0000
0000
0000
0000
,
1000
1000
1000
0000
,
0010
0010
0010
0000
,
0100
0100
0100
0000
,
0004
0003
1000
1000
,
4000
3000
0001
0001
,
0004
0003
0100
0100
,
0100
0000
0200
0000
,
0300
0000
0010
0010
,
0010
0000
0020
0000
,
0030
0000
1000
1000
,
2000
3000
0001
0001
,
0002
0003
0010
0010
,
0020
0030
0100
0100
,
0200
0300
1000
1000
,
2000
0000
3000
0000
,
0010
0000
0010
0000
,
0020
0000
0030
0000
,
0020
0000
0030
0000
,
0100
0000
0000
0100
0000
0000
0000
0000
,
0001
0000
0004
0003
,
1000
1000
1000
0000
,
0010
0010
0010
0000
,
0100
0000
0200
0000
,
0000
0300
0001
0001
,
0002
0000
0000
0000
,
0003
0000
0000
0000
,
1000
0000
0000
1000
0000
0000
0000
0000
,
0100
0000
0200
0300
,
0010
0010
0010
0000
,
0001
0001
0001
0000
,
1000
0000
2000
0000
,
0000
3000
0001
0001
,
0002
0003
0020
0030
,
0020
0030
0100
0100
,
0200
0300
1000
0000
1000
0000
0000
0000
,
0001
0000
0002
0000
0000
0003
1000
1000
,
2000
3000
0010
0010
,
0020
0030
0100
0000
,
0100
0100
0100
0000
,
0100
0000
0000
0000
,
0001
0001
0002
0003
,
1000
1000
2000
3000
,
0100
0100
0100
0000
,
0400
0300
1000
1000
,
4000
3000
0001
0001
,
0004
0003
0010
0000
,
0010
0010
0010
0000
,
0020
0000
0000
0030
,
0100
0100
0200
0300
,
1000
1000
2000
3000
,
0001
0001
0001
0000
,
0004
0003
1000
1000
,
4000
3000
0100
0100
,
0400
0300
0010
0010
,
0010
0000
0020
0000
,
0030
0000
0001
0001
,
0001
0000
0002
0000
,
0003
0000
1000
1000
,
2000
3000
0001
0001
,
0002
0003
0010
0010
,
0020
0030
0100
0100
,
0200
0300
1000
1000
,
2000
0000
3000
0000
,
0001
0000
0001
0000
,
0002
0000
0003
0000
,
0002
0000
0003
0000
,
0100
0000
0000
0100
0000
0000
0000
0000
,
0010
0000
0020
0030
,
1000
1000
1000
0000
,
0001
0001
0001
0000
,
0010
0000
0020
0000
,
0000
0030
0100
0100
,
0200
0000
0000
0000
,
0300
0000
0000
0000
,
1000
0000
0000
1000
0000
0000
0000
0000
,
0001
0000
0004
0003
,
1000
1000
1000
0000
,
0010
0010
0010
0000
,
0100
0000
0200
0000
,
0300
0000
0001
0001
,
0001
0000
0002
0000
,
0003
0000
1000
0000
,
2000
3000
0001
0000
0002
0000
0003
0000
,
0100
0000
0200
0000
,
0300
0000
0010
0010
,
0040
0030
1000
1000
,
4000
3000
0010
0000
,
0010
0010
0010
0000
,
0010
0000
0000
0000
,
0100
0100
0200
0300
,
0001
0001
0002
0003
,
1000
1000
1000
0000
,
2000
3000
0001
0001
,
0004
0003
0100
0100
,
0400
0300
0010
0000
,
0010
0010
0010
0000
,
0020
0000
0000
0030
,
1000
1000
2000
3000
,
0001
0001
0002
0003
,
0010
0010
0010
0000
,
0040
0030
0100
0100
,
0400
0300
1000
1000
,
4000
3000
0001
0001
,
0001
0000
0002
0000
,
0003
0000
1000
1000
,
1000
0000
2000
0000
,
3000
0000
0100
0100
,
0200
0300
0010
0010
,
0020
0030
0001
0001
,
0002
0000
0003
0000
,
1000
1000
1000
0000
,
0010
0000
0000
0010
0000
0000
0000
0000
,
0100
0000
0000
0100
0000
0000
0000
0000
,
0001
0000
0000
0001
0000
0000
0000
0000
,
1000
0000
0000
1000
0000
0000
0000
0000
,
0000
0001
0001
0000
,
0010
0000
0010
0000
0010
0000
0000
0010
,
0000
0100
0100
0000
,
1000
0000
1000
0000
1000
0000
0000
1000
,
0000
0001
0001
0000
,
0100
0100
0100
0000
,
0001
0001
0001
0000
,
2000
0000
0000
3000
,
0000
0100
0100
0000
,
1000
1000
1000
0000
,
0001
0001
0001
0000
,
0004
0003
0010
0010
,
0040
0030
0100
0100
,
0400
0300
1000
1000
,
2000
3000
0001
0001
,
0004
0000
0000
0003
,
1000
1000
2000
3000
,
0010
0010
0020
0030
,
0100
0100
0100
0000
,
0200
0300
0001
0001
,
0002
0003
0100
0100
,
0400
0300
0001
0001
,
0002
0000
1000
1000
,
2000
0000
0000
0000
,
3003
0000
0000
0000
,
1000
1000
2000
3000
,
0100
0100
0200
0300
,
0010
0010
0010
0000
,
0040
0030
0001
0001
,
0004
0003
1000
1000
,
4000
3000
0100
0100
,
0100
0000
0200
0000
,
0300
0000
0010
0010
,
0010
0000
0020
0000
,
0030
0000
0002
0003
,
1000
1000
2000
3000
,
0010
0010
0020
0030
,
1000
1000
1000
0000
,
2000
3000
0001
0001
,
0004
0003
0010
0010
,
0040
0030
0001
0001
,
0002
0000
1000
1000
,
2000
0000
0000
3003
,
1000
1000
2000
3000
,
0010
0010
0020
0030
,
0100
0100
0100
0000
,
0400
0300
0001
0001
,
0004
0003
1000
1000
,
4000
3000
0100
0100
,
0100
0000
0200
0000
,
0300
0000
0010
0010
,
0010
0000
0020
0000
,
0030
0000
0001
0001
,
0002
0003
1000
1000
,
2000
3000
0100
0100
,
0200
0300
1000
1000
,
2000
3000
0001
0001
,
0002
0000
0003
0000
,
0100
0000
0100
0000
,
0200
0000
0300
0000
,
0200
0000
0300
0000
,
0002
0000
0000
0003
0000
0000
0000
1000
0000
0000
0000
1000
0000
0000
0000
0020
,
0000
0000
0000
0000
,
0030
0000
0000
0000
;

//---------------dance-single - Ace Of Arrows (2018)----------------
#NOTES:
     dance-single:
     Ace Of Arrows (2018):
     Beginner:
     2:
     0.167,0.130,0.000,0.344,0.000:
0000
0000
0000
0000
,
0001
0000
0001
0000
,
0002
0000
0003
0000
,
2000
0000
0000
0000
,
3000
0000
0020
0000
,
0030
0000
0020
0000
,
0030
0000
0100
0000
,
0100
0000
0200
0000
,
0300
0000
0001
0000
,
0001
0000
0002
0000
,
0003
0000
1000
0000
,
2000
0000
0000
0000
,
3000
0000
0010
0000
,
0020
0000
0000
0000
,
0030
0000
1000
0000
,
2000
0000
0000
0000
,
3000
0000
0000
0000
,
0001
0000
0001
0000
,
0002
0000
0003
0000
,
0010
0000
0010
0000
,
0020
0000
0030
0000
,
0100
0000
0100
0000
,
0200
0000
0300
0000
,
1000
0000
2000
0000
,
3000
0000
0001
0000
,
0002
0000
0000
0000
,
0003
0000
0000
0000
,
0100
0000
0100
0000
,
0200
0000
0300
0000
,
0010
0000
0010
0000
,
0020
0000
0030
0000
,
1000
0000
2000
0000
,
3000
0000
0000
0000
,
0001
0000
0001
0000
,
0002
0000
0003
0000
,
0010
0000
0010
0000
,
0020
0000
0030
0000
,
0100
0000
0100
0000
,
0200
0000
0300
0000
,
1000
0000
1000
0000
,
1000
0000
0000
0000
,
0001
0000
0001
0000
,
0002
0000
0003
0000
,
2000
0000
0000
0000
,
3000
0000
0010
0000
,
0010
0000
0020
0000
,
0030
0000
0100
0000
,
0100
0000
0100
0000
,
0200
0000
0300
0000
,
0001
0000
0001
0000
,
0002
0000
0003
0000
,
0200
0000
0000
0000
,
0300
0000
0010
0000
,
0010
0000
0020
0000
,
0030
0000
1000
0000
,
1000
0000
2000
0000
,
3000
0000
0001
0000
,
0001
0000
0002
0000
,
0003
0000
0010
0000
,
0020
0000
0030
0000
,
0100
0000
0100
0000
,
0200
0000
0300
0000
,
1000
0000
1000
0000
,
2000
0000
0000
0000
,
3000
0000
0000
0000
,
0001
0000
0001
0000
,
0002
0000
0003
0000
,
0100
0000
0100
0000
,
0200
0000
0300
0000
,
0010
0000
0010
0000
,
0020
0000
0030
0000
,
1000
0000
2000
0000
,
3000
0000
0001
0000
,
0002
0000
0000
0000
,
0003
0000
0000
0000
,
0010
0000
0010
0000
,
0020
0000
0030
0000
,
0100
0000
0100
0000
,
0200
0000
0300
0000
,
1000
0000
2000
0000
,
3000
0000
0000
0000
,
0001
0000
0001
0000
,
0002
0000
0003
0000
,
1000
0000
1000
1000
,
2000
0000
0000
0000
,
3000
0000
0002
0000
,
0003
0000
0002
0000
,
0003
0000
0000
0000
,
0010
0000
0010
0000
,
0010
0000
0000
0000
,
0100
0000
0100
0000
,
0200
0000
0300
0000
,
0020
0000
0000
0000
,
0030
0000
0001
0000
,
0001
0000
0002
0000
,
0003
0000
1000
0000
,
1000
0000
1000
0000
,
2000
0000
3000
0000
,
0100
0000
0100
0000
,
0200
0000
0300
0000
,
0020
0000
0000
0000
,
0030
0000
0001
0000
,
0001
0000
0002
0000
,
0003
0000
1000
0000
,
1000
0000
2000
0000
,
3000
0000
0010
0000
,
0010
0000
0020
0000
,
0030
0000
0100
0000
,
0200
0000
0300
0000
,
0001
0000
0001
0000
,
0002
0000
0003
0000
,
1000
0000
1000
0000
,
2000
0000
3000
0000
,
2000
0000
3000
0000
,
0020
0000
0030
0000
,
0020
0000
0030
0000
,
0000
0000
0100
0000
,
0100
0000
0200
0000
,
0300
0000
0001
0000
,
0001
0000
0002
0000
,
0003
0000
1000
0000
,
2000
0000
3000
0000
,
0020
0000
0030
0000
,
0200
0000
0300
0000
,
0000
0000
0001
0000
,
0002
0000
0003
0000
,
0010
0000
0020
0000
,
0030
0000
0100
0000
,
0100
0000
0200
0000
,
0300
0000
0000
0000
,
1000
0000
1000
0000
,
1000
0000
0000
0000
,
0001
0000
0001
0000
,
0002
0000
0003
0000
,
0200
0000
0000
0000
,
0300
0000
0020
0000
,
0030
0000
0020
0000
,
0030
0000
0000
0000
,
0100
0000
0100
0000
,
0200
0000
0000
0000
,
0300
0000
0000
0000
,
0001
0000
0001
0000
,
0002
0000
0003
0000
,
2000
0000
0000
0000
,
3000
0000
0100
0000
,
0100
0000
0200
0000
,
0300
0000
0010
0000
,
0010
0000
0020
0000
,
0030
0000
0001
0000
,
0001
0000
0002
0000
,
0000
0000
0003
0000
,
1000
0000
1000
0000
,
2000
0000
3000
0000
,
0200
0000
0000
0000
,
0300
0000
2000
0000
,
3000
0000
2000
0000
,
3000
0000
0000
0000
,
0001
0000
0001
0000
,
0002
0000
0003
0000
,
1000
0000
1000
0000
,
2000
0000
3000
0000
,
0020
0000
0000
0000
,
0030
0000
0100
0000
,
0100
0000
0200
0000
,
0300
0000
0001
0000
,
0001
0000
0002
0000
,
0003
0000
1000
0000
,
1000
0000
2000
0000
,
3000
0000
0010
0000
,
0020
0000
0030
0000
,
0100
0000
0100
0000
,
0200
0000
0000
0000
,
0300
0000
0001
0000
,
0002
0000
0000
0000
,
0003
0000
1000
0000
,
2000
0000
3000
0000
,
0020
0000
0030
0000
,
2000
3000
0002
0003
,
0020
0000
0000
0000
,
0030
0000
0000
0000
;
