#TITLE:Hot Pot;
#SUBTITLE:;
#ARTIST:Deco*27 feat. ATF;
#TITLETRANSLIT:;
#SUBTITLETRANSLIT:;
#ARTISTTRANSLIT:;
#GENRE:;
#CREDIT:Ace Of Arrows;
#BANNER:Hot Pot - Bn.png;
#BACKGROUND:Hot Pot - Bg.jpg;
#LYRICSPATH:;
#CDTITLE:Ace Of Arrows.png;
#MUSIC:Hot Pot.ogg;
#OFFSET:0.000;
#SAMPLESTART:59.560;
#SAMPLELENGTH:12.000;
#SELECTABLE:YES;
#BPMS:0.000=150.000,107.000=75.000,115.000=150.000;
#STOPS:;
#BGCHANGES:;
#KEYSOUNDS:;

//---------------dance-single - AceOfArrows (2018)----------------
#NOTES:
     dance-single:
     AceOfArrows (2018):
     Challenge:
     11:
     0.921,0.000,0.438,0.845,0.607:
0000
0000
0000
0000
,
0000
0000
0000
0000
,
2000
0000
0000
0000
0000
0000
3000
0000
1001
0000
0000
0000
0012
0000
1003
0010
,
1000
0000
0001
0010
0100
0010
0001
0000
1000
0000
0001
0010
0002
0000
1003
0010
,
1000
0000
0001
0100
0010
0100
0001
0000
2001
0000
3010
0000
0210
0000
0301
1000
,
0001
0000
0010
0100
1000
0100
0010
0000
0001
0000
1000
0001
2000
0000
3010
0100
,
0010
0000
1000
0000
0001
0010
0001
0000
2000
0000
3010
0000
0210
0000
0301
1000
,
0001
0000
0010
0000
0100
1000
0100
0000
0120
0000
0031
1000
0001
0000
0100
0010
,
0100
0000
0001
0000
1000
0100
1000
0000
1002
0000
0103
0000
0001
0100
0010
0100
,
0001
0000
1000
0100
0010
0001
0010
0100
1000
0001
0100
0000
0010
1000
0001
0100
,
0001
1000
0100
0010
0001
0010
0100
1000
0004
0000
0000
0003
1001
0000
1100
0000
,
0100
0000
0020
0000
0031
0000
1001
1010
,
0010
0200
0000
0301
2000
3000
1100
0110
,
0010
0000
0001
1000
0002
0000
0000
0000
0203
0000
0300
0000
0110
0000
1010
0000
,
1000
0000
0001
0010
0001
0000
1000
0000
0010
0000
0100
0001
0200
0000
0310
0000
,
1000
0000
0000
0000
0002
0000
0000
0000
0023
0000
0000
0030
0110
0000
1100
0000
,
1000
0002
0000
0000
0203
0300
0110
1010
,
1000
0001
0010
0002
0000
1003
1010
0110
,
0200
0000
0000
0000
0000
0000
0302
0000
0000
1003
0100
0010
0001
0000
0000
1000
0000
0000
1020
0000
0000
0130
0000
0000
,
0001
1000
0200
0310
0002
1003
0020
0130
,
0002
2003
3100
0020
0032
1003
1010
0010
,
0100
0001
2000
3100
0020
0130
2000
3001
,
0200
0320
1030
0002
0023
0130
1100
1000
,
0001
0100
0020
1030
0002
0013
0200
1300
,
0002
0000
0203
0000
0310
0000
2000
0000
3002
0000
0013
0000
0100
1000
0000
1000
,
0001
0000
0100
0000
0010
0100
0001
0100
0010
0000
1000
0000
0001
0010
0100
1000
,
0100
0010
0001
1000
0001
0100
0010
1000
0040
0000
0000
0030
0210
0000
0301
0100
,
0010
0100
0001
2000
0001
3000
0001
0010
0100
1000
0100
0020
0100
0030
0200
0300
,
2100
0000
0000
0000
3002
0000
0003
0000
0201
0000
0000
0000
0320
0000
0030
0000
2010
0000
0000
0000
3002
0000
0013
0100
0020
0000
0000
0000
0000
0000
0031
0000
,
1000
0000
0010
0000
0100
0001
0100
0000
0010
0000
1000
0001
2000
0000
3100
0010
,
0100
0000
1000
0000
0001
0100
0001
0000
1000
0000
0100
0010
0200
0000
1300
0001
,
1000
0000
0000
0000
0000
0000
0010
0000
0000
0000
0000
0000
0100
0000
0000
0001
0000
0000
0100
0000
0000
0000
0000
0000
0010
0000
0000
0000
0000
0000
1000
0000
0010
0000
0100
0000
0001
0000
0000
0000
0000
0000
1000
0000
0000
0001
0000
0000
,
1000
0000
0100
0000
0010
0001
0010
0000
0100
0000
1000
0001
1000
0010
0100
0001
,
0100
0010
1000
0001
1000
0100
0010
0001
0010
0100
1000
0001
0100
0010
0100
0001
,
1000
0100
0010
0100
4000
0000
0000
0000
0000
0000
0000
0000
3002
0000
0103
0010
,
0000
0010
2000
0000
3001
0010
0001
0000
2000
0000
3000
0000
1020
0000
0130
0010
,
0100
0000
0001
0000
2001
0000
3100
0010
0100
0000
1000
0000
1002
0000
0000
0000
,
0103
0000
0120
0000
0000
0000
2030
0000
0000
0000
3001
0000
0021
0000
0130
1000
,
0100
0000
0010
0000
0012
0000
1003
0010
1000
0000
0001
0000
0020
0000
0000
0000
,
0130
0000
2100
0000
3001
0100
0001
0000
2000
0000
3001
0010
0002
0000
1003
0010
,
1000
0000
0001
0000
0010
0000
0100
0000
0010
0000
0001
0000
2000
0000
3100
0010
,
0100
0000
2000
0000
0000
0000
3001
0100
0001
0000
1000
0000
0100
0010
0001
0010
,
0100
0000
1000
0001
1000
0010
0100
0001
0100
0010
1000
0000
0001
0010
0100
1000
,
0100
0010
0001
1000
0010
0100
0010
1000
0001
0000
0010
0000
0200
0000
1300
0000
,
0001
0100
0010
1000
0001
0010
0200
1300
,
0001
0100
0020
0130
0001
1000
0200
0310
,
0001
1000
0010
0100
0001
1000
0200
1300
,
0001
0100
0020
0130
0001
1000
0200
0310
,
0001
0010
0100
1000
0001
0100
0020
1030
,
0001
0010
0100
1000
0100
0010
0002
1003
,
0010
0100
0010
1000
0001
0010
0200
1300
,
0001
0100
0020
0130
0001
1000
0M01
00M0
,
M010
000M
01M0
M000
2M00
300M
10M1
0M00
,
M001
00M0
M101
000M
02M0
M300
011M
M000
,
0M10
000M
10M0
0M00
M001
00M0
0M11
M000
,
001M
0M00
011M
M000
02M0
M300
110M
00M0
,
1M00
00M0
M001
00M0
010M
M000
011M
M000
,
0M10
000M
1M10
000M
20M0
3M00
20M2
3M03
,
M001
0M00
001M
M000
01M0
M000
110M
00M0
,
2M00
0000
300M
0000
1002
0000
0000
0000
0203
0000
0300
0000
0120
0000
1030
0001
,
1000
0000
0100
0000
0120
0000
0031
1000
0001
0000
0100
0000
0120
0000
1030
0001
,
1000
0000
0200
0000
0310
0100
0010
0000
0001
0000
1000
0000
1020
0000
0130
0001
,
0100
0000
0010
0000
2010
0000
3001
0010
0001
0000
1000
0000
1200
0000
0310
0001
,
0010
0000
0100
0000
1000
0001
1000
0000
0010
0000
0100
0001
0200
0000
0301
1000
,
0001
0000
0010
0000
0100
0000
1000
0000
0100
0000
0010
0000
0002
0000
1003
0010
,
1000
0000
0002
0000
1003
0100
1000
0000
0001
0000
0100
0000
0001
1000
0100
1000
,
0001
0000
1000
0100
0010
0001
1000
0001
0010
0100
1000
0000
0001
0100
0010
1000
,
0001
1000
0010
0100
0001
1000
0100
0000
0020
0000
0000
0030
0012
0000
1003
0010
,
1000
0000
0001
0000
0010
0100
0010
0001
1000
0001
0100
0000
0120
0000
1030
0001
,
1000
0000
0100
0000
0010
0001
1000
0001
0010
0000
0100
0000
2100
0000
3001
0100
,
0001
0000
1000
0100
0010
0001
0010
0100
1000
0001
1000
0000
1020
0000
0130
0001
,
0100
0000
0010
0000
1000
0001
1000
0000
0100
0000
0010
0000
0012
0000
1003
0010
,
1000
0000
0001
0000
1000
0100
0010
0100
1000
0001
0100
0010
0100
0001
1000
0001
,
0010
0000
0100
0000
2100
0000
3001
0100
0010
0100
0001
1000
0100
0010
0001
0010
,
0100
0000
1000
0001
0100
0001
1000
0100
0010
0100
1000
0000
0001
0100
0010
0100
,
0001
1000
0001
0010
0100
0010
0001
1000
0001
0000
0020
0000
0000
0000
0000
0000
,
0000
0000
0000
0000
,
0000
0000
0000
0030
;

//---------------dance-single - AceOfArrows (2018)----------------
#NOTES:
     dance-single:
     AceOfArrows (2018):
     Hard:
     9:
     0.602,0.000,0.158,1.000,0.132: // measure 1
0000
0000
0000
0000
,  // measure 2
0000
0000
0000
0000
,  // measure 3
0002
0000
0013
0220
,  // measure 4
0030
2300
0002
0000
0000
0000
3003
0000
,  // measure 5
0000
0000
2000
3010
2000
3001
0022
0000
,  // measure 6
0003
0230
2000
0000
0000
0000
3300
0000
,  // measure 7
0000
0000
2000
3001
0200
0301
2002
0000
,  // measure 8
0003
3200
0020
0000
0000
0000
0330
0000
,  // measure 9
0000
0000
0000
0000
0020
0000
0031
0000
2000
0000
3001
0000
0100
0010
0100
0000
,  // measure 10
0001
0000
1000
0000
0100
0010
0100
0000
1000
0000
0001
0000
1000
0001
1000
0000
,  // measure 11
0010
0100
0001
1000
0001
0010
0200
1300
,  // measure 12
0001
0000
0100
0000
0010
0000
2000
3001
,  // measure 13
0010
0100
0000
1000
0002
0000
2003
3010
,  // measure 14
0100
0000
0001
0000
1000
0000
0200
0310
,  // measure 15
0001
2000
0000
3010
0200
0000
0302
1003
,  // measure 16
0100
0000
0020
0000
0230
0000
2300
3001
,  // measure 17
0100
0020
0000
0000
2030
0000
3002
0013
,  // measure 18
0100
1000
0001
0200
0000
0310
2010
0000
,  // measure 19
3002
0003
0041
0000
0230
0000
2300
0000
,  // measure 20
0000
0000
3002
0000
0203
0300
0120
0000
,  // measure 21
1030
0002
0000
0103
0020
0000
1030
0001
,  // measure 22
0010
0001
2000
0000
3020
0030
0210
0000
,  // measure 23
0301
2000
0000
3001
0020
0000
0130
1000
,  // measure 24
0001
0100
0020
0000
2030
3000
1002
0000
,  // measure 25
0013
0000
0200
0000
0000
0000
1300
0000
0001
0000
1000
0000
0010
0100
0000
0100
,  // measure 26
0001
0000
1000
0000
0001
0010
0001
0000
1000
0000
0010
0000
0100
0001
0100
0000
,  // measure 27
0010
0000
1000
0000
0001
0010
0001
0000
1000
0000
0100
0000
0020
0000
0031
0010
,  // measure 28
0100
1000
0100
0020
0000
0030
0001
1000
0100
1000
0001
0200
0000
0300
0020
0000
,  // measure 29
2030
3002
0023
0230
2300
3002
0003
0000
,  // measure 30
1000
0010
0100
0010
1000
0002
0000
0003
,  // measure 31
1000
0100
0010
0100
1000
0002
0000
0003
,  // measure 32
2000
0000
3020
0000
0230
0300
0102
0000
,  // measure 33
2003
0000
3200
0000
0320
0000
0031
1000
,  // measure 34
0010
0100
0010
1000
0001
0010
0210
0000
,  // measure 35
2300
0000
0000
0000
3004
0000
0000
0000
0000
0000
0000
0000
1003
0000
0100
0010
,  // measure 36
0000
0010
0100
0000
2000
0000
0000
0000
3002
0000
0003
0000
0201
0000
0000
0310
,  // measure 37
1000
0000
0001
0000
0020
0000
0000
0130
1000
0000
0001
0000
0200
0000
0000
0000
,  // measure 38
0310
0000
2000
0000
0000
0000
3002
0000
0000
0000
0013
0000
0200
0000
0000
1300
,  // measure 39
0001
0000
0100
0000
0020
0000
0000
1030
0001
0000
0010
0000
0200
0000
0000
0000
,  // measure 40
1300
0000
0002
0000
0000
0000
0103
0010
0100
0000
0001
0000
2000
0000
0000
0000
,  // measure 41
3100
0010
0001
0010
0100
1000
0001
0100
,  // measure 42
0010
0000
0200
0000
0000
0000
0302
0000
0000
0000
1003
0000
0100
0010
0100
0000
,  // measure 43
1000
0000
0001
0000
0100
0010
0100
0000
0001
0000
1000
0000
0001
0010
0001
0000
,  // measure 44
1000
0010
0100
0001
2000
3000
2200
0000
,  // measure 45
0000
0000
3300
0200
,  // measure 46
0000
0000
0320
0000
0000
0030
0022
0000
,  // measure 47
0000
0000
0033
2002
,  // measure 48
0000
0000
3003
2020
,  // measure 49
0000
0000
3030
0220
,  // measure 50
0000
0000
0330
0202
,  // measure 51
0000
0000
0303
0002
,  // measure 52
0000
2003
0000
310M
,  // measure 53
0010
M100
2000
30M1
,  // measure 54
0100
001M
0200
M301
,  // measure 55
1000
01M0
0010
0M01
,  // measure 56
1000
001M
0200
M301
,  // measure 57
1000
01M0
0010
0M01
,  // measure 58
1000
00M2
0203
M310
,  // measure 59
1000
0M01
0010
020M
,  // measure 60
2300
0000
0000
0000
3002
0000
0000
0000
0203
0000
0300
0000
0120
0000
0000
1030
,  // measure 61
0001
0000
0010
0000
0200
0000
0000
1300
0001
0000
0100
0000
0020
0000
0000
0000
,  // measure 62
1030
0000
0002
0000
0000
0000
0023
0000
0000
0000
0130
0000
2000
0000
0000
3001
,  // measure 63
0100
0000
0010
0000
2000
0000
0000
3001
0010
0000
0100
0000
0020
0000
0000
0000
,  // measure 64
0031
0000
1000
0000
0010
0100
0010
0000
1000
0000
0001
0000
0020
0000
0000
0000
,  // measure 65
0031
1000
0010
0100
0010
1000
0001
0010
,  // measure 66
0100
0000
2000
0000
0000
0000
3002
0000
0000
0000
0103
0000
0001
1000
0001
0000
,  // measure 67
0010
0000
0100
0000
0010
0001
0010
0000
0100
0000
1000
0000
0001
1000
0001
0000
,  // measure 68
0100
0000
0010
0000
1000
0000
0001
0000
0020
0000
0000
0030
0220
0000
0000
0000
,  // measure 69
0030
2300
0002
0000
0000
0000
3003
0000
,  // measure 70
0000
0000
0002
0103
0020
1030
2002
0000
,  // measure 71
3000
0203
0020
0000
0000
0000
0330
0000
,  // measure 72
0000
0000
0020
1030
0002
0013
0220
0000
,  // measure 73
0030
2300
0002
0000
0000
0000
3003
0000
,  // measure 74
0000
0000
0000
0000
0002
0000
0103
0000
0020
0000
1030
0000
0001
1000
0001
0000
,  // measure 75
0010
0000
0100
0000
1000
0100
1000
0000
0001
0000
0100
0000
0010
0100
0010
0000
,  // measure 76
1000
0001
0010
0001
1000
0020
0000
0000
,  // measure 77
0000
0000
0000
0000
,  // measure 78
0000
0000
0000
0030
;

//---------------dance-single - AceOfArrows (2018)----------------
#NOTES:
     dance-single:
     AceOfArrows (2018):
     Medium:
     6:
     0.435,0.000,0.000,1.000,0.008:
0000
0000
0000
0000
,
0000
0000
0000
0000
,
2000
0000
3010
0200
,
0000
0301
2000
0000
0000
0000
3000
0000
,
0000
0000
0001
0010
0002
0000
2003
0000
,
0000
3010
0200
0000
0000
0000
0300
0000
,
0000
0000
0001
1000
0002
0000
0023
0000
,
0000
0130
2000
0000
0000
0000
3000
0000
,
0000
0000
0010
0100
0020
0000
4030
0000
,
0000
3001
0400
0000
0000
0000
0301
1000
,
0001
0010
0100
2000
,
3000
0001
0100
0002
,
1003
0100
0000
1000
0001
0000
2000
0000
,
3000
0010
0100
0002
,
1003
0010
0000
1000
0001
0000
0020
0000
,
0030
0100
1000
0002
,
1003
0020
0000
0000
0230
0000
0302
0000
,
1003
0100
2000
0000
0000
3001
0020
0000
,
0230
2300
3001
0200
,
0300
0020
2030
3002
,
0013
0200
0000
1300
0002
0000
0003
0000
,
0000
2000
3020
0230
,
0301
2000
0000
3001
0200
0000
0300
0000
,
0000
0002
2003
3200
,
0310
0002
0000
1003
0020
0000
0030
0000
,
1000
0001
2000
0000
0000
3100
0020
0000
,
0032
0000
2003
0000
3020
0000
0030
1000
,
0002
0000
0000
0013
0000
0000
0001
0000
2000
0000
0000
3010
0000
0000
0200
0000
,
0302
2003
3200
0320
0230
2300
3000
0000
,
0001
0010
0002
0000
1003
0010
0000
0000
,
1000
0001
2000
0000
3100
0010
0000
0000
,
0002
2003
3200
0320
,
0230
0000
2300
0000
3002
0000
1003
0010
,
1000
0000
0001
0010
0001
0000
2000
0000
,
3020
0430
0000
0300
,
0000
0000
0002
0000
2003
0000
3020
0030
,
0000
1000
0002
0003
0000
0010
0200
0000
,
1300
0002
0000
0203
0000
0310
2000
3000
,
0000
0001
0020
0030
0001
1000
0002
0000
,
1003
0020
0000
0130
0002
0000
0003
0000
,
1000
0100
2000
0000
3001
0010
0002
0000
,
1003
0020
0000
0230
0000
0301
2000
0000
,
3200
0000
0320
0000
0230
0000
0300
1000
,
0002
0000
0103
0010
0200
0000
0302
0000
,
0000
0000
0003
2000
,
0000
3002
0000
0023
,
0000
0000
0030
0200
,
0000
0000
0300
2000
,
0000
0000
3000
0002
,
0000
0000
0003
0200
,
0000
0000
0300
0020
,
0000
2030
0000
3001
,
0010
0002
00M3
1000
,
0001
2000
3M00
0001
,
0100
0002
00M3
1000
,
0001
2000
300M
0100
,
0010
0200
030M
1000
,
0001
2000
3M00
0001
,
0010
0002
0M03
1000
,
0100
0000
2000
0000
3002
0000
0203
0300
,
0000
0010
2000
3000
0000
0001
0020
0000
,
0130
2000
0000
3002
0000
1003
0020
0030
,
0000
0100
0002
0000
1003
0001
2000
0000
,
3010
0200
0000
0301
2000
0000
3000
0000
,
0001
0010
0002
0000
1003
0010
2000
0000
,
3001
0200
0000
0320
0000
1030
0002
0000
,
0023
0000
0230
0000
0320
0000
0000
0031
,
2000
0000
3001
0010
0002
0000
2003
0000
,
0000
3010
0200
0000
0000
0000
0300
0000
,
0000
0000
0001
1000
0002
0000
0023
0000
,
0000
0130
2000
0000
0000
0000
3000
0000
,
0000
0000
0001
0100
0002
0000
2003
0000
,
0000
3100
0020
0000
0000
0000
0030
0000
,
0000
0000
0001
1000
0002
0000
0203
0000
,
0000
0310
2000
0000
0000
0000
3000
0000
,
0000
0000
0002
0000
1003
0020
0000
0000
,
0000
0000
0000
0000
,
0000
0000
0000
0030
;

//---------------dance-single - AceOfArrows (2018)----------------
#NOTES:
     dance-single:
     AceOfArrows (2018):
     Easy:
     4:
     0.247,0.000,0.000,0.415,0.000:
0000
0000
0000
0000
,
0000
0000
0000
0000
,
0002
0000
1003
2000
,
0000
3200
0000
0300
,
0000
0010
0010
0020
,
0000
0032
0000
0003
,
0000
1000
1000
2000
,
0000
3020
0000
0030
,
0000
0100
0100
0400
,
0000
0304
0000
4003
,
0000
0000
3000
0000
,
0000
0001
0001
0002
,
0000
1003
0000
0000
2000
0000
3000
0000
,
0000
0010
0010
0020
,
0000
0130
0000
0000
0200
0000
0300
0000
,
0000
0001
0001
0002
,
0000
1003
0000
0000
2000
0000
3000
0000
,
0100
0100
0000
0010
,
0010
0010
0020
0030
,
0000
0001
0001
0002
,
0000
1003
0000
0000
2000
0000
3000
0000
,
0000
0100
0100
0200
,
0000
0310
0000
0000
0020
0000
0030
0000
,
0000
0100
0100
0200
,
0000
1300
0000
0000
2000
0000
3000
0000
,
0001
0001
0000
0010
,
0010
0010
0020
0030
,
0002
0003
2000
3000
,
0010
0000
0100
0100
0100
0100
0000
0000
,
0001
0000
0002
0000
0000
1003
0000
0000
,
1000
0000
2000
0000
0000
3010
0000
0000
,
0010
0010
0010
0100
,
0100
0100
0100
0004
,
0000
0000
0000
1003
,
1000
4000
0000
3000
,
0000
0010
0010
0010
,
0000
0100
0000
0001
,
0000
0002
0000
0000
0003
0000
1000
0000
,
0000
1000
0000
0010
,
0000
0020
0000
0000
0030
0000
0000
0000
,
0100
0100
0000
0001
,
0000
0002
0000
0000
0003
0000
1000
0000
,
1000
1000
1000
0000
,
0010
0010
0010
0020
,
0000
0000
0030
2000
,
0000
3002
0000
2003
,
0000
0000
3000
0020
,
0000
0000
0030
0200
,
0000
0000
0300
0002
,
0000
0000
0003
2000
,
0000
0000
3000
0200
,
0000
0320
0000
0031
,
0001
0002
0M03
1000
,
1000
2000
300M
0010
,
0010
0020
M030
0100
,
0100
0200
03M0
0001
,
0001
0002
0M03
1000
,
1000
2000
300M
0100
,
0100
0200
M300
0010
,
0010
0001
0001
0001
,
0000
1000
0000
0010
,
0000
0020
0000
0000
0030
0000
0100
0000
,
0000
0100
0000
0001
,
0000
0002
0000
0000
0003
0000
0000
0000
,
1000
1000
0000
0100
,
0000
0200
0000
0000
0300
0000
0010
0000
,
0010
0010
0010
0000
,
0001
0001
0001
2000
,
0000
3020
0000
0030
,
0000
0100
0100
0200
,
0000
0302
0000
0003
,
0000
1000
1000
2000
,
0000
3200
0000
0300
,
0000
0010
0010
0040
,
0000
0034
0000
0003
,
0000
0000
1000
0000
0000
2000
0000
0000
,
0000
0000
0000
0000
,
0000
0000
0000
3000
;

//---------------dance-single - AceOfArrows (2018)----------------
#NOTES:
     dance-single:
     AceOfArrows (2018):
     Beginner:
     2:
     0.150,0.000,0.000,0.279,0.000:
0000
0000
0000
0000
,
0000
0000
0000
0000
,
0000
0000
0000
1000
,
0000
2000
0000
3000
,
0000
0001
0000
0001
,
0000
0002
0000
0003
,
0000
0100
0000
0100
,
0000
0200
0000
0300
,
0000
0010
0000
0010
,
0000
0040
0000
0000
,
0000
0000
0030
0000
,
0000
0100
0000
0100
,
0000
0200
0000
0300
,
0000
0001
0000
0001
,
0000
0002
0000
0003
,
0000
1000
0000
1000
,
0000
2000
0000
3000
,
0000
0010
0000
0010
,
0000
0020
0000
0030
,
0000
0100
0000
0100
,
0000
0200
0000
0300
,
0000
0001
0000
0001
,
0000
0002
0000
0003
,
0000
1000
0000
1000
,
0000
2000
0000
3000
,
0000
0001
0000
0001
,
0000
0002
0000
0003
,
0020
0030
0020
0030
,
0100
0100
0200
0300
,
0000
2000
0000
3000
,
0000
2000
0000
3000
,
0000
0001
0000
0001
,
0000
0001
0000
0004
,
0000
0000
0000
0000
,
0000
0000
0000
0003
,
0000
1000
0000
1000
,
0000
1000
0000
2000
,
0000
3000
0000
0010
,
0000
0010
0000
0020
,
0000
0030
0000
0000
,
0000
0100
0000
0200
,
0000
0300
0000
0001
,
0000
0001
0000
0000
,
0000
1000
0000
2000
,
0000
0000
3000
0001
,
0000
0001
0000
0002
,
0000
0003
0000
0200
,
0000
0300
0000
0200
,
0000
0300
0000
0020
,
0000
0030
0000
0020
,
0000
0030
0000
2000
,
0000
3000
0000
0001
,
0000
0M01
0000
0002
,
0000
0003
0000
1000
,
0000
10M0
0000
2000
,
0000
3000
0000
0100
,
0000
010M
0000
0200
,
0000
0300
0000
0010
,
0000
M010
0000
0020
,
0000
0030
0000
0001
,
0000
0001
0000
0002
,
0000
0003
0000
1000
,
0000
1000
0000
2000
,
0000
3000
0000
0000
,
0000
0010
0000
0020
,
0000
0030
0000
0100
,
0000
0100
0000
0000
,
0000
0001
0000
0001
,
0000
0002
0000
0003
,
0000
1000
0000
1000
,
0000
2000
0000
3000
,
0000
0100
0000
0100
,
0000
0200
0000
0300
,
0000
0010
0000
0010
,
0000
0040
0000
0000
,
0000
0030
0000
0002
,
0000
0000
0000
0000
,
0000
0000
0000
0003
;
