#TITLE:Goof Troop Theme;
#SUBTITLE:;
#ARTIST:Phil Perry;
#TITLETRANSLIT:;
#SUBTITLETRANSLIT:;
#ARTISTTRANSLIT:;
#GENRE:;
#CREDIT:Ace Of Arrows;
#BANNER:Goof Troop Theme - Bn.png;
#BACKGROUND:Goof Troop Theme - Bg.jpg;
#LYRICSPATH:;
#CDTITLE:Ace Of Arrows.png;
#MUSIC:Goof Troop Theme.ogg;
#OFFSET:2.140;
#SAMPLESTART:22.600;
#SAMPLELENGTH:12.000;
#SELECTABLE:YES;
#BPMS:0.000=97.900;
#STOPS:;
#BGCHANGES:0.000=Goof Troop Theme - Bg.jpg=1.000=0=0=1=Centered====,
3.250=Goof Troop Video.avi=1.000=1=0=1===CrossFade==,
99999=-nosongbg-=1.000=0=0=0 // don't automatically add -songbackground-
;
#KEYSOUNDS:;

//---------------dance-single - AceOfArrows (2018)----------------
#NOTES:
     dance-single:
     AceOfArrows (2018):
     Challenge:
     10:
     0.799,0.396,0.644,0.875,0.792:
0000
0000
0000
0000
,
2001
0000
3010
0000
1000
0001
0010
0001
1000
0010
0220
0330
0100
0202
0000
0303
,
2002
0003
3100
0010
0000
0100
0010
0000
0011
0001
2000
0000
3010
0100
0001
0000
,
1001
2000
0000
3000
1100
0000
0100
0000
0010
0001
1000
0000
1010
0000
0010
0100
,
0002
0000
1003
0000
1200
0000
0310
0011
0000
0001
1000
0000
2220
3330
0100
0000
,
0110
0020
0000
0030
0011
0000
0001
1000
0010
0000
0100
0000
0102
0000
0000
1003
,
0200
0000
0310
0000
0002
0000
1003
1010
0000
0010
0000
0100
0001
1000
0100
0000
,
0120
0000
0031
0000
2000
0000
3020
0000
0130
0001
1000
0200
0000
0300
0000
0000
,
0110
0000
0010
0000
0001
0000
1000
0000
0010
0000
0200
0000
0300
0000
0101
0000
0001
0000
0000
0000
1000
0000
1100
0000
0100
0000
0000
0000
0000
0000
0010
0001
,
0010
0000
0100
0000
0000
0000
1000
0000
1002
0000
0000
0000
0203
0000
0000
0000
0320
0000
0000
0000
1030
0000
0001
0000
0010
0000
0001
0000
1000
0000
0001
0010
,
0001
1000
0000
0010
0100
0001
1000
0100
0110
0000
0011
0000
1001
0000
1010
1000
,
0020
0000
0230
0000
0301
0000
1000
1020
0000
0230
0000
0000
0301
0000
1000
0200
,
0000
0320
0000
0000
0130
0000
1000
0001
0100
0000
0110
0000
1010
0000
1001
0000
,
0011
0000
0010
0000
0110
0000
0100
1000
0000
1002
0000
0000
0000
0023
0000
0000
,
0130
0000
1000
0001
0100
0000
0010
0100
0002
0000
2003
0000
3002
0000
0023
0000
,
0130
1000
0001
0200
0000
0300
0000
0010
0200
0000
0301
0000
1000
0100
0010
0012
,
0000
0000
0000
0000
0000
1003
0002
0200
0000
0000
0000
0000
0000
0000
0000
0010
,
0000
0303
0001
1000
0100
0010
0100
1000
0001
1000
0100
0010
0100
1000
0001
0100
,
0110
0000
0010
0000
0000
0000
0100
0001
2000
0000
3200
0000
0310
0000
0001
1001
,
0000
0000
2000
0000
0000
0000
0000
0000
0000
0000
3010
0000
0000
0000
0100
0010
0100
0000
0001
0000
0000
0000
1000
0000
0200
0000
0000
0000
0310
0000
0001
0000
,
1001
0000
1000
0000
0010
0000
0100
0001
1001
0000
1000
0000
0100
0000
0010
0011
,
0000
0000
0002
0000
0000
0000
0000
0000
0000
0000
0000
0000
1003
0000
0010
0100
0010
0000
1000
0000
0001
0000
0010
0000
0100
0000
0000
0000
0010
0000
0001
0000
,
2000
0000
3020
0000
0230
0000
0301
0000
1000
0100
0010
0001
1000
0000
0010
0000
,
0100
0001
1000
0100
0010
0100
1000
1001
0000
1000
0010
0100
0001
0000
1000
0100
,
0110
0000
0000
0010
0000
0000
0001
0000
1000
0100
0010
0100
1000
0000
0000
0001
0000
1000
0002
0000
0013
0000
0000
0000
,
0200
0300
0000
0000
;

//---------------dance-single - AceOfArrows (2018)----------------
#NOTES:
     dance-single:
     AceOfArrows (2018):
     Hard:
     8:
     0.580,0.208,0.083,0.941,0.545: // measure 1
0000
0000
0000
0000
,  // measure 2
2001
0000
3010
0000
0100
0010
0100
0000
0001
0000
1000
0000
0000
1000
0000
0000
,  // measure 3
1002
0000
0013
0000
0100
1000
0100
0000
0010
0002
0000
0000
0003
0000
1000
0000
,  // measure 4
0010
0200
0000
0000
0300
0000
0001
0000
2001
0000
0000
0000
3000
0000
0000
0001
,  // measure 5
0020
0000
0130
0000
2000
0000
3001
0200
0000
0000
0300
0000
0110
0000
0010
0000
,  // measure 6
1000
0002
0000
0000
0003
0000
0010
0000
0220
0000
0000
0000
0330
0000
0000
0100
,  // measure 7
2000
0000
3001
0000
0200
0000
0310
1000
0000
0001
0000
0200
0000
0000
0300
0000
,  // measure 8
0002
0000
1003
0000
0200
0000
0310
0000
0001
0010
0100
2000
0000
0000
3000
0000
,  // measure 9
0001
0100
0010
0100
0001
1000
0000
0200
0000
0000
0300
0000
0010
0000
0000
0001
,  // measure 10
1000
0000
0010
0200
0000
0000
0301
0000
2000
0000
0000
0000
3100
0000
0000
0010
,  // measure 11
0100
0010
0000
0001
1000
0000
0001
0100
0002
0000
1003
0000
0000
0000
0100
0010
,  // measure 12
0200
0000
1300
0000
0001
0000
1000
0010
0000
0200
0000
0000
0000
0302
0000
0003
,  // measure 13
0000
0000
0000
0000
1000
0000
0001
0010
0002
0000
1003
0000
0000
0000
0000
0000
,  // measure 14
0010
0000
0100
0000
0001
0000
1000
0200
0000
0320
0000
0000
0000
0230
0000
0300
,  // measure 15
1000
0000
0000
0001
0100
0000
0010
0000
1000
0000
0001
0000
1000
0000
0001
0000
,  // measure 16
1000
0100
0010
0002
0000
0003
0000
1000
0020
0000
0130
0000
0001
0100
0010
2000
,  // measure 17
0000
0000
0000
0000
0000
3001
0010
0200
0000
0000
0000
0000
0000
0000
0000
0320
,  // measure 18
0000
0000
0030
0000
0000
0000
0002
0000
1003
0010
2000
0000
3002
0000
1003
0100
,  // measure 19
2000
0000
3002
0000
0003
0000
0100
0010
0200
0000
0301
0000
1000
0000
0100
0010
,  // measure 20
0000
0200
0000
0000
0000
2300
0000
0000
3000
0002
0000
0000
0203
0000
0310
1000
,  // measure 21
0020
0000
0230
0000
0300
0000
0000
0001
1000
0000
0100
0000
0010
0000
0100
1000
,  // measure 22
0000
0002
0000
0000
0000
0000
0203
0000
0310
1000
0000
0001
1000
0000
0100
0000
,  // measure 23
0020
0000
0130
0000
2000
0000
3002
0000
1003
0100
0010
0001
0000
0000
0000
0000
,  // measure 24
1000
0010
0100
0010
2000
0000
3001
0020
0000
0030
0000
0001
2000
0000
3010
0100
,  // measure 25
0020
0000
0000
2030
0000
0000
3000
0000
0001
0010
0001
0010
0001
0000
0000
1000
0000
0001
0020
0000
0130
0000
0000
0000
,  // measure 26
2000
3000
0000
0000
;

//---------------dance-single - AceOfArrows (2018)----------------
#NOTES:
     dance-single:
     AceOfArrows (2018):
     Medium:
     6:
     0.299,0.083,0.000,0.413,0.182:
0000
0000
0000
0000
,
2000
0000
0000
0000
3000
0000
0000
0000
0000
0000
0010
0000
0000
0010
0000
0000
,
0020
0430
0000
0000
0300
0000
0000
0001
,
2000
0000
3000
0010
0200
0000
0300
0000
,
0001
0000
1000
0000
0002
0000
0000
0103
0000
0000
0000
0000
0010
0000
0100
0000
,
0020
0000
0030
1000
0002
0000
0003
0000
,
1000
0000
0100
0000
2000
0000
0000
3001
0000
0010
0000
0002
0000
0000
0003
0000
,
1000
0000
0001
0000
2000
0000
0000
0000
3100
0000
0000
0200
0000
0000
0300
0000
,
0010
0000
0001
0000
0010
0000
0000
0200
0000
0000
0300
0000
4000
0000
0000
0000
,
3000
0000
0001
0100
0002
0000
4003
0000
,
3000
0000
0001
0010
0001
0010
0000
0000
,
0001
0000
1000
0000
0001
0000
0000
1000
0000
0200
0000
0000
0000
0000
0300
0000
,
0000
0000
0000
1000
0001
1000
0000
0000
,
0010
0000
0100
0000
0010
0000
0000
1000
0000
0002
0000
0000
0000
0000
0003
0000
,
0000
0000
0000
0000
0010
0100
0010
0000
,
0001
0000
0000
0002
0000
0000
0003
0000
1000
0000
0010
0000
1000
0000
0000
0002
,
0000
0000
0000
0000
0000
0000
0000
0200
0000
0000
0003
0000
0000
0000
0000
0320
,
0000
4030
0000
0000
0000
0000
3000
0001
,
0100
0000
0001
0000
0000
0000
1000
0000
0200
0000
0000
0000
0310
0000
0000
0001
,
0000
0002
0000
0000
0000
0000
0003
0000
0000
0000
0000
2000
0000
0000
3010
0000
,
0100
0000
0010
0000
0000
0000
0000
0000
1000
0000
0001
0000
1000
0000
0000
0010
,
0000
0020
0000
0000
0000
0000
0030
0000
0000
0000
0000
0000
0000
0000
0000
0000
,
1000
0000
0001
0000
1000
0000
0000
0000
0100
0000
0000
0100
0000
0000
0000
0000
,
0010
0000
0001
0000
0020
0000
0000
0130
0000
0000
0000
0000
1000
0000
0001
0000
,
1000
0001
0000
1000
0010
1000
0001
0000
,
0200
0300
0000
0000
;

//---------------dance-single - AceOfArrows (2018)----------------
#NOTES:
     dance-single:
     AceOfArrows (2018):
     Easy:
     3:
     0.160,0.063,0.000,0.231,0.000: // measure 1
0000
0000
0000
0000
,  // measure 2
0001
0000
2000
0000
,  // measure 3
3000
0010
0010
0000
,  // measure 4
0100
0000
0001
0000
,  // measure 5
1000
1000
2000
3000
,  // measure 6
0001
0000
0100
0000
,  // measure 7
0010
0010
0020
0030
,  // measure 8
1000
1000
2000
3000
,  // measure 9
0001
0001
0001
0000
,  // measure 10
0400
0000
0300
0000
,  // measure 11
0000
0010
0010
0000
,  // measure 12
1000
1000
2000
0000
,  // measure 13
3000
0000
0001
0000
,  // measure 14
0010
0010
0020
0000
,  // measure 15
0030
0000
0100
0100
,  // measure 16
0200
0300
1000
1000
,  // measure 17
2000
0000
0002
0000
,  // measure 18
3003
0000
4000
3000
,  // measure 19
0100
0000
0010
0010
,  // measure 20
0020
0000
0030
0000
,  // measure 21
0001
0000
1000
1000
,  // measure 22
2000
0000
3000
0000
,  // measure 23
0010
0010
0020
0030
,  // measure 24
0200
0000
0300
0001
,  // measure 25
0001
0000
0000
4000
0000
0000
3000
0000
,  // measure 26
0200
0300
0000
0000
;

//---------------dance-single - AceOfArrows (2018)----------------
#NOTES:
     dance-single:
     AceOfArrows (2018):
     Beginner:
     1:
     0.113,0.042,0.017,0.215,0.000: // measure 1
0000
0000
0000
0000
,  // measure 2
0001
0000
0001
0000
,  // measure 3
0004
0000
0003
0000
,  // measure 4
1000
0000
1000
0000
,  // measure 5
2000
0000
3000
0000
,  // measure 6
0010
0000
0010
0000
,  // measure 7
0020
0000
0030
0000
,  // measure 8
0100
0000
0100
0000
,  // measure 9
0200
0000
0300
0000
,  // measure 10
0004
0000
0000
0000
,  // measure 11
0003
0000
1000
0000
,  // measure 12
1000
0000
2000
0000
,  // measure 13
3000
0000
0001
0000
,  // measure 14
0001
0000
0002
0000
,  // measure 15
0003
0000
0020
0000
,  // measure 16
0030
0000
0001
0000
,  // measure 17
2002
0000
0000
0000
,  // measure 18
3003
0000
0000
0000
,  // measure 19
1000
0000
1000
0000
,  // measure 20
2000
0000
3000
0000
,  // measure 21
0010
0000
0010
0000
,  // measure 22
0020
0000
0030
0000
,  // measure 23
0100
0000
0100
0000
,  // measure 24
0200
0000
0300
0000
,  // measure 25
0001
0000
0002
0003
,  // measure 26
0200
0300
0000
0000
;
