#TITLE:Fly Away;
#SUBTITLE:;
#ARTIST:Mitssi feat. Seolreim;
#TITLETRANSLIT:;
#SUBTITLETRANSLIT:;
#ARTISTTRANSLIT:;
#GENRE:;
#CREDIT:Ace Of Arrows;
#BANNER:Fly Away - Bn.png;
#BACKGROUND:Fly Away - Bg.jpg;
#LYRICSPATH:;
#CDTITLE:Ace Of Arrows.png;
#MUSIC:Fly Away.ogg;
#OFFSET:1.100;
#SAMPLESTART:57.600;
#SAMPLELENGTH:12.000;
#SELECTABLE:YES;
#BPMS:0.000=172.000,72.000=86.000,88.000=172.000,300.000=86.000,308.000=172.000;
#STOPS:;
#BGCHANGES:;
#KEYSOUNDS:;

//---------------dance-single - AceOfArrows (2018)----------------
#NOTES:
     dance-single:
     AceOfArrows (2018):
     Challenge:
     10:
     0.858,0.688,0.688,1.000,0.227: // measure 1
0000
0000
0000
0000
,  // measure 2
0000
0000
0000
0000
,  // measure 3
1002
0000
0023
0000
0130
1000
0001
0100
,  // measure 4
0120
0000
1030
0000
0001
0000
0020
0000
0130
0000
1000
0000
0001
0000
1000
0100
,  // measure 5
2000
0000
3002
0000
0103
0010
1000
0001
,  // measure 6
0021
0000
0230
0000
0000
0000
1300
0001
2000
0000
3010
0000
0100
0000
0001
0000
,  // measure 7
2001
3100
0010
0100
1000
0001
0100
0010
,  // measure 8
2010
3001
0010
0100
2100
3001
0100
0010
,  // measure 9
2010
3002
0000
0003
0000
2000
3200
0020
,  // measure 10
0300
0000
0031
0000
1000
0000
0010
0000
0100
0001
0100
0000
0010
0000
0000
0000
,  // measure 11
2010
0000
3001
0000
0010
0100
1000
1002
,  // measure 12
0000
0000
0000
0200
0000
0003
0310
0000
,  // measure 13
2010
0000
3001
0000
0010
0100
1000
1002
,  // measure 14
0000
0000
0000
0203
0000
0310
1000
0001
,  // measure 15
0021
0000
0000
0230
0000
2300
0000
3002
,  // measure 16
0000
0000
1003
0000
0100
0000
0020
0000
0000
0000
0130
1000
0100
0000
0010
0000
,  // measure 17
0002
1003
0010
0200
0000
0000
0302
0000
,  // measure 18
2003
0000
3100
0000
0010
0000
0001
0010
0100
0010
0001
0000
1000
0100
1000
0000
,  // measure 19
1002
0000
2003
0000
3020
0000
0130
0001
1000
0100
0010
0002
0000
0003
0000
0000
,  // measure 20
2000
0000
3020
0000
0230
0000
0301
1000
0100
0010
0100
1000
0002
0000
0203
0000
,  // measure 21
0302
0000
0000
1003
0010
0100
0010
2000
0000
3002
0000
0023
0000
0230
0000
2300
,  // measure 22
0002
3000
0000
0203
0000
0000
0320
0000
2030
0000
0000
3002
0000
0000
0023
0000
,  // measure 23
0230
0000
2300
0000
3002
0000
0103
0010
,  // measure 24
1010
1000
0001
0020
0000
0130
1000
0000
,  // measure 25
1002
0000
0203
0000
0320
0000
1030
0001
,  // measure 26
0011
0010
0100
2000
0000
3002
0000
0003
,  // measure 27
2001
0000
0000
3010
0100
0001
1000
1200
,  // measure 28
0000
0310
0000
0012
0000
1003
0000
2040
,  // measure 29
0000
3000
0130
0001
1000
0100
0000
0110
,  // measure 30
0000
0000
0010
0000
0001
0000
1000
0000
1010
0000
0010
0000
0100
0001
1000
0001
,  // measure 31
0200
0000
0000
0310
1000
0001
0010
0200
,  // measure 32
0000
2300
0000
3002
0000
0203
0000
0320
,  // measure 33
0000
0030
0000
0000
1000
0001
0010
0200
,  // measure 34
0000
2300
0000
3002
0000
0013
0200
0300
,  // measure 35
2100
3001
0100
0010
1000
0001
0010
0200
,  // measure 36
0000
0310
0001
1000
0010
0100
0001
2000
,  // measure 37
0000
3200
0000
0000
0300
0020
0230
2000
,  // measure 38
0000
0000
0300
0000
3001
0000
0100
0010
1000
0010
0100
0000
0001
1000
0001
0000
,  // measure 39
0021
0000
0230
0000
1300
0001
0100
0120
,  // measure 40
0000
1030
0001
0201
0000
0020
0000
0330
,  // measure 41
2010
0000
3002
0000
0013
0100
1000
1002
,  // measure 42
0000
0203
0300
0120
0000
1030
0002
0003
,  // measure 43
0021
0130
1000
0001
0100
0010
1000
1002
,  // measure 44
0000
0013
0100
1000
0001
0100
0010
2010
,  // measure 45
0000
3002
0000
0003
0000
2000
3002
0020
,  // measure 46
0003
0000
0130
0000
1000
0000
0001
0100
0001
0100
0010
1000
0010
1000
0001
0010
,  // measure 47
0002
0003
1001
0000
1000
0010
0100
0102
,  // measure 48
0000
1003
0100
0120
0000
0032
0000
0003
,  // measure 49
2001
0000
3000
0010
0100
0001
1000
1200
,  // measure 50
0000
0320
0030
0012
0000
1003
0020
0030
,  // measure 51
0210
0301
1000
0010
0100
0001
0100
0120
,  // measure 52
0000
1030
0001
0010
0100
0010
0001
2001
,  // measure 53
0000
3200
0000
0300
0000
0020
0032
2000
,  // measure 54
0003
3010
0110
0100
0001
1000
0100
0120
,  // measure 55
0000
0031
1000
0010
0110
0100
0001
2001
,  // measure 56
0000
3100
0010
0012
0000
1003
0010
0200
,  // measure 57
0000
0000
0300
0001
0000
0000
1001
0000
1000
0000
0100
0000
0010
0000
0002
0000
,  // measure 58
0003
0000
1001
0000
0000
0000
2020
0000
3000
0000
0130
0000
0001
0000
1000
0100
,  // measure 59
2000
0000
3001
0000
0101
0100
0010
2010
,  // measure 60
0000
0000
3001
0000
0010
0000
0100
0000
0010
0001
1000
0001
0200
0000
0301
0000
,  // measure 61
2001
0000
3020
0030
0110
0200
0300
0102
,  // measure 62
0000
1003
0000
1200
0000
0310
0001
2001
,  // measure 63
0000
3010
0100
0102
0000
1003
0100
0120
,  // measure 64
0000
0000
0031
0010
0100
0010
0002
0000
0000
0000
1003
0100
0010
0001
0010
0100
,  // measure 65
2000
0000
0000
0000
3001
0100
0010
2010
,  // measure 66
0000
3002
0000
0023
0000
0230
0300
2100
,  // measure 67
0000
3002
0003
0201
0000
0310
1000
1002
,  // measure 68
0000
0000
0013
0000
0100
0000
1000
0001
1000
0000
0100
0000
0010
0000
0012
0000
,  // measure 69
0000
1003
0010
0100
0102
1003
0000
1200
,  // measure 70
0000
0310
0001
1000
1020
0130
0000
0102
,  // measure 71
0000
1003
0100
0010
0012
1003
0000
2020
,  // measure 72
3000
0130
0102
1003
1100
0100
0010
0012
,  // measure 73
0000
0000
1003
0000
0010
0000
0110
0000
0000
0000
0101
0000
0000
0000
0001
1000
,  // measure 74
0020
0000
0130
0001
1000
0100
0010
0001
,  // measure 75
1001
1000
0001
2002
0000
0000
3003
0000
,  // measure 76
1200
0000
0000
0310
0001
0010
0100
2000
0000
3002
0000
0203
0000
0320
0000
2030
,  // measure 77
0000
3000
0000
0000
0001
0010
0100
2000
0000
3002
0000
0203
0000
0310
2000
0000
,  // measure 78
3000
0001
0010
0100
1100
1000
0001
0201
,  // measure 79
0000
0310
1000
0001
0011
0010
0100
2100
,  // measure 80
0000
3001
0100
0010
1000
0002
2003
0200
,  // measure 81
3000
0000
0310
0001
1000
0001
0010
0000
0100
1000
0100
0000
0010
0000
0022
0000
,  // measure 82
0000
0000
0000
0000
0000
0000
0033
0000
0001
1000
0001
0000
0202
0000
0303
0000
,  // measure 83
0120
0000
2030
3000
1001
0001
0010
0210
,  // measure 84
0000
1300
0001
0201
0000
0020
0000
0330
,  // measure 85
2010
0000
3002
0003
0011
0010
0100
2100
,  // measure 86
0000
3002
0003
0201
0000
0310
2000
3000
,  // measure 87
1002
0013
0100
1000
1001
0001
0100
0120
,  // measure 88
0000
1030
0001
0010
0110
0100
1000
1002
,  // measure 89
0000
0203
0000
0300
0000
0020
2030
0002
,  // measure 90
3000
0000
0013
0000
0100
1000
0100
1000
0001
0100
0001
0100
0010
1000
0010
0100
,  // measure 91
0002
0000
2003
0000
3100
0010
0001
2001
,  // measure 92
0000
3010
0100
0102
0000
2003
0000
3000
,  // measure 93
1200
0000
0000
0310
0100
1000
0001
0201
,  // measure 94
0000
0320
0030
2010
0000
3001
0200
0300
,  // measure 95
0120
1030
0001
0010
0100
1000
0001
0201
,  // measure 96
0000
0310
1000
0001
0011
0010
0100
2100
,  // measure 97
0000
3004
0000
0003
0000
2000
3020
0200
,  // measure 98
0000
0000
0000
0330
0000
0010
1000
1002
,  // measure 99
0000
0013
0100
1000
0001
0100
0010
2010
,  // measure 100
0000
0000
3001
0000
0010
0000
0210
0000
1300
0000
0001
0000
0100
0010
0200
0000
,  // measure 101
0000
0000
0301
0100
0010
1000
0010
0100
0001
1000
0001
0000
0010
0000
0210
0000
,  // measure 102
0000
0000
1300
0000
0001
0100
0001
0000
1000
0100
1000
0000
0001
0000
0201
0000
,  // measure 103
0000
0310
1000
0001
0011
0010
0100
2200
,  // measure 104
0000
0000
0000
0000
0000
0000
0000
3300
,  // measure 105
2000
0000
0000
0000
0000
0000
0000
0000
3001
0100
0001
0000
1000
0000
2002
0000
,  // measure 106
0000
0000
3000
0000
1000
0100
1000
0020
,  // measure 107
0030
1000
0100
2000
3000
0010
1000
0100
,  // measure 108
2000
0000
3000
0000
0010
1000
0100
2000
,  // measure 109
3000
0100
1000
0020
0030
0100
2000
3003
,  // measure 110
2002
0000
3003
1000
0010
0200
0300
0204
,  // measure 111
0000
0000
0000
0000
0000
0000
0303
2001
,  // measure 112
0000
3100
0010
0100
1000
0001
0100
0120
,  // measure 113
0000
0000
1030
0010
0100
0001
0100
0010
1000
0001
0010
0100
1000
0000
0000
0000
,  // measure 114
1001
1000
0010
0100
0101
0001
1000
0100
,  // measure 115
0110
0010
0001
1000
1010
0010
0100
0001
,  // measure 116
1001
1000
0100
0010
0011
0001
1000
0010
,  // measure 117
0110
0000
0100
0000
0001
0000
1000
0000
1100
0000
0100
0010
0001
0010
0100
1000
,  // measure 118
0200
0000
0000
0320
0000
0030
0012
0000
,  // measure 119
0000
0000
2003
0000
0000
0000
3000
0000
1020
0000
0000
0000
0000
0000
0130
0001
,  // measure 120
4000
0000
0000
0000
0000
0000
3001
0010
0100
0000
0020
0000
0000
0000
0031
1000
,  // measure 121
0001
0100
0000
0000
0110
0010
0000
0000
,  // measure 122
0000
0000
2020
0000
0000
3000
0000
0200
,  // measure 123
0000
0000
0000
0000
0030
0000
0000
0000
0000
0000
0000
0000
0301
1000
0100
0000
;

//---------------dance-single - AceOfArrows (2018)----------------
#NOTES:
     dance-single:
     AceOfArrows (2018):
     Hard:
     8:
     0.613,0.426,0.085,1.000,0.088: // measure 1
0000
0000
0000
0000
,  // measure 2
0000
0000
0000
0000
,  // measure 3
0000
0000
2000
0000
3001
0010
0100
2000
,  // measure 4
0000
3001
0100
0002
0000
2003
0000
0000
,  // measure 5
3000
0000
0002
0000
1003
0100
0010
0002
,  // measure 6
0000
2003
0000
3020
0000
0130
0002
0000
,  // measure 7
0003
1000
0100
0010
0100
1000
0001
2000
,  // measure 8
0000
3001
0100
0010
0100
0001
1000
0002
,  // measure 9
0000
0203
0000
0300
0000
0010
1000
0002
,  // measure 10
0000
4003
0000
3000
,  // measure 11
0001
0000
2000
0000
3001
0100
0001
2000
,  // measure 12
0000
0000
0000
3002
0000
0000
0023
0000
,  // measure 13
0230
0000
1300
0000
0001
0100
0010
0200
,  // measure 14
0000
0000
0000
0302
0000
1003
0100
0010
,  // measure 15
0002
0000
0000
2003
0000
3020
0000
0230
,  // measure 16
0000
0301
1000
0020
0000
0000
0130
0001
,  // measure 17
2000
0000
0000
3002
0000
0000
0023
0000
,  // measure 18
0230
0000
0000
4300
0000
0000
3000
0000
,  // measure 19
1002
0000
0023
0000
0230
0000
1300
0100
0010
0001
0010
0200
0000
0300
0000
0000
,  // measure 20
2000
0000
3002
0000
0203
0000
0310
1000
0010
0100
0001
2000
3002
0000
0023
0000
,  // measure 21
0032
0000
0003
1000
0010
0100
0010
2000
0000
3002
0000
0023
0000
0230
0000
1300
,  // measure 22
0002
0000
0000
2003
0000
0000
3020
0000
0230
0000
0000
0302
0000
0000
2003
0000
,  // measure 23
3200
0000
0320
0000
0230
0000
1300
0001
,  // measure 24
0100
0001
1000
0020
0000
0000
0030
0000
,  // measure 25
0200
0000
0302
0000
2003
0000
3100
0010
,  // measure 26
0001
0010
0100
2000
0000
3002
0000
0000
,  // measure 27
2003
0000
0000
3001
0010
0100
0010
0002
,  // measure 28
0000
2003
0000
3020
0000
0230
0000
0302
,  // measure 29
0000
0000
1003
0100
0010
0100
0000
1000
,  // measure 30
0000
0001
0100
0002
0000
0403
0000
0000
,  // measure 31
0320
0000
0000
1030
0001
0010
0100
0020
,  // measure 32
0000
0032
0000
2003
0000
3020
0000
0230
,  // measure 33
0000
0300
0000
0000
0001
1000
0100
2000
,  // measure 34
0000
3002
0000
0203
0000
0310
2000
0000
,  // measure 35
3000
0001
0010
0100
1000
0100
0010
0002
,  // measure 36
0000
1003
0010
0100
0001
0100
0010
2000
,  // measure 37
0000
3002
0000
0003
0000
1000
0100
0020
,  // measure 38
0000
0000
0000
0430
0000
0000
0000
0000
,  // measure 39
2300
0000
3002
0000
0103
0010
0100
0002
,  // measure 40
0000
1003
0100
0020
0000
0230
0000
0000
,  // measure 41
0300
0000
2000
0000
3001
0010
0100
0020
,  // measure 42
0000
0032
0000
2003
0000
3010
0200
0000
,  // measure 43
0300
0001
1000
0100
1000
0001
0100
0020
,  // measure 44
0000
1030
0001
0010
0001
1000
0010
0200
,  // measure 45
0000
0302
0000
0003
0000
1000
0001
0400
,  // measure 46
0000
0000
0340
0000
,  // measure 47
2030
0000
3002
0000
0013
0100
1000
0002
,  // measure 48
0000
1003
0010
0200
0000
0302
0000
0003
,  // measure 49
0000
0000
0000
1000
0100
0010
0001
0020
,  // measure 50
0000
0230
0000
2300
0000
3001
0200
0000
,  // measure 51
0300
0010
0100
0001
1000
0001
0010
0200
,  // measure 52
0000
1300
0001
0100
0010
0100
0001
2000
,  // measure 53
0000
3200
0000
0300
0000
0010
0001
2000
,  // measure 54
0000
0000
3000
0000
0000
0001
0010
0200
,  // measure 55
0000
0310
0001
1000
0001
0100
0010
2000
,  // measure 56
0000
3000
0000
0002
0000
0013
0100
1000
,  // measure 57
0002
0000
0003
0101
0000
0000
0000
0200
,  // measure 58
0000
0310
0000
2000
0000
3001
0000
0000
,  // measure 59
0022
0000
0000
0033
0000
0010
0000
0200
,  // measure 60
0000
0000
1300
0000
0000
0000
0000
0000
0001
0010
0001
0000
1000
0000
0000
0000
,  // measure 61
2002
0000
0000
3003
0000
0000
0000
0002
,  // measure 62
0000
0103
0000
0020
0000
0130
0000
0202
,  // measure 63
0000
0000
0303
2002
0000
0000
3003
2200
,  // measure 64
0000
0000
3300
0240
0000
0000
0330
0000
,  // measure 65
0020
0000
0000
0030
0001
0010
0001
2000
,  // measure 66
0000
3010
0000
0100
0000
0001
0000
2000
,  // measure 67
0000
3002
0000
0023
0000
0130
1000
0002
,  // measure 68
0000
0000
0000
0000
0000
0003
0000
2001
,  // measure 69
0000
3010
0100
0001
0100
0010
0000
0210
,  // measure 70
0000
0301
1000
0100
1000
0001
0000
0102
,  // measure 71
0000
1003
0100
0010
0100
1000
0000
2002
,  // measure 72
0000
0000
0000
0000
0000
0000
0000
3003
,  // measure 73
0000
0000
0001
0000
0000
0000
0010
0000
0000
0000
0100
0000
1000
0000
0001
0010
,  // measure 74
0002
0000
0000
0000
,  // measure 75
1003
0100
0010
0200
0000
0300
0000
0000
,  // measure 76
0000
0000
0000
1000
0100
0010
0100
2000
0000
3002
0000
2003
0000
3200
0000
0320
,  // measure 77
0000
0030
0000
0000
0001
0010
0100
2000
0000
3002
0000
0203
0000
0310
2000
0000
,  // measure 78
3000
0001
0100
0010
0100
0001
1000
0200
,  // measure 79
0000
0310
0100
1000
0001
0100
0001
2000
,  // measure 80
0000
3200
0000
0300
0000
0010
0100
2000
,  // measure 81
0000
0000
3004
0000
0000
0000
0003
0022
,  // measure 82
0000
0003
0430
0300
,  // measure 83
2100
0000
3002
0000
0103
0010
1000
0002
,  // measure 84
0000
0013
0100
2000
0000
3002
0000
0000
,  // measure 85
0203
0000
0320
0000
1030
0001
0010
0002
,  // measure 86
0000
0203
0000
0320
0000
1030
0002
0000
,  // measure 87
0023
0130
1000
0001
1000
0010
0100
0002
,  // measure 88
0000
1003
0100
0010
0001
0010
0100
2000
,  // measure 89
0000
3002
0000
0003
0000
1000
0010
0200
,  // measure 90
0000
0304
0000
0000
,  // measure 91
2003
0000
3200
0000
0310
0100
1000
0002
,  // measure 92
0000
1003
0010
0200
0000
0302
0000
0000
,  // measure 93
2003
0000
0000
3100
0010
0100
1000
0002
,  // measure 94
0000
0203
0000
0320
0000
1030
0002
0000
,  // measure 95
2003
3010
0100
0001
0100
0010
1000
0002
,  // measure 96
0000
0013
0100
1000
0100
0010
0001
2000
,  // measure 97
0000
3400
0000
0300
0000
0010
0100
2000
,  // measure 98
0000
0000
3000
0000
0000
0001
0010
0200
,  // measure 99
0000
1300
0001
0100
0010
0100
0001
2000
,  // measure 100
0000
3000
0000
0200
0000
0310
0001
2000
,  // measure 101
0000
3001
0100
0010
0100
0001
1000
0200
,  // measure 102
0000
0300
0000
2000
0000
3001
0010
0200
,  // measure 103
0000
0310
0001
1000
0010
0100
0001
2000
,  // measure 104
0000
0000
0000
0000
,  // measure 105
3002
0000
0000
0000
1003
0001
0100
0020
,  // measure 106
0000
0000
0000
0000
0130
0001
1000
0200
,  // measure 107
0000
0310
0001
2000
0000
3010
0100
0001
,  // measure 108
2000
0000
0000
0000
3001
0010
0100
2000
,  // measure 109
0000
3001
0100
0020
0000
0230
0000
0301
,  // measure 110
2000
0000
0000
3002
0000
0023
0000
0430
,  // measure 111
0000
0000
0000
0000
0000
0000
0000
2300
,  // measure 112
0000
3001
0100
0010
0100
0001
1000
0002
,  // measure 113
0000
4003
0000
0000
0000
0000
3000
0000
,  // measure 114
0001
0010
0100
1000
0100
0010
0001
1000
,  // measure 115
0001
0100
0010
1000
0010
0100
0001
1000
,  // measure 116
0010
0100
0001
1000
0100
0010
0001
1000
,  // measure 117
0010
0100
0001
1000
0100
4000
0000
0000
,  // measure 118
3002
0000
0000
0203
0000
0000
0320
0000
,  // measure 119
0000
0000
4030
0000
0000
0000
0000
0000
3002
0000
0000
0000
0000
0000
1003
0100
,  // measure 120
4000
0000
0000
0000
0000
0000
3001
0010
0001
0000
0020
0000
0000
0000
0130
0010
,  // measure 121
0100
1000
0000
0000
1001
0001
0000
0000
,  // measure 122
0000
0000
2002
0000
0000
3000
0000
0200
,  // measure 123
0000
0000
0000
0000
0000
0000
0000
0000
0003
0000
0000
0000
0310
1000
0010
0000
;

//---------------dance-single - AceOfArrows (2018)----------------
#NOTES:
     dance-single:
     AceOfArrows (2018):
     Medium:
     6:
     0.508,0.262,0.011,1.000,0.048: // measure 1
0000
0000
0000
0000
,  // measure 2
0000
0000
0000
0000
,  // measure 3
0000
0000
0001
0000
0001
0000
1000
0100
,  // measure 4
0000
0010
0000
0100
0000
2000
0000
0000
,  // measure 5
3000
0000
0001
0000
0001
0000
1000
0020
,  // measure 6
0000
2030
0000
3002
0000
0013
0200
0000
,  // measure 7
0000
1300
0001
0000
1000
0000
0010
0200
,  // measure 8
0000
0301
1000
0000
0001
0000
0010
0200
,  // measure 9
0000
2300
0000
3000
0000
0001
0010
0002
,  // measure 10
0000
0000
0000
0003
,  // measure 11
2000
0000
3010
0000
1000
0000
0001
0020
,  // measure 12
0000
0000
0000
0230
0000
0000
1300
0000
,  // measure 13
0002
0000
1003
0000
0010
0000
1000
0002
,  // measure 14
0000
0000
0000
0023
0000
0130
2000
0000
,  // measure 15
3002
0000
0000
0203
0000
0320
0000
2030
,  // measure 16
0000
3001
0100
0002
0000
0000
1003
0000
,  // measure 17
0200
0000
0000
0320
0000
0000
0230
0000
,  // measure 18
2300
0000
0000
3002
0000
0000
0000
0000
,  // measure 19
0003
0000
1000
0000
1000
0000
0010
0000
0100
0000
0001
2000
0000
0000
3000
0000
,  // measure 20
0000
0000
0002
0000
0023
0000
0230
0000
1300
0000
0001
2000
0000
3200
0000
0000
,  // measure 21
0300
0000
0000
0010
0200
0000
1300
0002
0000
2003
0000
3020
0000
0230
0000
0302
,  // measure 22
0000
0000
0000
0000
0003
0000
1000
0000
0020
0000
0000
0230
0000
0000
0000
0000
,  // measure 23
0300
0000
0002
0000
2003
0000
3100
0010
,  // measure 24
0200
0000
1300
0002
0000
0000
0003
0000
,  // measure 25
0000
0000
2000
0000
3020
0000
1030
0001
,  // measure 26
2000
0000
3100
0020
0000
0230
0000
0300
,  // measure 27
0000
0000
0000
1000
0002
0000
1003
0020
,  // measure 28
0000
0230
0000
0302
0000
2003
0000
3200
,  // measure 29
0000
0000
0310
0000
0001
1000
0000
0010
,  // measure 30
0000
1000
0000
0001
0000
0020
0000
0000
,  // measure 31
0030
0000
0000
0001
2000
0000
3010
0200
,  // measure 32
0000
0302
0000
2003
0000
3200
0000
0320
,  // measure 33
0000
0030
0000
0000
0002
0000
1003
0020
,  // measure 34
0000
2030
0000
3002
0000
0013
0200
0000
,  // measure 35
0000
1300
0002
0000
2003
0000
3010
0200
,  // measure 36
0000
0301
2000
0000
3002
0000
0013
0200
,  // measure 37
0000
2300
0000
3000
0000
0001
0010
0002
,  // measure 38
0000
0000
0000
0003
0000
0000
0000
0000
,  // measure 39
0000
0000
2000
0000
3020
0000
0130
0002
,  // measure 40
0000
1003
0000
0100
0000
2000
0000
0000
,  // measure 41
3000
0000
0002
0000
0203
0000
0310
2000
,  // measure 42
0000
3002
0000
0023
0000
0130
2000
0000
,  // measure 43
0000
3001
0200
0000
0302
0000
1003
0200
,  // measure 44
0000
0310
0002
0000
2003
0000
3010
0200
,  // measure 45
0000
0302
0000
0003
0000
1000
0100
4000
,  // measure 46
0000
0000
0000
3000
0000
0000
0000
0000
,  // measure 47
0000
0000
0002
0000
0203
0000
0310
2000
,  // measure 48
0000
3001
0010
0002
0000
2003
0000
0000
,  // measure 49
3000
0000
0000
0010
2000
0000
3001
0020
,  // measure 50
0000
0230
0000
2300
0000
3001
0200
0000
,  // measure 51
0300
0001
2000
0000
3200
0000
0310
0002
,  // measure 52
0000
1003
0020
0000
0230
0000
0301
2000
,  // measure 53
0000
3200
0000
0000
0300
0010
0100
0020
,  // measure 54
0000
0000
0030
0000
0000
0001
1000
0002
,  // measure 55
0000
1003
0010
0000
1000
0000
0001
0200
,  // measure 56
0000
0300
0000
0020
0000
1030
0001
2000
,  // measure 57
0000
0000
0000
3100
0000
0000
0000
0020
,  // measure 58
0000
0031
0000
2000
0000
3010
0000
0000
,  // measure 59
0200
0000
0000
0000
0301
0000
0000
2000
,  // measure 60
0000
3100
0000
0000
1000
0001
2000
0000
,  // measure 61
3020
0000
0000
0000
0130
0000
0000
0002
,  // measure 62
0000
1003
0000
0200
0000
0310
0000
0002
,  // measure 63
0000
0000
0000
2003
0000
0000
0000
3020
,  // measure 64
0000
0000
0000
0230
0000
0000
0000
0301
,  // measure 65
2000
0000
0000
0000
3002
0000
0103
0020
,  // measure 66
0000
1030
0000
0002
0000
1003
0000
0020
,  // measure 67
0000
0130
0000
0002
0000
1003
0100
2000
,  // measure 68
0000
0000
0000
0000
0000
3000
0000
0002
,  // measure 69
0000
1003
0200
0000
0310
0100
0000
2000
,  // measure 70
0000
3001
0200
0000
0301
1000
0000
0200
,  // measure 71
0000
0310
0002
0000
0013
0100
0000
2000
,  // measure 72
0000
0000
0000
0000
,  // measure 73
3000
0001
0000
0010
0000
0001
0000
1000
,  // measure 74
0020
0000
0000
0000
,  // measure 75
2030
0000
3001
0200
0000
0000
0300
0000
,  // measure 76
0000
0000
0000
0000
0002
0000
0000
1003
0000
0100
0000
1000
0000
0100
0000
0020
,  // measure 77
0000
0000
0030
0000
0002
0000
0000
1003
0000
0010
0000
2000
0000
0000
3002
0000
,  // measure 78
0003
1000
0100
0000
0020
0000
0130
2000
,  // measure 79
0000
3001
0200
0000
0320
0000
1030
0002
,  // measure 80
0000
0203
0000
0300
0000
0001
1000
0002
,  // measure 81
0000
0000
0000
0000
0003
0000
0000
2002
,  // measure 82
0000
0000
3003
0000
,  // measure 83
0000
0000
2000
0000
3020
0000
0130
0002
,  // measure 84
0000
1003
0100
2000
0000
3002
0000
0003
,  // measure 85
0000
0000
2000
0000
3020
0000
0130
0002
,  // measure 86
0000
2003
0000
3002
0000
0013
0200
0000
,  // measure 87
0300
1000
0002
0000
2003
0000
3010
0200
,  // measure 88
0000
0301
2000
0000
3200
0000
0310
0002
,  // measure 89
0000
2003
0000
3000
0000
0010
0100
0020
,  // measure 90
0000
0000
0030
0000
,  // measure 91
0000
0000
2000
0000
3002
0000
0013
0200
,  // measure 92
0000
0310
0001
0020
0000
0230
0000
0000
,  // measure 93
0300
0000
0000
1000
0002
0000
1003
0020
,  // measure 94
0000
2030
0000
3002
0000
0013
0200
0000
,  // measure 95
0000
1300
0002
0000
0203
0000
0310
2000
,  // measure 96
0000
3001
0020
0000
0230
0000
0310
0002
,  // measure 97
0000
4003
0000
0000
3000
0001
1000
0002
,  // measure 98
0000
0000
0003
0000
0000
1000
0010
2000
,  // measure 99
0000
3001
0010
0000
0002
0000
1003
0100
,  // measure 100
0000
0000
0000
2000
0000
3001
0100
0002
,  // measure 101
0000
1003
0100
0000
0020
0000
0130
1000
,  // measure 102
0000
0000
0000
0002
0000
1003
0010
2000
,  // measure 103
0000
3001
0010
0000
0002
0000
1003
0200
,  // measure 104
0000
0000
0000
0000
,  // measure 105
0300
0000
0000
0000
2000
0000
3002
0020
,  // measure 106
0000
0000
0000
0000
,  // measure 107
0000
0000
0000
0000
,  // measure 108
0000
0000
0000
0000
,  // measure 109
0000
0000
0000
0033
,  // measure 110
0002
0000
0000
2003
0000
3020
0000
0430
,  // measure 111
0000
0000
0000
0000
0000
0000
0000
0302
,  // measure 112
0000
1003
0200
0000
0320
0000
0031
2000
,  // measure 113
0000
0000
0000
3000
,  // measure 114
0001
0010
0002
0000
1003
0100
2000
0000
,  // measure 115
3001
1000
0002
0000
0013
0100
0020
0000
,  // measure 116
0031
0010
0002
0000
1003
0010
2000
0000
,  // measure 117
3010
0100
0020
0000
1030
0001
2000
0000
,  // measure 118
3200
0000
0000
0320
0000
0000
0032
0000
,  // measure 119
0000
4003
0000
0000
3020
0000
0000
1030
,  // measure 120
0004
0000
0000
1003
0100
2000
0000
3001
,  // measure 121
0100
0001
0000
0000
1000
0001
0000
0000
,  // measure 122
0000
0202
0000
0000
,  // measure 123
0000
0000
0000
0000
0000
0303
0001
1000
;

//---------------dance-single - AceOfArrows (2018)----------------
#NOTES:
     dance-single:
     AceOfArrows (2018):
     Easy:
     4:
     0.240,0.197,0.000,0.347,0.016: // measure 1
0000
0000
0000
0000
,  // measure 2
0000
0000
0000
0000
,  // measure 3
0000
0000
1000
0000
1000
0000
0000
0010
,  // measure 4
0000
0000
0000
0010
0000
0020
0000
0000
,  // measure 5
0030
0000
0100
0000
0100
0000
0000
0001
,  // measure 6
0000
0000
0000
0001
0000
0000
0002
0000
,  // measure 7
0003
0000
1000
0000
1000
0000
0000
0200
,  // measure 8
0000
0300
0000
0000
0100
0000
0000
0200
,  // measure 9
0000
0000
0300
0000
0000
0010
0000
0020
,  // measure 10
0000
0000
0030
0000
,  // measure 11
0001
0000
0000
0000
0001
0000
0000
0002
,  // measure 12
0000
0000
0000
0003
0000
0000
0000
0000
,  // measure 13
1000
0000
0000
0000
1000
0000
0000
2000
,  // measure 14
0000
0000
0000
3000
0000
0000
0000
0000
,  // measure 15
0020
0000
0030
0000
,  // measure 16
0100
0000
0000
0200
0000
0000
0300
0000
,  // measure 17
0002
0000
0000
0003
0000
0000
0001
0000
,  // measure 18
0002
0000
0003
0000
,  // measure 19
0000
0000
1000
0000
1000
0000
0000
0000
0100
0000
0000
0200
0000
0000
0300
0000
,  // measure 20
0000
0000
0010
0000
0010
0000
0000
0000
0100
0000
0000
0200
0000
0000
0300
0000
,  // measure 21
0000
0000
0000
0000
1000
0000
0000
0001
0000
0001
0000
0001
0000
0000
0000
0002
,  // measure 22
0000
0003
0000
0000
,  // measure 23
0000
0010
0010
0000
,  // measure 24
0100
0000
0000
0200
0000
0000
0300
0000
,  // measure 25
0000
1000
1000
0000
,  // measure 26
0001
0000
0000
0002
0000
0000
0003
0000
,  // measure 27
0000
0000
0000
0000
1000
0000
0000
0010
,  // measure 28
0000
0010
0000
0010
0000
0000
0000
0020
,  // measure 29
0000
0030
0000
0000
,  // measure 30
2000
0000
3000
0000
,  // measure 31
0000
0000
0000
0000
0001
0000
0000
0100
,  // measure 32
0000
0100
0000
0100
0000
0000
0000
0200
,  // measure 33
0000
0000
0300
0000
0001
0000
0000
1000
,  // measure 34
0000
1000
0000
2000
0000
0000
3000
0000
,  // measure 35
0000
0000
0001
0000
0001
0000
0000
1000
,  // measure 36
0000
0000
1000
0000
1000
0000
0000
0001
,  // measure 37
0000
0002
0000
0000
0003
0010
0000
0020
,  // measure 38
0000
0000
0000
0030
0000
0000
0000
0000
,  // measure 39
0000
0000
0001
0000
0001
0000
0000
1000
,  // measure 40
0000
0000
0000
1000
0000
2000
0000
0000
,  // measure 41
3000
0000
0010
0000
0010
0000
0000
0100
,  // measure 42
0000
0000
0000
0200
0000
0000
0300
0000
,  // measure 43
0000
0000
0001
0000
0001
0000
0000
1000
,  // measure 44
0000
0000
1000
0000
1000
0000
0000
2000
,  // measure 45
0000
0000
3000
0000
0000
0010
0000
0040
,  // measure 46
0000
0000
0000
0030
0000
0000
0000
0000
,  // measure 47
0000
0000
0100
0000
0100
0000
0000
0100
,  // measure 48
0000
0000
0000
0001
0000
0002
0000
0000
,  // measure 49
0003
0000
0000
0000
1000
0000
0000
1000
,  // measure 50
0000
0000
0000
1000
0000
0000
1000
0000
,  // measure 51
0000
0000
0010
0000
0010
0000
0000
0020
,  // measure 52
0000
0000
0030
0000
0100
0000
0000
0200
,  // measure 53
0000
0000
0300
0000
0000
0001
0000
0002
,  // measure 54
0000
0000
0003
0000
0000
1000
0000
2000
,  // measure 55
0000
0000
3000
0000
0010
0000
0000
0010
,  // measure 56
0000
0000
0000
0100
0000
0000
0000
0200
,  // measure 57
0000
0000
0000
0300
0000
0000
0000
0001
,  // measure 58
0000
0001
0000
0001
0000
0000
0000
0000
,  // measure 59
2000
0000
0000
0000
3000
0000
0000
0100
,  // measure 60
0000
0100
0000
0100
0000
0000
0000
0000
,  // measure 61
0020
0000
0000
0000
0030
0000
0000
0001
,  // measure 62
0000
0001
0000
0001
0000
0000
0000
2000
,  // measure 63
0000
3000
0000
2000
0000
3000
0000
0002
,  // measure 64
0000
0003
0000
0002
0000
0003
0000
0000
,  // measure 65
0020
0000
0000
0000
0030
0000
0000
0001
,  // measure 66
0000
0001
0000
0001
0000
0000
0000
1000
,  // measure 67
0000
1000
0000
1000
0000
0000
0000
0200
,  // measure 68
0000
0000
0000
0000
0300
0000
0000
1000
,  // measure 69
0000
0000
1000
0000
1000
0000
0000
0001
,  // measure 70
0000
0000
0001
0000
0001
0000
0000
0100
,  // measure 71
0000
0000
0100
0000
0100
0000
0000
0020
,  // measure 72
0000
0000
0000
0030
,  // measure 73
0000
1000
0000
1000
0000
1000
0000
0000
,  // measure 74
0002
0000
0000
0003
,  // measure 75
1000
0000
0000
1000
0000
0000
0000
0000
,  // measure 76
0000
0010
0010
0010
,  // measure 77
0010
0000
0100
0100
,  // measure 78
0000
0000
0001
0000
0001
0000
0000
0002
,  // measure 79
0000
0000
0000
0000
0003
0000
0000
1000
,  // measure 80
0000
2000
0000
0000
3000
0100
0000
0200
,  // measure 81
0000
0000
0000
0000
0300
0000
0000
0020
,  // measure 82
0000
0000
0030
0000
,  // measure 83
0000
0000
0001
0000
0001
0000
0000
0001
,  // measure 84
0000
0000
0000
1000
0000
2000
0000
0000
,  // measure 85
3000
0000
0010
0000
0010
0000
0000
0010
,  // measure 86
0000
0000
0000
0100
0000
0000
0200
0000
,  // measure 87
0300
0000
0001
0000
0001
0000
0000
0001
,  // measure 88
0000
0000
0100
0000
0100
0000
0000
0100
,  // measure 89
0000
0200
0000
0300
0000
0010
0000
0020
,  // measure 90
0000
0000
0030
0000
,  // measure 91
0000
0000
1000
0000
1000
0000
0000
1000
,  // measure 92
0000
0000
0000
0001
0000
0002
0000
0000
,  // measure 93
0003
0000
0000
0000
0010
0000
0000
0010
,  // measure 94
0000
0010
0000
0020
0000
0000
0030
0000
,  // measure 95
0000
0000
0100
0000
0100
0000
0000
0100
,  // measure 96
0000
0000
1000
0000
1000
0000
0000
1000
,  // measure 97
0000
4000
0000
0000
3000
0001
0000
0002
,  // measure 98
0000
0000
0003
0000
0000
0100
0000
0200
,  // measure 99
0000
0000
0300
0000
0001
0000
0000
0001
,  // measure 100
0000
0000
0000
2000
0000
0000
3000
0000
,  // measure 101
0100
0000
0100
0000
0100
0000
0000
0100
,  // measure 102
0000
0000
0000
2000
0000
0000
3000
0000
,  // measure 103
0001
0000
0001
0000
0001
0000
0000
0002
,  // measure 104
0000
0000
0000
0000
,  // measure 105
0003
0000
0000
0000
0010
0000
0000
0020
,  // measure 106
0000
0000
0000
0000
,  // measure 107
0000
0000
0000
0000
,  // measure 108
0000
0000
0000
0000
,  // measure 109
0000
0000
0000
0030
,  // measure 110
0002
0000
0000
1003
0000
1000
0000
4000
,  // measure 111
0000
0000
0000
0000
3000
0000
0000
0001
,  // measure 112
0000
0000
0001
0000
0001
0000
0000
0020
,  // measure 113
0000
0000
0000
0030
,  // measure 114
0001
0001
0001
0000
,  // measure 115
1000
1000
1000
0000
,  // measure 116
0010
0010
0010
0000
,  // measure 117
0100
0100
0100
0000
,  // measure 118
0002
0000
0000
2003
0000
0000
3002
0000
,  // measure 119
0000
0403
0000
0000
0302
0000
0000
0000
,  // measure 120
4003
0000
0000
3020
0000
0000
0000
0000
,  // measure 121
0130
0000
0001
0000
,  // measure 122
0000
2000
0000
0000
,  // measure 123
0000
0000
0000
0000
0000
0000
0000
3100
;

//---------------dance-single - AceOfArrows (2018)----------------
#NOTES:
     dance-single:
     AceOfArrows (2018):
     Beginner:
     1:
     0.164,0.131,0.000,0.277,0.000: // measure 1
0000
0000
0000
0000
,  // measure 2
0000
0000
0000
0000
,  // measure 3
0000
0000
0001
0000
,  // measure 4
0001
0000
0002
0000
,  // measure 5
0003
0000
1000
0000
,  // measure 6
1000
0000
2000
0000
,  // measure 7
3000
0000
0100
0000
,  // measure 8
0100
0000
0100
0000
,  // measure 9
0200
0000
0300
0000
,  // measure 10
0020
0000
0030
0000
,  // measure 11
0001
0000
0001
0000
,  // measure 12
0002
0000
0003
0000
,  // measure 13
0010
0000
0010
0000
,  // measure 14
0020
0000
0030
0000
,  // measure 15
0100
0000
0100
0000
,  // measure 16
0200
0000
0300
0000
,  // measure 17
1000
0000
1000
0000
,  // measure 18
2000
0000
3000
0000
,  // measure 19
0000
0001
0002
0003
,  // measure 20
0000
0100
0200
0300
,  // measure 21
0000
0010
0010
0010
,  // measure 22
0020
0030
0000
0000
,  // measure 23
0000
0000
0100
0000
,  // measure 24
0200
0000
0300
0000
,  // measure 25
0000
0000
0001
0000
,  // measure 26
0001
0000
0002
0000
,  // measure 27
0003
0000
1000
0000
,  // measure 28
1000
0000
1000
0000
,  // measure 29
2000
0000
3000
0000
,  // measure 30
0000
0000
0000
0000
,  // measure 31
0000
0000
0010
0000
,  // measure 32
0010
0000
0010
0000
,  // measure 33
0020
0000
0030
0000
,  // measure 34
0100
0000
0200
0000
,  // measure 35
0300
0000
0001
0000
,  // measure 36
0001
0000
0001
0000
,  // measure 37
0002
0000
0003
0000
,  // measure 38
2000
0000
3000
0000
,  // measure 39
0000
0000
0100
0000
,  // measure 40
0100
0000
0200
0000
,  // measure 41
0300
0000
1000
0000
,  // measure 42
1000
0000
2000
0000
,  // measure 43
3000
0000
0001
0000
,  // measure 44
0001
0000
0001
0000
,  // measure 45
0002
0000
0003
0000
,  // measure 46
0040
0000
0030
0000
,  // measure 47
0000
0000
0100
0000
,  // measure 48
0100
0000
0200
0000
,  // measure 49
0300
0000
1000
0000
,  // measure 50
1000
0000
2000
0000
,  // measure 51
3000
0000
0001
0000
,  // measure 52
0001
0000
0001
0000
,  // measure 53
0002
0000
0003
0000
,  // measure 54
2000
0000
3000
0000
,  // measure 55
0100
0000
0100
0000
,  // measure 56
0100
0000
0200
0000
,  // measure 57
0300
0000
0000
0000
,  // measure 58
1000
0000
1000
0000
,  // measure 59
2000
0000
3000
0000
,  // measure 60
0001
0000
0001
0000
,  // measure 61
0002
0000
0003
0000
,  // measure 62
0010
0000
0010
0000
,  // measure 63
0010
0000
0010
0000
,  // measure 64
0010
0000
0010
0000
,  // measure 65
0020
0000
0030
0000
,  // measure 66
0100
0000
0100
0000
,  // measure 67
0200
0000
0300
0000
,  // measure 68
0200
0000
0300
0000
,  // measure 69
1000
0000
1000
0000
,  // measure 70
1000
0000
1000
0000
,  // measure 71
1000
0000
1000
0000
,  // measure 72
2000
0000
0000
0000
,  // measure 73
3000
0000
0010
0000
,  // measure 74
0020
0000
0000
0000
,  // measure 75
0030
0000
0000
0000
,  // measure 76
0000
0000
1000
0000
,  // measure 77
1000
0000
2000
3000
,  // measure 78
0000
0000
0001
0000
,  // measure 79
0001
0000
0001
0000
,  // measure 80
0002
0000
0003
0000
,  // measure 81
2000
0000
3000
0000
,  // measure 82
0020
0000
0030
0000
,  // measure 83
0000
0000
0100
0000
,  // measure 84
0100
0000
0200
0000
,  // measure 85
0300
0000
0001
0000
,  // measure 86
0001
0000
0002
0000
,  // measure 87
0003
0000
1000
0000
,  // measure 88
1000
0000
1000
0000
,  // measure 89
2000
0000
3000
0000
,  // measure 90
0020
0000
0030
0000
,  // measure 91
0000
0000
0100
0000
,  // measure 92
0100
0000
0200
0000
,  // measure 93
0300
0000
0001
0000
,  // measure 94
0001
0000
0002
0000
,  // measure 95
0003
0000
1000
0000
,  // measure 96
1000
0000
1000
0000
,  // measure 97
4000
0000
3000
0000
,  // measure 98
0200
0000
0300
0000
,  // measure 99
0010
0000
0010
0000
,  // measure 100
0010
0000
0000
0000
,  // measure 101
0001
0000
0001
0000
,  // measure 102
0001
0000
0000
0000
,  // measure 103
1000
0000
1000
0000
,  // measure 104
2000
0000
0000
0000
,  // measure 105
3000
0000
0000
0000
,  // measure 106
0020
0000
0000
0000
,  // measure 107
0000
0000
0000
0000
,  // measure 108
0000
0000
0000
0000
,  // measure 109
0000
0000
0030
0000
,  // measure 110
0100
0000
0100
0000
,  // measure 111
0400
0000
0300
0000
,  // measure 112
0001
0000
0001
0000
,  // measure 113
0002
0000
0003
0000
,  // measure 114
1000
0000
1000
0000
,  // measure 115
2000
0000
3000
0000
,  // measure 116
0100
0000
0100
0000
,  // measure 117
0200
0000
0300
0000
,  // measure 118
0020
0000
0030
0002
,  // measure 119
0000
0003
1000
0000
,  // measure 120
4000
0000
3000
0000
,  // measure 121
0001
0000
0010
0000
,  // measure 122
0000
0200
0000
0000
,  // measure 123
0000
0000
0000
0000
0000
0000
0000
0300
;
