#TITLE:Fear;
#SUBTITLE:;
#ARTIST:Gagain feat. Neulse;
#TITLETRANSLIT:;
#SUBTITLETRANSLIT:;
#ARTISTTRANSLIT:;
#GENRE:;
#CREDIT:Ace Of Arrows;
#BANNER:Fear - Bn.png;
#BACKGROUND:Fear - Bg.jpg;
#LYRICSPATH:;
#CDTITLE:Ace Of Arrows.png;
#MUSIC:Fear.ogg;
#OFFSET:-0.040;
#SAMPLESTART:52.200;
#SAMPLELENGTH:12.000;
#SELECTABLE:YES;
#BPMS:0.000=113.000;
#STOPS:;
#BGCHANGES:;
#KEYSOUNDS:;

//---------------dance-single - AceOfArrows (2018)----------------
#NOTES:
     dance-single:
     AceOfArrows (2018):
     Challenge:
     10:
     0.754,0.154,0.248,1.000,0.600: // measure 1
0000
0000
0000
0000
,  // measure 2
1001
0000
0000
1000
0100
0000
0000
0120
,  // measure 3
0000
0000
0032
0000
0000
0000
2003
0000
3001
0010
0100
1000
0100
0010
0001
0000
,  // measure 4
2001
0000
3010
0100
0010
0000
1000
0000
1002
0000
0103
0000
0010
0000
2010
0000
,  // measure 5
0000
0000
3001
0010
0004
0000
0000
0000
1003
0100
2000
0000
3001
0100
0010
0100
,  // measure 6
0001
0000
1000
0000
1100
0000
0100
0000
0010
0000
0001
0000
1001
0000
1000
0100
,  // measure 7
1000
0001
0010
0100
1000
0100
0020
0000
0031
0010
0100
1000
0100
0010
0002
0000
,  // measure 8
1003
0010
0100
0010
2000
0000
3001
0010
0002
0000
1003
0000
0010
0000
0100
0001
,  // measure 9
0200
0000
0000
0000
0000
0000
0310
0000
0000
0000
0000
0000
1000
0000
0000
0000
0000
0000
0001
0000
0010
0000
0100
0000
1000
0000
0000
0001
0000
0000
1000
0000
0000
0000
0000
0000
0100
0000
0000
0010
0000
0000
0100
0000
0000
0000
0000
0000
,  // measure 10
2100
0000
3001
0000
0010
0000
0100
2000
0000
0000
3002
0000
0103
0000
0010
0000
,  // measure 11
2010
0000
3001
0000
0100
0000
0010
0200
0000
0000
0301
0000
1000
0100
0010
0100
,  // measure 12
1000
0000
0001
0000
0100
0000
0010
2000
0000
0000
3001
0000
0010
0000
0210
0000
,  // measure 13
0000
0000
1300
0001
2000
0000
3010
0200
0000
0000
0301
0000
1000
0000
0100
0000
,  // measure 14
0120
0000
0031
1000
0001
0000
0010
0200
0000
0000
1300
0000
0001
0000
0100
0000
,  // measure 15
0120
0000
1030
0001
1000
0000
0100
0020
0000
0000
0130
0000
1000
0000
0001
0100
,  // measure 16
0001
0000
1000
0000
0100
0000
0010
0002
0000
0000
1003
0000
0010
0000
0210
0000
,  // measure 17
0000
0000
0302
0000
1003
0000
0100
0010
0000
0000
0100
0000
1000
0001
1000
0000
,  // measure 18
0020
0000
0130
0000
0002
0000
1003
0100
2000
0000
3001
0200
0000
0000
0310
1000
,  // measure 19
0001
0010
0100
0010
0002
0000
1003
0020
0000
0000
0130
0001
0000
0001
2000
0000
,  // measure 20
3100
0010
0001
0010
0200
0000
1300
0001
2000
0000
0000
3020
0000
0000
0230
0000
,  // measure 21
0301
0000
1000
0000
0200
0000
0310
0001
0000
4000
0000
0000
3000
0000
0010
0100
,  // measure 22
0020
0000
1030
0002
0000
0000
0013
0100
0020
0000
0031
2000
0000
0000
3001
0100
,  // measure 23
0010
1000
0010
0100
0002
0000
1003
0200
0000
0000
0310
0001
0020
0000
0130
0000
,  // measure 24
1000
0001
2000
0000
3200
0000
0310
0000
0002
0000
1003
0020
0000
0000
0130
0001
,  // measure 25
0200
0000
0310
0000
1000
0002
0000
2003
0000
0000
3001
0010
0100
1000
0100
0010
,  // measure 26
0002
0000
1003
0000
0010
0100
0010
0000
1010
0000
2000
0000
3000
0000
2002
0000
,  // measure 27
0000
0000
3003
0000
0002
0000
0013
0100
0000
0000
1000
0000
0001
0000
0100
0000
,  // measure 28
0020
0000
1030
0000
0001
0000
0010
0000
0100
0000
1000
0002
0000
0000
1003
0200
,  // measure 29
0000
0000
0310
0000
0100
0000
1000
0002
0000
0013
0001
0010
0100
1000
0100
0010
,  // measure 30
0002
0000
1003
0010
0100
0001
1000
1200
,  // measure 31
0000
0000
0320
0000
0000
0000
0034
0000
0000
0000
0000
0000
1003
0100
0010
0100
,  // measure 32
2000
3001
0100
0010
1000
0001
0010
0400
,  // measure 33
0000
0000
0000
0000
1300
0001
0100
0010
0100
0001
1000
0000
0100
0010
0100
0000
,  // measure 34
2100
0000
3001
0000
0010
0100
1000
0100
0020
0000
0031
2000
0000
0000
3010
0100
,  // measure 35
0001
1000
0100
1000
0002
0000
1003
0020
0000
0000
1030
0001
0000
0001
0010
0100
,  // measure 36
1000
0001
0100
0010
0200
0000
0301
1000
0002
0000
0013
0400
0000
0000
1300
0001
,  // measure 37
2000
0000
3010
0100
0000
0100
0002
0000
2003
0000
3200
0000
0310
0000
0001
0000
,  // measure 38
2000
0000
3000
1020
0000
0000
0130
0000
0104
0000
0000
0000
0000
0000
1003
0100
,  // measure 39
2000
0000
3001
1000
0002
0000
0103
0020
0000
0030
2010
0000
0000
0000
3001
0010
,  // measure 40
0002
0000
1003
0200
0000
0320
0000
0000
0230
0000
1300
0002
0000
0203
0000
0000
,  // measure 41
0301
1000
0100
1000
0002
0000
0103
0040
0000
0000
0000
0000
0000
0000
0000
0030
,  // measure 42
2010
0000
0000
0000
3002
0000
0013
0000
0210
0000
1300
0001
2000
0000
3100
0010
,  // measure 43
0200
0000
1300
0000
0001
0000
0100
0010
0100
0000
0001
1000
0000
1000
0100
0000
,  // measure 44
0120
0000
0000
0000
0032
0000
0000
0000
2003
0000
3010
0100
0000
0000
0001
1000
,  // measure 45
0100
1000
0002
0000
0203
0000
0310
2000
0000
3001
0010
0100
1000
0100
0010
0001
,  // measure 46
2000
3010
0210
0301
1001
2000
3000
1200
,  // measure 47
0310
0001
0010
0100
1000
0001
1000
0200
0000
0000
0310
0100
2000
0000
3002
0000
,  // measure 48
1003
0010
0100
0010
2000
0000
3001
0010
0000
0010
0400
0000
0000
1300
0002
0000
,  // measure 49
2003
0000
3100
0010
0000
0002
0000
4003
0000
3001
0100
0010
1000
0010
0100
0001
,  // measure 50
2000
0000
3001
0010
0100
1000
0001
0201
,  // measure 51
0000
0000
0320
0000
0000
0000
4030
0000
0000
0000
3001
0010
0100
1000
0100
0010
,  // measure 52
0002
2003
3020
0130
0101
0002
1003
0040
,  // measure 53
0100
0000
0000
0000
0130
0001
1000
0100
0010
0100
1000
0001
1000
0010
0100
0001
,  // measure 54
2000
0000
3001
0000
0010
0100
0010
0000
0011
0000
0002
0000
0003
0000
2001
0000
,  // measure 55
3010
0200
0000
0301
0000
0001
2000
0000
3200
0000
0310
0000
0100
0000
2000
0000
,  // measure 56
3001
0100
0010
0100
0002
0000
1003
0200
0000
0000
0310
0000
0012
0000
1003
0010
,  // measure 57
1000
0000
0001
0000
2001
0000
3010
0100
0010
1000
0001
0010
0001
1000
0100
0010
,  // measure 58
0002
0000
2003
3100
0010
0001
1000
1020
,  // measure 59
0000
0000
0230
0000
0300
0000
0104
0000
0000
0000
1003
0000
0100
0010
0001
0010
,  // measure 60
0200
1300
0001
0100
0020
1030
0001
0020
,  // measure 61
0000
0000
0130
1000
0100
0000
0010
0001
1000
0001
0010
0100
0000
0100
1000
0000
,  // measure 62
1002
0103
0010
1000
1002
0013
0100
2100
,  // measure 63
0000
0000
3004
0000
0000
0000
0403
0000
0000
0000
0310
1000
0001
1000
0100
0010
,  // measure 64
0001
2000
0000
0000
3020
0000
0130
0002
0000
0000
2003
0000
3100
0000
0020
0000
,  // measure 65
0000
0000
0130
1000
0200
0000
0310
0002
0000
0000
1003
0000
1010
0000
0020
0000
,  // measure 66
0000
0000
0130
0001
0200
0000
0310
2000
0000
0000
3002
0000
0013
0100
2000
0000
,  // measure 67
3002
0000
0103
0010
0200
0000
0301
2000
0000
0000
3020
0000
0130
0001
0100
0000
,  // measure 68
0120
0000
1030
0001
2000
0000
3100
0020
0000
0000
0032
0000
0000
0000
4003
0000
,  // measure 69
0000
0000
3010
0100
0020
0000
1030
0002
0000
0000
0023
0000
0130
1000
0001
2000
,  // measure 70
0000
0000
3020
0000
0230
0000
0301
2000
0000
0000
3200
0000
0310
0100
0010
0000
,  // measure 71
0002
0000
0000
0000
0003
0000
2002
0000
0000
0000
3003
0000
1000
0100
2000
0000
,  // measure 72
3002
0000
0000
0000
0000
0000
0103
0000
0000
0000
0000
0000
0020
0000
0000
0000
0000
0000
1030
0000
0000
0001
0000
0000
1000
0000
0000
0100
0000
0000
1000
0000
0100
0000
0010
0000
0001
0000
0000
0000
0000
0000
2002
0000
0000
0000
0000
0000
,  // measure 73
0000
0000
0000
3003
0000
0000
0000
0000
;

//---------------dance-single - AceOfArrows (2018)----------------
#NOTES:
     dance-single:
     AceOfArrows (2018):
     Hard:
     8:
     0.482,0.110,0.018,0.709,0.221:
0000
0000
0000
0000
,
1000
0000
0000
0001
0010
0000
0000
0200
,
0000
0300
0000
2000
3004
0000
0023
0000
,
0230
0000
0300
1000
0002
0000
0000
2003
,
0000
3010
0400
0000
0304
0000
0000
0000
,
1003
0100
2000
0000
3000
0001
0020
0000
,
0030
0001
0010
0000
0001
0000
2000
0000
0000
0000
3000
0000
0000
0000
0010
0000
,
1000
0000
0001
0010
0002
0000
1003
0000
0020
0000
0130
0000
0000
0000
0001
1000
,
0002
0013
0200
4300
0000
0000
0000
0000
,
3001
0000
0010
0000
0100
0000
1000
0200
0000
0000
0320
0000
0000
0000
0030
0000
,
0000
0000
0001
0000
1000
0000
0100
0020
0000
0000
0230
0000
0000
0000
0300
0000
,
0000
0000
1000
0000
0001
0000
0010
0200
0000
0000
0320
0000
0000
0000
0032
0000
,
0000
0000
1003
0100
2000
0000
3001
0020
0000
0000
0230
0000
0000
0000
0300
0000
,
0000
0000
0010
0001
0020
0000
0130
2000
0000
0000
3002
0000
0000
0000
0003
0000
,
0000
0000
1000
0100
2000
0000
3001
0020
0000
0000
0230
0000
0000
0000
0300
0000
,
0000
0000
1000
0000
0001
0000
0100
0020
0000
0000
2030
0000
0000
0000
3002
0000
,
0000
0023
0000
0030
0000
0100
2000
0000
,
3001
0000
0100
0000
0010
0000
0100
0000
0001
0000
1000
0200
0000
0000
0310
0000
,
0100
0000
1000
0000
0100
0000
0010
0002
0000
0000
0000
0000
0003
0000
1000
0000
,
0010
0000
0100
0000
0001
0000
0100
0000
0010
0000
0000
2000
0000
0000
3001
0000
,
0010
0000
0100
0000
1000
0000
0001
0400
0000
0000
0000
0000
0300
0000
0010
0000
,
0100
0000
0001
2000
0000
0000
3001
0000
0010
0000
0100
2000
0000
0000
3001
0000
,
0100
0000
0010
0000
1000
0000
0001
0020
0000
0000
0000
0000
0030
0000
0100
0000
,
1000
0100
1000
0000
0001
0000
1000
0000
0010
0000
0100
0002
0000
0000
1003
0000
,
0100
0000
0010
0000
0100
1000
0000
0002
0000
0000
1003
0000
0010
0000
1000
0000
,
0002
0000
0003
1000
0100
1000
0000
2002
,
0000
0000
0000
0000
3003
0000
1000
0010
0000
0000
0100
0000
0001
0000
1000
0000
,
0100
0000
0010
0000
0100
0000
1000
0000
0001
0000
0100
0020
0000
0000
1030
0002
,
0000
0000
0013
0000
0100
0000
1000
0004
0000
0000
1003
0000
0010
0000
1000
0000
,
0002
0000
1003
0100
0010
0100
1000
0002
,
0000
0000
2003
0000
0000
0000
3400
0000
0000
0000
0000
0000
0300
0000
0010
0100
,
0010
0001
1000
0001
0100
0010
1000
0004
,
0000
0000
0000
0000
0003
1000
0020
0000
,
0030
0000
1000
0000
0001
0000
0010
0000
0100
0000
1000
0002
0000
0000
1003
0000
,
0010
0000
0100
0000
0001
0000
1000
0200
0000
0000
0000
0000
0300
0000
0010
0000
,
0001
0010
0001
0000
1000
0000
0010
0000
1000
0000
0001
0040
0000
0000
0130
0000
,
1000
0000
0001
0100
0000
0100
0001
0000
2000
0000
0000
0000
3000
0000
0000
0000
,
0001
0000
0010
0200
0000
0000
0310
0000
0004
0000
0000
0000
0000
0000
1003
0000
,
0010
0000
1000
0000
0001
0000
0010
0100
0000
2000
0000
0000
3000
0000
0001
0000
,
0100
0000
0010
0100
0000
0002
0000
0000
1003
0000
0100
0010
0000
0002
0000
0000
,
1003
0100
1000
0000
0001
0000
1000
0040
0000
0000
0000
0000
0000
0000
0000
0000
,
0230
0000
0000
0000
0301
0000
1000
0000
0100
0000
0010
0200
0000
0000
1300
0002
,
0000
0000
1003
0000
0010
0000
1000
0001
0000
0000
0010
0200
0000
0000
0000
0000
,
2300
0000
0000
0000
3002
0000
0000
0000
0203
0000
0310
1000
0000
0000
0001
0000
,
1000
0100
1000
0000
0001
0000
0010
0400
0000
0000
1300
0000
0001
0000
1000
0000
,
0200
0300
0120
0031
0010
0002
0000
2003
,
3040
0000
0000
0000
0030
0100
0001
1000
,
0100
0010
0100
0000
2000
0000
3001
0010
0000
0010
0002
0000
0000
1003
0100
0000
,
0010
0000
0100
1000
0000
0004
0000
0000
0000
0000
1003
0000
0010
0000
1000
0000
,
0002
0000
0013
0100
1000
0100
0010
0002
,
0000
0000
2003
0000
0000
0000
3040
0000
0000
0000
0430
0000
0000
0000
0301
2000
,
0000
3100
0010
0001
0010
0100
1000
0004
,
0000
0000
0000
0000
0000
1003
0010
0100
,
0002
0000
0003
1000
0100
1000
0000
1002
,
0013
0200
0000
1300
0000
0001
0200
0000
0320
0000
1030
0000
0001
0000
0010
0000
,
0100
1000
0100
0000
0020
0000
0000
0000
0230
0000
1300
0000
0002
0000
0000
0000
,
0003
1000
0020
0230
0000
0301
1000
0100
,
2000
0000
3001
0100
0010
0100
0001
2000
,
0000
3200
0000
0340
0000
0000
0030
0001
,
1000
0010
0100
0010
1000
0001
0010
0200
,
0000
0000
1300
0000
0002
0000
0000
0000
2003
0000
0000
3400
0000
0000
0310
0000
,
0001
1000
0001
0100
0010
0100
0001
2000
,
0000
3400
0000
0000
0000
0000
0300
0010
,
0100
2000
0000
0000
3001
0000
0100
0020
0000
0000
2030
0000
3001
0000
0020
0000
,
0000
0000
0130
0000
1000
0000
0001
2000
0000
0000
3020
0000
0130
0000
0002
0000
,
0000
0000
1003
0000
0100
0000
0010
0002
0000
0000
2003
0000
0000
0000
3020
0000
,
0000
0000
1030
0000
0001
0000
1000
0200
0000
0000
0320
0000
0000
0000
0030
0000
,
0002
0000
1003
0000
0010
0000
0100
0002
0000
0000
2003
0000
0000
0000
3400
0000
,
0000
0000
0310
0000
0001
0000
1000
0020
0000
0000
0230
0000
0301
0000
1000
0200
,
0000
0000
0310
0000
0002
0000
1003
0020
0000
0000
0230
0000
0000
0000
0302
0000
,
0000
0003
1000
0020
0000
0000
0030
1000
,
0001
0000
0010
0000
0100
0000
1000
0002
0000
0000
4003
0000
3010
0000
0200
0000
,
0000
0000
0000
0300
0000
0000
0000
0000
;

//---------------dance-single - AceOfArrows (2018)----------------
#NOTES:
     dance-single:
     AceOfArrows (2018):
     Medium:
     6:
     0.335,0.110,0.000,0.618,0.118:
0000
0000
0000
0000
,
0001
0000
0000
1000
0100
0000
0000
2000
,
0000
3000
0000
0004
0000
0000
0000
0000
,
2003
0000
3000
0001
0020
0000
0030
0200
,
0000
0300
0000
0000
1000
0100
1000
0000
,
0000
0001
0020
0000
0030
0100
2000
0000
,
3000
0001
0010
0002
0000
0003
0000
0000
,
1000
0010
2000
0000
3002
0000
0003
0000
,
0010
0001
0020
0000
0030
0100
2000
0000
,
3000
0000
0001
0000
0100
0000
0000
0002
0000
0000
0000
0000
0003
0000
0000
0000
,
0000
0000
1000
0000
0010
0000
0000
2000
0000
0000
0000
0000
3000
0000
0000
0000
,
0000
0000
0010
0000
0100
0000
0000
0020
0000
0000
0000
0000
0030
0000
2000
0000
,
0000
0000
3000
0000
0001
0000
0000
0002
0000
0000
0000
0000
0003
0000
0000
0000
,
0000
0000
1000
0000
0100
0000
0000
2000
0000
0000
0000
0000
3000
0000
0000
0000
,
0000
0000
0100
0000
0010
0000
0000
0200
0000
0000
0000
0000
0300
0000
0000
0000
,
0000
0000
1000
0000
0001
0000
0000
2000
0000
0000
0000
0000
3000
0000
0200
0000
,
0000
0320
0000
0030
0000
0001
2000
0000
,
3001
0000
0010
0000
0001
0000
0000
0000
1000
0000
0000
2000
0000
0000
0000
0000
,
3010
0000
0100
0000
0010
0000
0000
2000
0000
0000
0000
0000
3000
0000
0000
0000
,
0001
0000
0010
0000
0001
0000
0000
0000
0010
0000
0000
0020
0000
0000
0000
0000
,
0031
0000
1000
0000
0001
0000
0000
0400
0000
0000
0000
0000
0300
0000
0000
0000
,
0001
0000
0000
0002
0000
0000
0000
0000
1003
0000
0000
2000
0000
0000
0000
0000
,
3001
0000
0100
0000
0001
0000
0000
2000
0000
0000
0000
0000
3000
0000
0000
0000
,
0001
0000
0010
0000
0001
0000
0000
0000
1000
0000
0000
2000
0000
0000
0000
0000
,
3001
0000
0100
0000
0001
0000
0000
2000
0000
0000
0000
0000
3001
0000
0010
0000
,
0002
0000
0003
1000
0100
2000
0000
0002
,
0000
0000
3003
0000
0000
1000
0200
0000
,
1300
0000
0001
0000
2000
0000
0000
0000
3010
0000
0000
0020
0000
0000
0000
0000
,
1030
0000
0001
0000
1000
0000
0000
4000
0000
0000
0000
0000
3001
0000
0100
0000
,
0002
0000
1003
0100
2000
0000
3001
0020
,
0000
0032
0000
4003
0000
0000
3000
0000
,
0010
0100
0020
0000
2030
0000
3001
0400
,
0000
0000
0000
0000
0300
0001
2000
0000
,
3000
0000
0001
0000
0010
0000
0000
0000
0100
0000
0000
0200
0000
0000
0000
0000
,
1300
0000
0001
0000
1000
0000
0000
0020
0000
0000
0000
0000
0030
0000
0000
0000
,
0100
0000
0001
0000
0100
0000
0000
0000
0010
0000
0000
0040
0000
0000
0000
0000
,
2030
0000
3001
0010
0002
0000
0003
0000
,
2000
0000
3010
0100
0040
0000
0000
0030
,
1000
0000
0001
0000
1000
0000
0000
2000
0000
0000
0000
0000
3000
0000
0000
0000
,
0001
0000
0000
0002
0000
0000
0000
0000
0013
0000
0000
0020
0000
0000
0000
0000
,
0031
1000
0001
0000
0400
0000
0000
0000
,
0320
0000
0000
0000
2030
0000
0000
0000
3001
0000
0000
0001
0000
0000
0000
0000
,
1000
0000
0100
0000
1000
0000
0000
0002
0000
0000
0000
0000
0003
0000
0000
0000
,
0020
0000
0000
0000
0032
0000
0000
0000
1003
0000
0000
1000
0000
0000
0000
0000
,
0010
0000
0100
0000
0010
0000
0000
4000
0000
0000
0000
0000
3001
0000
0010
0000
,
0002
0000
0003
1000
0100
2000
0000
3002
,
0043
0000
0000
0000
0030
0001
2000
0000
,
3010
0000
0100
0000
0020
0000
0000
1030
0000
0000
4000
0000
0000
0000
0000
0000
,
3002
0000
0000
0003
0000
0400
0000
0000
0000
0000
0300
0000
0010
0000
0100
0000
,
0020
0000
1030
0001
2000
0000
3001
0020
,
0000
0230
0000
4300
0000
0000
3000
0000
,
0001
0100
0002
0000
2003
0000
3100
0040
,
0000
0000
0000
0000
0030
0000
0001
0010
,
0002
0000
0003
1000
0100
2000
0000
0002
,
0000
0000
3003
0000
0000
1000
0020
0000
,
1030
0001
2000
0000
3000
0001
0020
0000
,
0030
0001
1000
0002
0000
0000
0013
0100
,
0020
0000
0031
1000
0002
0000
1003
0020
,
0000
0230
0000
0304
0000
0000
0003
0000
,
1000
0010
2000
0000
3002
0000
0013
0200
,
0000
0000
1300
0000
0002
0000
0000
0000
1003
0000
0000
2000
0000
0000
0000
0000
,
3001
0010
0002
0000
2003
0000
3001
0020
,
0000
0430
0000
0000
0000
0000
0300
1000
,
0002
0000
0000
0000
0103
0000
0000
0200
0000
0000
0000
0000
0301
0000
2000
0000
,
0000
0000
3001
0000
0010
0000
0000
0020
0000
0000
0000
0000
0130
0000
2000
0000
,
0000
0000
3001
0000
0100
0000
0000
0200
0000
0000
0000
0000
0300
0000
0020
0000
,
0000
0000
1030
0000
0001
0000
0000
0002
0000
0000
0000
0000
0003
0000
0000
0000
,
0000
0000
1000
0000
0100
0000
0000
0200
0000
0000
0000
0000
0300
0000
0000
0000
,
0000
0000
1000
0000
0001
0000
0000
0002
0000
0000
0000
0000
0003
0000
0000
0000
,
0000
0000
1000
0000
0010
0000
0000
0020
0000
0000
0000
0000
0030
0000
0200
0000
,
0000
0300
0000
0002
0000
0003
0000
0000
,
1000
0000
0100
0000
1000
0000
0000
2000
0000
0000
0000
0000
3001
0000
0002
0000
,
0000
0000
0000
0003
0000
0000
0000
0000
;

//---------------dance-single - AceOfArrows (2018)----------------
#NOTES:
     dance-single:
     AceOfArrows (2018):
     Easy:
     4:
     0.203,0.088,0.000,0.303,0.000:
0000
0000
0000
0000
,
1000
0000
0000
0000
1000
0000
0000
2000
,
0000
3000
0004
0003
,
0010
0000
0000
0000
0010
0000
0000
0020
,
0000
0030
0400
0300
,
0000
1000
0000
1000
,
0000
4000
0000
0000
3000
0000
0000
0000
,
0001
0000
0001
0000
0002
0003
0000
0000
,
0100
0100
0000
0010
,
0000
0100
0200
0300
,
0000
0001
0002
0003
,
0000
0000
1000
0000
2000
0000
3000
0002
,
0000
0003
0010
0000
0020
0000
0030
0000
,
0000
0100
0200
0300
,
0000
1000
2000
3000
,
0000
0000
0001
0000
0002
0000
0003
0200
,
0000
0300
0000
0000
0000
0000
0001
0000
,
1000
1000
2000
3000
,
0001
0001
0002
0003
,
0010
0010
0020
0030
,
0100
0100
0400
0300
,
1000
1000
2000
3000
,
0001
0001
0002
0003
,
0010
0010
0020
0030
,
0100
0100
0200
0300
,
2000
0000
3000
0000
0001
0000
0000
0002
,
0000
0003
0000
1000
,
0100
0100
0200
0300
,
0010
0010
0040
0030
,
0002
0000
0003
0000
1000
0000
0000
1000
,
0000
1000
0000
4000
0000
0000
3000
0000
,
0010
0000
0010
0000
0010
0000
0000
0040
,
0000
0000
0030
0000
,
0000
0100
0200
0300
,
0001
0001
0002
0003
,
1000
1000
2000
3000
,
0100
0100
0200
0300
,
0010
0010
0040
0030
,
0001
0001
0002
0003
,
1000
1000
2000
3000
,
0100
0100
0400
0300
,
0010
0010
0020
0030
,
0001
0001
0002
0003
,
1000
1000
2000
3000
,
0010
0010
0010
0100
,
0200
0000
0300
0000
0001
0000
0000
0004
,
0000
0000
0003
0000
,
1000
1000
2000
3000
,
0100
0400
0000
0300
,
0010
0000
0010
0000
0010
0000
0000
0001
,
0000
0001
0000
0004
0000
0000
0003
0000
,
1000
0000
1000
0000
1000
0000
0000
4000
,
0000
0000
3000
0010
,
0020
0000
0030
0000
0100
0000
0000
0200
,
0000
0300
0000
0001
,
1000
1000
1000
2000
,
3000
0002
0003
1000
,
0010
0000
0010
0000
0010
0000
0000
0100
,
0000
0100
0000
0400
0000
0000
0300
0000
,
0001
0000
0001
0000
0001
0000
0000
0002
,
0000
1003
1000
1000
,
0010
0000
0010
0000
0010
0000
0000
0100
,
0000
0400
0000
0000
0000
0000
0300
0000
,
0001
0001
0002
0003
,
0000
1000
2000
3000
,
0000
0100
0200
0300
,
0010
0010
0020
0030
,
0000
0001
0002
0003
,
1000
1000
2000
3000
,
0010
0000
0010
0000
0020
0000
0030
0200
,
0000
0300
0000
0002
0000
0003
0000
0000
,
1000
0000
1000
0000
2000
0000
3000
0020
,
0000
0000
0000
0030
0000
0000
0000
0000
;

//---------------dance-single - AceOfArrows (2018)----------------
#NOTES:
     dance-single:
     AceOfArrows (2018):
     Beginner:
     2:
     0.118,0.044,0.000,0.236,0.000:
0000
0000
0000
0000
,
0001
0000
0001
0000
,
0002
0000
0003
0000
,
1000
0000
1000
0000
,
2000
0000
3000
0000
,
0000
0010
0000
0010
,
0000
0020
0000
0030
,
0100
0000
0100
0000
,
0200
0000
0300
0000
,
0000
0002
0000
0003
,
0000
0002
0000
0003
,
0000
2000
0000
3000
,
0000
2000
0000
3000
,
0000
0200
0000
0300
,
0000
0200
0000
0300
,
0000
0020
0000
0030
,
0000
0000
0000
0000
,
0001
0000
0001
0000
,
0002
0000
0003
0000
,
1000
0000
1000
0000
,
2000
0000
3000
0000
,
0100
0000
0100
0000
,
0200
0000
0300
0000
,
0010
0000
0010
0000
,
0020
0000
0030
0000
,
0001
0000
0001
0000
,
0002
0000
0003
0000
,
1000
0000
1000
0000
,
2000
0000
3000
0000
,
0010
0000
0010
0000
,
0020
0000
0030
0000
,
0100
0000
0100
0000
,
0400
0000
0300
0000
,
0001
0000
0001
0000
,
0002
0000
0003
0000
,
1000
0000
1000
0000
,
2000
0000
3000
0000
,
0010
0000
0020
0000
,
0030
0000
0100
0000
,
0200
0000
0300
0000
,
0002
0000
0003
0000
,
1000
0000
1000
0000
,
2000
0000
3000
0000
,
0100
0000
0100
0000
,
0200
0000
0300
0000
,
0010
0000
0010
0000
,
0040
0000
0030
0000
,
0001
0000
0001
0000
,
0002
0000
0003
0000
,
1000
0000
1000
0000
,
2000
0000
3000
0000
,
0010
0000
0010
0000
,
0040
0000
0030
0000
,
0100
0000
0100
0000
,
0200
0000
0300
0000
,
0002
0003
0000
0001
,
0000
0001
0000
0000
,
1000
0000
1000
0000
,
2000
0000
3000
0000
,
0010
0000
0010
0000
,
0020
0000
0030
0000
,
0100
0000
0100
0000
,
0400
0000
0300
0000
,
0000
0002
0000
0003
,
0000
0002
0000
0003
,
0000
2000
0000
3000
,
0000
2000
0000
3000
,
0000
0200
0000
0300
,
0000
0200
0000
0300
,
0000
2000
0000
3000
,
0000
0000
0001
0000
,
0001
0000
0002
0000
,
0003
0000
0000
0000
;
