#TITLE:Electric Love;
#SUBTITLE:;
#ARTIST:Miku Hatsune;
#TITLETRANSLIT:;
#SUBTITLETRANSLIT:;
#ARTISTTRANSLIT:;
#GENRE:;
#CREDIT:Ace Of Arrows;
#BANNER:Electric Love - Bn.png;
#BACKGROUND:Electric Love - Bg.jpg;
#LYRICSPATH:;
#CDTITLE:Ace Of Arows.png;
#MUSIC:Electric Love.ogg;
#OFFSET:1.680;
#SAMPLESTART:91.900;
#SAMPLELENGTH:12.000;
#SELECTABLE:YES;
#DISPLAYBPM:64.000:128.000;
#BPMS:0.000=128.000,265.000=64.000,281.000=128.000,378.000=64.000,394.000=128.000,423.000=256.000,424.000=128.000;
#STOPS:423.000=0.059
,423.250=0.059
,423.500=0.059
,423.750=0.059
;
#BGCHANGES:0.000=Electric Love - Bg.jpg=1.000=0=0=1=Centered====,
3.500=Electric Love Video.avi=1.000=1=0=1===CrossFade==,
99999=-nosongbg-=1.000=0=0=0 // don't automatically add -songbackground-
;
#KEYSOUNDS:;

//---------------dance-single - AceOfArrows (2018)----------------
#NOTES:
     dance-single:
     AceOfArrows (2018):
     Hard:
     7:
     0.449,0.151,0.062,0.648,0.079:
0000
0000
0000
0000
,
0000
0000
0000
0000
0000
0000
0000
1000
,
0200
0310
0002
0000
,
0000
0000
0000
0000
0003
0000
0000
1000
,
0002
0000
0000
0000
0013
0000
0000
0000
0100
2000
0000
0000
0000
0000
0000
0000
,
0000
3001
1000
0002
0000
0003
0000
1000
,
0100
0010
0100
2000
0000
0000
0000
3001
,
0100
0010
0200
0000
0000
0000
0000
0301
,
1000
0100
1000
0002
0000
0000
0000
0000
,
0000
0000
0000
0003
4001
0000
0000
0000
,
0000
0000
3000
0000
1200
0000
0000
0310
,
0001
0010
0100
1000
0002
0000
0000
1003
,
0020
0000
0130
0000
0002
0000
0000
0013
,
0200
0000
1300
0000
0002
0000
0000
1003
,
0020
0000
1030
0000
0001
0020
0000
0130
,
2000
0000
3001
0000
0200
0000
0000
0301
,
2000
0000
0000
0000
3100
0000
0000
0000
0010
0200
0000
0000
0000
0000
0000
0000
,
0000
1300
0001
0200
0000
0300
0000
0001
,
0010
0100
0010
0001
2000
0000
3010
0100
,
0010
1000
0001
2000
0000
0000
0000
0000
,
3000
0001
0010
0100
0020
0000
0000
0130
,
1000
0002
0000
0203
0000
0000
0000
0000
,
0300
0001
1000
0100
2000
0000
0000
3001
,
0200
0000
0301
2000
0000
0000
0000
3001
,
0010
0100
0010
0002
0000
0000
0000
0000
,
0000
0000
0000
0000
0003
0000
1000
0100
,
0010
0400
0000
1300
0001
0200
0000
0320
,
0000
2030
0000
0000
0000
0000
0000
0000
,
3000
0001
0010
0100
0020
0000
0000
0031
,
0010
0100
0010
0002
0000
0000
0000
0000
,
0003
1000
0010
0100
0020
0030
1000
0001
,
2000
0000
3001
0020
0000
0000
0030
0100
,
1000
0001
1000
0200
0000
0000
0000
0000
,
0000
0000
0000
0000
0000
0000
0000
0000
4300
0004
0000
0000
0000
0000
0000
0000
,
3003
1000
0010
0100
0001
0100
0010
2000
,
3000
0001
0010
0100
1000
0100
0010
0002
,
0003
1000
0010
1000
0002
0003
1000
0010
,
0100
0001
1000
0100
0020
0030
0001
2000
,
0000
3001
0100
0010
1000
0010
0100
0002
,
0003
1000
0100
0010
0001
0010
0100
2000
,
3000
0001
0100
0001
2000
3000
0001
1000
,
0010
1000
0001
0010
0001
1000
0001
0020
,
0000
0130
1000
0001
0100
0001
1000
0200
,
0300
1000
0010
1000
0001
0010
0001
2000
,
3000
0001
0100
0010
0200
0300
0001
1000
,
0100
0010
0001
1000
0010
0100
0001
2000
,
0000
3001
0010
0001
1000
0010
0100
0001
,
1000
0001
0010
0200
0000
0000
0300
1000
,
0001
0100
0010
1000
0020
0000
0000
0000
,
0000
0000
0130
0002
0000
0000
0003
1000
,
0200
0310
0022
0000
,
0000
0000
0000
0000
0033
0000
0000
0001
,
2000
0000
0000
0000
3010
0000
0000
0000
0100
0002
0000
0000
0000
0000
0000
0000
,
0000
1003
0100
2000
0000
0000
3000
0001
,
0100
0010
0100
0002
0000
0000
0000
1003
,
0100
0010
0002
0000
0000
0000
0003
1000
,
0010
0100
0010
2000
0000
0000
0000
0000
,
0000
0000
0000
0000
3000
0000
0000
0001
,
0100
0010
0400
0000
0302
0000
1003
0100
,
0010
0001
0010
0100
2000
0000
3000
0001
,
0200
0000
0310
0000
2010
0000
0000
3001
,
0020
0000
0000
0000
0130
0000
0000
0000
1000
0002
0000
0000
0000
0000
0103
0000
,
0020
0000
1030
0000
0001
0020
0000
0130
,
2000
0000
3001
0000
0201
0000
0000
0310
,
2000
0000
0000
0000
3001
0000
0000
0000
1000
0200
0000
0000
0000
0000
0000
0000
,
0000
1300
0001
0100
0140
0000
0000
0000
,
0000
0000
0000
0000
0030
1000
0001
1000
0001
0200
0000
0320
0000
0230
0000
0000
,
0000
0301
1000
0100
1000
0002
0000
0000
0000
1003
0100
0010
0100
2000
0000
0000
,
0000
3001
0010
0100
0010
0002
0000
0000
0000
1003
0010
0200
0000
0302
0000
0000
,
0000
1003
0100
0010
0100
2000
0000
0000
0000
0000
0000
0000
0000
3000
1004
0000
,
0000
0000
0003
1000
0001
0100
0001
1000
,
0100
0020
0000
0032
0000
0000
0000
0000
,
0003
1000
0001
0100
0020
0000
0000
0000
,
1030
0002
0000
0203
0000
0000
0000
0000
,
0300
0010
1000
0001
0020
0000
0000
0130
,
2000
0000
3001
0020
0000
0000
0030
0100
,
1000
0001
1000
0200
0000
0000
0000
0000
,
0000
0000
0000
0000
0000
0000
0000
0000
0340
0400
0000
0000
0000
0000
0000
0000
,
0330
0010
0001
1000
0010
0100
0010
2000
,
3000
0001
0100
0001
1000
0100
0010
0002
,
0003
1000
0001
0010
0200
0300
0010
0001
,
1000
0001
0100
0010
2000
3000
0001
0200
,
0000
0310
1000
0001
0010
0100
1000
0002
,
0003
1000
0100
0010
0001
1000
0001
0200
,
0300
0010
0100
0001
2000
3000
0001
0010
,
0100
1000
0001
0100
0002
0000
1003
0020
,
0000
0130
0001
1000
0100
0010
0001
2000
,
3000
0010
0100
0001
1000
0001
0010
0200
,
0300
1000
0001
0010
0002
0003
1000
0010
,
1000
0001
0010
0001
1000
0100
1000
0002
,
0000
1003
0001
1000
0010
0100
0010
1000
,
0001
0010
0100
2000
0000
0000
3000
0002
,
0000
0103
0010
1000
0002
0000
0000
0000
,
0000
0000
1003
0100
0220
0000
0330
0010
,
0002
1003
0020
0000
,
0030
0000
0000
0000
0000
0000
1000
0000
0002
0000
0000
0000
0013
0000
0000
0000
0100
2000
0000
0000
0000
0000
0000
0000
0000
0000
3001
0000
0010
0000
0002
0000
,
0000
0003
0000
1000
0020
0000
0130
0000
0002
0000
0000
0000
0000
0000
0000
0000
,
0003
0000
0000
0000
0000
0000
1000
0000
0200
0000
0000
0000
0310
0000
0000
0000
0001
0020
0000
0000
0000
0000
0000
0000
0000
0000
0130
0000
0010
0000
0200
0000
,
0000
0000
0300
1000
0002
0000
0103
0000
0020
0000
0000
0000
0000
0000
1030
0000
,
0002
0000
0000
0000
0013
0000
0000
0000
0100
2000
0000
0000
0000
0000
3001
0000
,
0200
0000
0000
0000
0310
0000
0000
0000
1000
0002
0000
0000
0000
0000
0000
0000
,
0000
1003
0010
0200
0000
0300
0000
0001
,
2000
0000
3100
0000
0120
0000
0000
0031
,
2000
0000
0000
0000
3010
0000
0000
0000
0100
0002
0000
0000
0000
0000
1003
0000
,
0200
0000
0000
0000
0310
0000
0000
0000
0001
2000
0000
0000
0000
0000
0000
0000
,
0000
3010
0100
0001
2001
0000
3040
0000
,
0030
0100
0001
1000
0100
0010
0001
2000
,
3000
0001
0100
0010
1000
0001
0010
0200
,
0300
0010
0001
1000
0020
0030
1000
0001
,
0010
0100
1000
0001
0200
0300
0010
2000
,
0000
3001
0010
0001
1000
0010
0100
0002
,
0003
1000
0100
0010
0001
1000
0010
0200
,
0300
0001
1000
0100
0020
0030
0100
1000
,
0001
0100
0010
1000
0002
0000
0103
0020
,
0000
1030
0001
0010
0001
1000
0010
0200
,
0300
0001
1000
0100
0010
0100
1000
0002
,
0003
1000
0010
0100
0002
0003
1000
0100
,
1000
0001
0100
0001
1000
0100
1000
0002
,
0000
1003
0100
0010
0001
1000
0010
0100
,
0001
1000
0001
0200
0000
0000
0300
0020
,
0000
1030
0001
1000
0020
0000
0000
0000
,
0000
0000
1030
0002
0000
0000
0003
0010
,
0200
1300
2002
0000
,
0000
0000
0000
0000
3003
0000
0000
0001
,
0200
0000
0000
0000
0310
0000
0000
0000
1000
0002
0000
0000
0000
0000
0000
0000
,
0000
0013
0100
2000
0000
0000
3000
0001
,
0100
0010
1000
0002
0000
0000
0000
1003
,
0100
0010
0200
0000
0000
0000
0000
1300
,
0001
0100
0010
2000
0000
0000
0000
0000
,
0000
0000
0000
0000
3000
0000
0000
0001
,
0020
0000
0130
0000
2100
0000
0000
3001
,
0200
0000
0310
0000
2010
0000
0000
3001
,
0020
0000
0000
0000
0130
0000
0000
0000
1000
0002
0000
0000
0000
0000
0000
0000
,
0000
0013
0100
2000
0000
0000
3000
0001
,
0010
0100
1000
0002
0000
0000
0000
1003
,
0010
0100
0020
0000
0000
0000
0030
1000
,
0001
0010
0100
2000
0000
0000
0000
0000
,
0000
0000
0000
3000
1004
0000
0000
0000
,
0000
0000
0003
0000
0201
0000
0000
0310
,
1000
0001
0010
0100
2000
0000
0000
3001
,
0020
0000
0130
0000
2100
0000
0000
3001
,
0200
0000
0000
0000
0310
0000
0000
0000
1000
0002
0000
0000
0000
0000
1003
0000
,
0020
0000
0130
0000
0001
2000
0000
3010
,
0200
0000
0301
0000
2001
0000
0000
3100
,
0020
0000
0000
0000
0031
0000
0000
0000
1000
0020
0000
0000
0000
0000
0000
0000
,
0000
0000
0130
0000
0001
0000
1000
0000
1002
0000
0000
0023
0000
0000
0230
0000
,
0000
0000
0300
0000
;

//---------------dance-single - AceOfArrows (2018)----------------
#NOTES:
     dance-single:
     AceOfArrows (2018):
     Challenge:
     10:
     0.601,0.251,0.182,0.967,0.190: // measure 1
0000
0000
0000
0000
,  // measure 2
0000
0000
0000
0000
0000
0000
0000
0001
,  // measure 3
0200
0310
2020
0000
,  // measure 4
0000
0000
0030
0000
3002
0000
0000
0013
,  // measure 5
0200
0000
0000
0000
1300
0000
0000
0000
0001
0200
0000
0000
0000
0000
0000
0000
,  // measure 6
0000
0010
0001
0320
2000
0030
0000
3001
,  // measure 7
1000
0100
0001
0200
2300
0000
3002
0103
,  // measure 8
0010
0000
0001
0000
0020
0000
0000
0000
0230
0000
0000
0300
0101
0000
0001
0000
,  // measure 9
1000
0100
0110
0020
0001
0001
0100
0100
,  // measure 10
0001
0000
0001
0000
0100
0000
0130
0000
2100
0000
3001
0010
0001
0000
1000
0001
,  // measure 11
1000
0000
0001
0100
0002
0000
0000
0003
2001
0000
3010
0100
0010
0000
1000
0000
,  // measure 12
0001
0000
0010
0000
0100
0000
1000
0000
0002
0000
1003
0010
1000
0000
0001
0000
,  // measure 13
0020
0000
0000
0130
1000
0000
0000
0000
2002
0000
0000
0000
3000
0000
0100
0000
,  // measure 14
2000
0000
3000
0000
0010
0000
0000
0000
1003
0200
0000
0000
0000
0000
1000
0000
,  // measure 15
0020
0030
0001
0000
0010
2300
0000
0001
,  // measure 16
0200
0300
0001
0000
3020
0000
0000
0100
,  // measure 17
0002
0000
0003
0000
0100
0000
0000
0000
1030
0002
0000
0000
0000
0000
0000
0000
,  // measure 18
0000
0000
1003
0000
0010
0000
0100
0000
0102
0000
0000
2003
0000
0000
3200
0000
,  // measure 19
0320
0000
0031
1000
0001
0000
0100
0000
0010
0000
1000
0000
0001
0000
1000
0000
,  // measure 20
0010
0000
0001
0000
0010
0000
2000
0000
0001
0000
0000
0001
0000
0000
3002
0000
,  // measure 21
0023
0130
1000
0001
0200
0000
0000
0310
,  // measure 22
1000
0000
0002
0000
0000
0000
0203
0000
0010
0000
0000
0010
0000
0000
0320
0000
,  // measure 23
2030
3002
0013
0100
2000
0000
0000
3001
,  // measure 24
0200
0000
0310
2020
0000
0000
0030
3001
,  // measure 25
0100
1000
0100
0002
2000
0000
3000
0100
,  // measure 26
0000
0000
1000
0000
0010
0000
1000
0000
0203
0000
0000
0310
0000
0000
1000
0000
,  // measure 27
0002
0000
1003
0100
0010
0100
2000
3000
1002
0000
0203
0000
0000
0000
0320
0000
,  // measure 28
0000
2030
0001
0010
0000
0001
0010
0001
,  // measure 29
3200
0310
0001
1000
2200
0000
3000
0310
,  // measure 30
0001
0100
1000
0200
0000
0001
0010
1000
,  // measure 31
0320
1030
0001
0010
0220
0030
1300
0001
,  // measure 32
0200
0000
0310
2020
0000
0000
3030
1000
,  // measure 33
0001
0100
1000
0200
0000
0010
0001
1000
,  // measure 34
0320
0000
1030
0001
0010
0001
2000
0000
3001
0010
0001
0010
0100
1000
0100
1000
,  // measure 35
0001
0100
0001
0100
0010
1000
0010
1000
0001
0000
0010
0000
1000
0000
0020
0000
,  // measure 36
0030
0001
1000
0010
1000
0100
0001
0200
,  // measure 37
0300
1000
0001
0100
0020
0030
0100
0001
,  // measure 38
1000
0100
0001
0100
2000
3000
0001
0200
,  // measure 39
0000
0310
1000
0001
0010
1000
0010
0002
,  // measure 40
0003
1000
0010
0100
0001
0010
1000
0020
,  // measure 41
0030
0001
1000
0010
0200
0300
0001
1000
,  // measure 42
0100
0010
0001
1000
0001
0010
1000
0020
,  // measure 43
0000
0031
1000
0010
0100
0010
0001
0020
,  // measure 44
0030
1000
0001
1000
0100
0001
0100
2000
,  // measure 45
3000
0001
0100
0010
0200
0300
0001
1000
,  // measure 46
0100
0001
0100
1000
0001
0100
1000
0200
,  // measure 47
0000
0301
1000
0100
0010
1000
0010
0001
,  // measure 48
1000
0010
0100
0002
0000
0000
0003
2001
,  // measure 49
0000
3100
1000
0001
0022
0000
0000
0000
,  // measure 50
0000
0000
0000
0003
0000
0000
0130
0000
0000
1000
0000
0000
0001
0000
0100
0000
0001
0000
1000
0000
0010
0000
1000
0000
,  // measure 51
1002
1003
2020
0000
,  // measure 52
0000
0000
0000
0000
3030
0000
0000
1000
,  // measure 53
0200
0000
0000
0000
0310
0000
0000
0000
0001
2000
0000
0000
0000
0000
0000
0000
,  // measure 54
0000
0001
0010
0002
0000
0000
3003
1000
,  // measure 55
0010
0100
0001
0200
0000
0000
0000
0010
,  // measure 56
1000
0010
0002
0000
0000
0000
0303
0100
,  // measure 57
0010
1000
0002
0020
0000
0000
0000
0000
,  // measure 58
0000
0000
0000
0000
0000
0000
0000
0000
0033
0000
0001
1000
0001
0000
0100
0010
,  // measure 59
0100
0000
0001
0000
4000
0000
0000
0000
3200
0000
0310
0001
0010
0000
0100
0000
,  // measure 60
1000
0000
0001
0000
0100
0000
0010
0000
2000
0000
3001
0010
0001
0000
1000
0000
,  // measure 61
0020
0000
0130
0000
0202
0000
0300
1000
,  // measure 62
0200
0000
0300
0000
1000
0000
0000
0000
0013
0200
0000
0000
0000
0000
1000
0000
,  // measure 63
0020
0030
0001
0000
0320
0032
0000
1000
,  // measure 64
0020
0030
1000
0000
0203
0000
0000
1000
,  // measure 65
0020
0000
0030
0000
0001
0000
0000
0000
0310
2000
0000
0000
0000
0000
0000
0000
,  // measure 66
0000
0000
0001
0000
0100
0000
3001
0000
0021
0000
0130
1000
0100
0000
1000
0001
,  // measure 67
1000
0000
0010
0100
0020
1030
0001
0010
0001
2000
0000
3020
0000
0200
0000
0000
,  // measure 68
0030
0301
1000
0001
0010
0200
0000
0000
0000
1300
0001
0100
1000
0200
0000
0000
,  // measure 69
0000
0301
0100
0001
1000
0020
0000
0000
0000
1030
0001
0200
0000
2300
0000
0000
,  // measure 70
0000
0000
3100
0000
0001
0000
1000
0000
0001
0000
0200
0000
0000
0000
0000
0000
0000
0000
0000
0000
0000
0000
0000
0000
0000
0000
0300
0000
0102
0000
1003
0100
,  // measure 71
1000
0000
0001
0010
0001
0000
0010
0100
0020
0000
0000
0000
0031
0000
0000
0000
1000
0000
0000
0000
0010
0000
0000
0000
0100
0000
0000
0000
0001
0000
0000
0000
,  // measure 72
1000
0200
0010
2300
0000
0001
0100
0001
,  // measure 73
3200
0310
0001
1000
2020
0000
3000
0000
,  // measure 74
0130
0000
0002
0000
0000
0000
2003
0000
0010
0000
0000
0100
0000
0000
3020
0000
,  // measure 75
0000
0130
0001
1000
2200
0000
3000
0310
,  // measure 76
0002
0000
1000
0200
0000
0000
0303
0001
,  // measure 77
0010
0000
1000
0000
0010
0000
0002
0000
1000
0000
0000
0010
0000
0000
0203
0000
,  // measure 78
0000
0000
0310
1000
0001
1000
0020
0000
0130
0001
0100
0001
1000
0100
1000
0100
,  // measure 79
0010
0001
0010
0001
1000
0010
1000
0010
0100
0000
1000
0000
0100
0000
0002
0000
,  // measure 80
0003
1000
0100
0010
0001
0100
0010
2000
,  // measure 81
3000
0100
0010
0001
0200
0300
0010
1000
,  // measure 82
0100
1000
0010
0100
0002
0003
1000
0200
,  // measure 83
0000
1300
0001
0100
0001
0010
0100
2000
,  // measure 84
3000
0010
0100
0001
1000
0100
0001
0200
,  // measure 85
0300
1000
0001
0100
0020
0030
1000
0001
,  // measure 86
0010
1000
0010
0001
2000
0000
3001
0020
,  // measure 87
0000
0130
1000
0001
1000
0010
0001
0020
,  // measure 88
0030
1000
0001
0010
0001
0100
1000
0200
,  // measure 89
0300
0001
1000
0100
0020
0030
0100
1000
,  // measure 90
0010
0100
0001
0010
0100
1000
0001
0200
,  // measure 91
0000
0310
1000
0001
0100
1000
0100
0001
,  // measure 92
1000
0100
1000
0002
0000
0000
0003
0202
,  // measure 93
0003
0310
1000
0001
0022
0000
0000
0000
,  // measure 94
0000
0000
0003
0000
0130
0000
1000
0000
2002
0000
3000
0203
0000
0000
0310
0000
,  // measure 95
2010
0000
3001
0000
0202
0000
0000
0003
,  // measure 96
0320
0000
0000
0000
0000
0000
1030
0000
0002
0000
0000
0000
1003
0000
0000
0000
0002
0200
0000
0000
0000
0000
0000
0000
0000
0000
1000
0000
0010
0000
2000
0000
,  // measure 97
0000
3303
0000
0001
2000
0000
3100
0000
0220
0000
0000
0000
0000
0000
0300
0000
,  // measure 98
0032
0000
0000
0000
0000
0000
0013
0000
0200
0000
0000
0000
0310
0000
0000
0000
0200
2000
0000
0000
0000
0000
0000
0000
0000
0000
0001
0000
0010
0000
0002
0000
,  // measure 99
0000
3303
0000
0100
0020
0000
0031
0000
2001
0000
0000
3010
0100
0000
0001
0000
,  // measure 100
2000
0000
0000
0000
3100
0000
0000
0000
0010
0002
0000
0003
1001
0000
1000
0000
,  // measure 101
0020
0000
0000
0000
0130
0000
0000
0000
0001
2000
0000
3000
1100
0000
0100
0000
,  // measure 102
0020
0031
1000
0010
0220
0000
0030
0301
,  // measure 103
2000
0000
0000
0000
3100
0000
0000
0000
0120
0000
0000
0031
1000
0000
0010
0000
,  // measure 104
0200
0000
0000
0000
0301
0000
0000
0000
1000
0200
0000
0300
0110
0000
0010
0000
,  // measure 105
0012
0000
0000
0000
1003
0000
0000
0000
0010
0200
0000
0300
0102
0000
0000
0000
,  // measure 106
2003
0000
3100
0000
0010
0000
0100
0000
2000
0000
0000
0000
3001
0100
0010
0100
,  // measure 107
0002
1003
0100
0010
0001
0010
1000
0020
,  // measure 108
0030
0001
1000
0010
0100
0001
1000
0200
,  // measure 109
0300
0010
0001
1000
0020
0030
1000
0100
,  // measure 110
0001
0100
1000
0001
0020
0030
0100
2000
,  // measure 111
0000
3001
0100
0001
0010
0001
0100
0020
,  // measure 112
0030
1000
0100
1000
0010
1000
0100
0020
,  // measure 113
0030
0001
0100
1000
0200
0300
0001
1000
,  // measure 114
0100
1000
0010
0100
0002
0000
1003
0020
,  // measure 115
0000
0130
0001
1000
0100
0001
0100
2000
,  // measure 116
3000
0100
0010
0001
0010
1000
0010
0002
,  // measure 117
0003
1000
0001
0100
0002
0003
1000
0100
,  // measure 118
0001
0100
1000
0010
0001
0010
1000
0002
,  // measure 119
0000
1003
0010
1000
0100
0010
0001
0100
,  // measure 120
0010
1000
0100
2000
0000
0000
3000
0002
,  // measure 121
0000
0103
0010
1000
2002
0000
0000
0000
,  // measure 122
0000
0000
0000
3000
0000
0000
0103
0000
0000
0010
0000
0000
1000
0000
0001
0000
1000
0000
0100
0000
0010
0000
0100
0000
,  // measure 123
2200
0300
3002
0000
2200
0000
0000
0000
,  // measure 124
0000
0000
0000
0000
3303
0000
0000
0001
,  // measure 125
0020
0000
0000
0000
0031
0000
0000
0000
2000
0200
0000
0000
0000
0000
0000
0000
,  // measure 126
0000
0001
0010
0002
0000
3303
0000
2000
,  // measure 127
3002
0000
0203
0000
0320
0000
2000
0000
0000
0000
0000
0000
0030
0000
0002
3000
,  // measure 128
0020
0003
2000
0030
0002
0000
0000
0000
0000
0000
0000
0000
3000
0000
0203
0000
,  // measure 129
2000
0300
0002
3000
0200
0003
2000
0000
0000
0000
0000
0000
0000
0000
0000
0000
,  // measure 130
0000
0000
0000
0000
0000
0000
0000
0000
3300
0000
0100
0010
0100
0000
0001
0000
,  // measure 131
2000
0000
3200
0000
2020
0000
3330
1000
,  // measure 132
0002
0000
0023
0000
0202
0000
0333
0100
,  // measure 133
2000
0000
0000
0000
3010
0000
0000
0000
0200
0002
0000
0000
0000
0000
0000
0000
,  // measure 134
0000
1000
0010
2000
0000
3303
0000
0002
,  // measure 135
2000
0003
0020
3000
0002
0030
2000
0000
0000
0000
0000
0000
0003
0000
0200
3000
,  // measure 136
0002
0300
0020
0003
2000
0000
0000
0000
0000
0000
0000
0000
0030
0000
0002
3000
,  // measure 137
0200
0003
2000
0300
0002
3000
0200
0000
0000
0000
0000
0000
0000
0000
0000
0000
,  // measure 138
0000
0000
0000
0000
0000
0000
0303
0000
0120
0000
1030
0001
1000
0000
0001
0010
,  // measure 139
0001
0000
1000
0100
2000
0000
3000
0000
1002
0000
0103
0010
0100
0000
0001
0000
,  // measure 140
1000
0100
0010
0100
2000
3001
0101
0100
,  // measure 141
0120
0000
2030
0000
0202
0000
3303
0001
,  // measure 142
0020
0000
0000
0000
0130
0000
0000
0000
1000
0002
0000
0003
0011
0000
0010
0000
,  // measure 143
0210
0000
2300
0000
0011
0002
3000
0103
,  // measure 144
0020
0000
0000
0030
1010
0000
0000
0000
2002
0000
0000
0000
3000
0000
0013
0000
,  // measure 145
0200
0000
0000
0300
1100
0000
0000
0000
1000
0002
0000
0000
0000
0000
0000
0000
,  // measure 146
0000
0000
1003
0000
0010
0000
0100
0000
0102
0000
0000
1003
0000
0000
2200
0000
,  // measure 147
0000
3000
0300
0000
;

//---------------dance-single - AceOfArrows (2018)----------------
#NOTES:
     dance-single:
     AceOfArrows (2018):
     Medium:
     5:
     0.358,0.151,0.000,0.707,0.033:
0000
0000
0000
0000
,
0000
0000
0000
0000
0000
0000
0000
0001
,
0020
0130
2000
0000
,
0000
0000
0000
0000
3000
0000
0000
0001
,
2000
3010
0200
0000
,
0000
0000
0301
2000
0000
0000
3000
0001
,
0010
0000
0001
2000
0000
0000
0000
3001
,
0100
0000
0020
0000
0000
0000
0030
1000
,
0001
0000
1000
0200
0000
0000
0000
0000
,
0000
0000
0000
0300
0040
0000
0000
0000
,
0000
0000
0030
0000
0002
0000
0000
1003
,
0010
0000
1000
0000
0002
0000
0000
1003
,
0020
0000
0130
0000
0002
0000
0000
1003
,
0200
0000
0310
0000
0002
0000
0000
1003
,
0020
0000
0130
0000
0002
0000
0000
1003
,
0200
0000
0310
0000
0002
0000
0000
1003
,
0020
0130
0002
0000
,
0000
0000
1003
0100
0000
0000
0000
0000
,
0000
0000
0000
1000
0002
0000
0000
1003
,
0020
0000
0130
0002
0000
0000
0000
0000
,
0003
2000
0000
3100
0020
0000
0000
0000
,
0130
2000
0000
3002
0000
0000
0000
0000
,
0003
1000
0010
0000
0200
0000
0000
0301
,
2000
0000
3001
0020
0000
0000
0000
0130
,
2000
0000
3001
0200
0000
0000
0000
0000
,
0000
0000
0300
0000
,
0000
0000
0000
0000
0001
2000
0000
3200
,
0000
0320
0000
0000
0000
0000
0000
0000
,
0030
0001
1000
0000
0200
0000
0000
0310
,
0002
0000
1003
0020
0000
0000
0000
0000
,
0030
0100
0002
0000
2003
0000
0000
3001
,
0020
0000
0031
2000
0000
0000
3000
0010
,
0200
0000
0301
2000
0000
0000
0000
0000
,
0000
0000
3004
0000
,
0003
1000
0100
0000
0020
0000
0130
1000
,
0000
0001
0100
0000
0002
0000
1003
0010
,
0000
1000
0001
0000
0010
0000
0001
0000
,
1000
0000
0010
0000
0200
0000
0301
2000
,
0000
3001
0010
0000
0001
0000
1000
0020
,
0000
1030
0001
0000
0020
0000
0130
1000
,
0000
0001
1000
0000
0100
0000
0010
0000
,
0100
0000
1000
0000
0002
0000
1003
0020
,
0000
0130
0001
0000
2000
0000
3001
0010
,
0000
0001
1000
0000
0020
0000
0130
0001
,
0000
1000
0200
0000
0310
0000
0100
0000
,
1000
0000
0001
0000
0200
0000
0301
2000
,
0000
3001
0010
0000
0100
0000
0010
0000
,
0001
0000
1000
0200
0000
0000
0300
0020
,
0000
0031
1000
0000
0002
0000
0000
0000
,
0000
0000
0103
0020
0000
0000
0030
1000
,
0002
0103
0020
0000
,
0000
0000
0000
0000
0030
0000
0000
1000
,
0002
0013
0200
0000
,
0000
0000
1300
0002
0000
0000
0003
1000
,
0010
0000
1000
0002
0000
0000
0000
0013
,
0100
0000
2000
0000
0000
0000
0000
3001
,
0100
0000
0010
0200
0000
0000
0000
0000
,
0000
0000
0300
0000
,
0000
0004
0003
0000
,
2000
0000
0000
3001
0200
0000
0000
0310
,
2000
0000
3001
0000
0020
0000
0000
0130
,
2000
0000
3001
0000
0200
0000
0000
0310
,
2000
0000
3001
0000
2000
0000
0000
3100
,
0020
0000
0130
0000
2000
0000
0000
3001
,
0200
0310
0200
0000
,
0000
0000
0301
2000
0000
3000
0000
0000
,
0000
0000
0000
0000
0000
0000
0001
0000
1000
0200
0000
0320
0000
0230
0000
0000
,
0300
1000
0200
0000
1300
0200
0000
0000
0000
0310
0002
0000
0013
0002
0000
0000
,
0003
1000
0020
0000
1030
0020
0000
0000
0030
0100
0002
0000
0000
2003
0000
0000
,
0000
3001
0020
0000
0130
2000
0000
0000
0000
0000
0000
0000
0000
0000
3000
0000
,
0000
0000
0000
0001
0200
0000
0320
0000
,
1030
0002
0000
0023
0000
0000
0000
0000
,
0030
0100
2000
0000
3002
0000
0000
0000
,
1003
0020
0000
0230
0000
0000
0000
0000
,
0300
0001
1000
0000
0200
0000
0000
0310
,
0002
0000
1003
0020
0000
0000
0000
1030
,
0002
0000
0013
0200
0000
0000
0000
0000
,
0000
0000
4300
0000
,
0000
3001
0020
0000
0032
0000
1003
0010
,
0000
1000
0001
0000
0020
0000
0130
1000
,
0000
0001
0100
0000
0010
0000
1000
0000
,
0001
0000
0010
0000
0200
0000
1300
0002
,
0000
1003
0010
0000
0200
0000
0301
1000
,
0000
0100
0010
0000
0002
0000
0013
0100
,
0000
1000
0001
0000
0100
0000
0010
0000
,
1000
0000
0001
0000
0200
0000
0301
2000
,
0000
3100
0010
0000
0002
0000
0013
0100
,
0000
1000
0001
0000
0200
0000
0310
1000
,
0000
0001
0100
0000
0010
0000
1000
0000
,
0001
0000
0010
0000
0100
0000
1000
0002
,
0000
1003
0010
0000
0100
0000
0001
0000
,
1000
0000
0001
0200
0000
0000
0300
0002
,
0000
1003
0100
0000
0020
0000
0000
0000
,
0000
0000
0130
2000
0000
0000
3000
0001
,
0020
0130
2000
0000
,
3000
0000
0000
0001
2000
0000
3001
0000
0020
0000
0000
0000
0000
0000
0130
2000
,
0000
0000
3000
0001
0020
0000
0031
0000
2000
0000
0000
0000
0000
0000
0000
0000
,
3000
0000
0000
0010
2000
0000
3010
0000
0200
0000
0000
0000
0000
0000
0301
2000
,
0000
0000
3000
0001
0020
0000
0031
0000
2000
0000
0000
0000
0000
0000
3010
0000
,
0200
0000
0301
0000
0200
0000
0000
0301
,
2000
0000
3100
0000
0020
0000
0000
0130
,
2000
0000
3001
0000
0200
0000
0000
0310
,
2000
0000
3001
0000
0020
0000
0000
0130
,
2000
0000
3001
0000
0200
0000
0000
0310
,
2000
3001
0020
0000
,
0000
0000
0130
1000
0000
0000
0004
0000
,
0003
0000
1000
0000
0020
0000
0130
0001
,
0000
1000
0100
0000
0020
0000
0130
1000
,
0000
0001
0100
0000
0010
0000
1000
0000
,
0001
0000
0010
0000
0200
0000
1300
0002
,
0000
1003
0010
0000
0200
0000
0301
1000
,
0000
0001
0010
0000
0200
0000
1300
0001
,
0000
0100
0010
0000
1000
0000
0001
0000
,
0010
0000
0100
0000
2000
0000
3001
0200
,
0000
0310
1000
0000
0002
0000
1003
0010
,
0000
0100
0001
0000
2000
0000
3100
0010
,
0000
0001
0010
0000
0100
0000
1000
0000
,
0001
0000
0100
0000
0010
0000
0100
0002
,
0000
1003
0100
0000
0010
0000
0100
0000
,
1000
0000
0001
0200
0000
0000
0000
0320
,
0000
1030
0001
0000
0020
0000
0000
0000
,
0000
0000
0130
2000
0000
0000
3000
0001
,
0200
0320
2000
0000
,
0000
0000
0000
0000
3030
0000
0000
0010
,
0200
0301
2000
0000
,
0000
0000
3100
0020
0000
0030
0000
0001
,
1000
0000
0010
0200
0000
0000
0000
0301
,
1000
0000
0200
0000
0000
0000
0300
0010
,
0001
0000
1000
0020
0000
0000
0000
0000
,
0000
0000
0000
0000
0030
0000
0000
0100
,
0002
0000
2003
0000
0200
0000
3000
0310
,
0002
0000
2003
0000
0020
0000
3000
0130
,
0002
2003
0200
0000
,
3000
0000
0320
0002
0030
0000
0000
1003
,
0010
0000
1000
0002
0000
0000
0000
0013
,
0100
0000
2000
0000
0000
0000
3000
0001
,
0100
0000
0010
0200
0000
0000
0000
0000
,
0000
0000
0300
0000
,
0000
0000
0000
0000
0002
0000
0000
1003
,
0200
0000
0000
0310
0002
0000
0000
1003
,
0020
0000
0230
0000
0002
0000
0300
1003
,
0200
0000
0320
0000
0002
0000
0030
1003
,
0020
0000
0230
0000
0002
0000
0300
1003
,
0200
0000
0320
0000
0200
0000
0030
1300
,
0002
0203
0020
0000
,
0300
0000
1030
0002
0000
0003
0000
2000
,
0000
3000
0000
0000
;

//---------------dance-single - AceOfArrows (2018)----------------
#NOTES:
     dance-single:
     AceOfArrows (2018):
     Easy:
     4:
     0.188,0.100,0.000,0.309,0.000:
0000
0000
0000
0000
,
0000
0000
0000
0000
,
0001
0001
0002
0000
,
0000
0000
0003
0000
,
0100
0100
0200
0000
,
0000
0000
0000
0300
0000
0000
0000
0000
,
0001
0000
0000
0002
0000
0000
0003
0000
,
1000
2000
0000
3000
,
0010
0000
0000
0020
0000
0000
0000
0000
,
0000
0030
4000
0000
,
0000
3000
0000
0000
,
0001
0001
0001
0000
,
1000
1000
2000
0000
,
3001
0001
0002
0000
,
0013
0010
0020
0000
,
0130
0100
0200
0000
,
1300
1000
2000
0000
,
0000
0000
0000
3000
0000
0000
0000
0000
,
0000
0000
0002
0000
,
1003
0000
0000
2000
0000
0000
0000
0000
,
3000
0010
0020
0000
,
0130
0000
0000
0200
0000
0000
0000
0000
,
0300
0001
0002
0000
,
1003
0000
0000
2000
0000
0000
0000
0000
,
3100
0000
0000
0200
0000
0000
0000
0000
,
0000
0000
0300
0000
,
0000
0000
0000
0000
0020
0000
0000
0130
,
0000
0200
0000
0000
0000
0000
0000
0000
,
0300
1000
2000
0000
,
3001
0000
0000
0002
0000
0000
0000
0000
,
0003
0100
0200
0000
,
0310
0000
0000
0020
0000
0000
0030
0000
,
1000
0000
0000
2000
0000
0000
0000
0000
,
0000
0000
3004
0000
,
0003
0000
0000
0000
0010
0000
0000
0010
,
0000
0000
0000
0000
0100
0000
0000
0100
,
0000
0000
1000
1000
,
1000
0000
0000
0000
0001
0000
0000
0002
,
0000
0000
0003
0000
0100
0000
0000
0100
,
0000
0000
0000
0000
0010
0000
0000
0010
,
0000
0000
0100
0100
,
0100
0000
0000
0000
0001
0000
0000
0002
,
0000
0000
0003
0000
1000
0000
0000
1000
,
0000
0000
0000
0000
0100
0000
0000
0100
,
0000
0000
0010
0010
,
0010
0000
0000
0000
0100
0000
0000
0200
,
0000
0300
1000
1000
,
1000
0000
0000
2000
0000
0000
3000
0000
,
0001
0001
0002
0000
,
0003
0000
0000
0020
0000
0000
0030
0000
,
0100
0100
0200
0000
,
0000
0000
0300
0000
,
1000
1000
2000
0000
,
0000
0000
0000
3000
0000
0000
0000
0000
,
0010
0000
0000
0020
0000
0000
0000
0000
,
0130
0200
0000
0000
,
0301
0000
0000
0002
0000
0000
0000
0000
,
0000
0000
0003
0000
,
4000
0000
3000
0000
,
0010
0010
0010
0000
,
0100
0100
0200
0000
,
0301
0001
0002
0000
,
1003
1000
2000
0000
,
3100
0100
0200
0000
,
0310
0010
0020
0000
,
0000
0000
0000
0030
0000
0000
0000
0000
,
0000
0000
0000
0001
0000
0002
0000
0003
,
0000
2000
0000
3000
0000
0200
0000
0300
,
0000
0020
0000
0030
0000
0002
0000
0003
,
0000
1000
0000
2000
0000
0000
0000
3000
,
0000
0000
0001
0000
,
0001
0000
0000
0002
0000
0000
0000
0000
,
0003
0000
0100
0000
,
0100
0000
0000
0200
0000
0000
0000
0000
,
0300
0000
0010
0000
,
0010
0000
0000
0020
0000
0000
0030
0000
,
1000
0000
0000
2000
0000
0000
0000
0000
,
0000
0000
3040
0000
,
0030
0000
0000
0000
0100
0000
0000
0100
,
0000
0000
0000
0000
0001
0000
0000
0001
,
0000
0000
1000
1000
,
1000
0000
0000
0000
0100
0000
0000
0200
,
0000
0000
0300
0000
0010
0000
0000
0010
,
0000
0000
0000
0000
0100
0000
0000
0100
,
0000
0000
1000
1000
,
1000
0000
0000
0000
0001
0000
0000
0002
,
0000
0000
0003
0000
0100
0000
0000
0100
,
0000
0000
0000
0000
0010
0000
0000
0010
,
0000
0000
0100
0100
,
0100
0000
0000
0000
0001
0000
0000
0002
,
0000
0003
1000
1000
,
1000
0000
0000
2000
0000
0000
3000
0000
,
0100
0100
0200
0000
,
0300
0000
0000
0020
0000
0000
0030
0000
,
0001
0001
0002
0000
,
0003
0000
1000
1000
2000
0000
0000
0000
,
3000
0000
0010
0010
0020
0000
0000
0000
,
0030
0000
0100
0100
0200
0000
0000
0000
,
0300
0000
0001
0001
0002
0000
0000
0000
,
1003
1000
2000
0000
,
3100
0100
0200
0000
,
0000
0000
0300
0000
,
1000
1000
2000
0000
,
3001
0001
0002
0000
,
0103
0100
0200
0000
,
0000
0000
0300
0004
,
0003
0000
0000
0000
1000
0000
0000
1000
,
0000
0000
0000
0000
0001
0000
0000
0001
,
0000
0000
0010
0010
,
0010
0000
0000
0000
0100
0000
0000
0200
,
0000
0000
0300
0000
1000
0000
0000
1000
,
0000
0000
0000
0000
0001
0000
0000
0001
,
0000
0000
0100
0100
,
0100
0000
0000
0000
0010
0000
0000
0020
,
0000
0000
0030
0000
1000
0000
0000
1000
,
0000
0000
0000
0000
0010
0000
0000
0010
,
0000
0000
0100
0100
,
0100
0000
0000
0000
0001
0000
0000
0002
,
0000
0003
1000
1000
,
1000
0000
0000
2000
0000
0000
3000
0000
,
0100
0100
0200
0000
,
0300
0000
0000
0020
0000
0000
0030
0000
,
0001
0001
0002
0000
,
0000
0000
0003
0000
,
1000
1000
2000
0000
,
0000
0000
0000
3000
0000
0000
0000
0000
,
0010
0000
0000
0020
0000
0000
0000
0000
,
0130
0200
0000
0000
,
0301
0000
0000
0002
0000
0000
0000
0000
,
0000
0000
0003
0000
,
1000
1000
2000
0000
,
3100
0100
0200
0000
,
0310
0010
0020
0000
,
0000
0000
0000
0030
0000
0000
0000
0000
,
0001
0000
0000
0002
0000
0000
0000
0000
,
1003
2000
0000
0000
,
3100
0000
0000
0200
0000
0000
0000
0000
,
0000
0000
0300
0000
,
0000
0000
2000
0000
,
3001
0001
0001
0000
,
0100
0100
0200
0000
,
0301
0001
0002
0000
,
1003
1000
2000
0000
,
3100
0100
0200
0000
,
0310
0010
0020
0000
,
0000
0000
0000
0000
0031
0000
0000
0002
,
0000
0003
0000
0000
;

//---------------dance-single - AceOfArrows (2018)----------------
#NOTES:
     dance-single:
     AceOfArrows (2018):
     Beginner:
     2:
     0.132,0.075,0.000,0.305,0.000:
0000
0000
0000
0000
,
0000
0000
0000
0000
,
1000
0000
2000
0000
,
0000
0000
3000
0000
,
0001
0000
0002
0000
,
0000
0000
0003
0000
,
0200
0000
0300
0000
,
0200
0000
0300
0000
,
0100
0000
0200
0000
,
0000
0300
0004
0000
,
0000
0003
0000
0000
,
2000
0000
3000
0000
,
0001
0000
0001
0000
,
0002
0000
0003
0000
,
0010
0000
0010
0000
,
0020
0000
0030
0000
,
0100
0000
0200
0000
,
0000
0000
0300
0000
,
0000
0000
1000
0000
,
1000
0000
2000
0000
,
3000
0000
0001
0000
,
0001
0000
0002
0000
,
0003
0000
0020
0000
,
0030
0000
0100
0000
,
0100
0000
0200
0000
,
0000
0000
0300
0000
,
0000
0000
1000
0000
,
2000
0000
0000
0000
,
3000
0000
0001
0000
,
0001
0000
0002
0000
,
0003
0000
0020
0000
,
0030
0000
0001
0000
,
0001
0000
0002
0000
,
0000
0000
0003
0000
,
0000
0000
2000
0000
,
3000
0000
2000
0000
,
3000
0000
0200
0000
,
0300
0000
0200
0000
,
0300
0000
0020
0000
,
0030
0000
0020
0000
,
0030
0000
0001
0000
,
0001
0000
0002
0000
,
0003
0000
2000
0000
,
3000
0000
2000
0000
,
3000
0000
0020
0000
,
0030
0000
0020
0000
,
0030
0000
0100
0000
,
0100
0000
0200
0000
,
0300
0000
0002
0000
,
0000
0000
0003
0000
,
1000
0000
2000
0000
,
0000
0000
3000
0000
,
0010
0000
0020
0000
,
0000
0000
0030
0000
,
0100
0000
0100
0000
,
0200
0000
0300
0000
,
0001
0000
0002
0000
,
0000
0000
0003
0000
,
4000
0000
3000
0000
,
0000
0000
0000
0000
,
0100
0000
0100
0000
,
0200
0000
0300
0000
,
0010
0000
0010
0000
,
0020
0000
0030
0000
,
0001
0000
0002
0000
,
0000
0000
0003
0000
,
0000
0000
0000
1000
0000
1000
0000
2000
,
0000
3000
0000
0001
0000
0001
0000
0002
,
0000
0003
0000
0020
0000
0030
0000
0020
,
0000
0030
0000
0200
0000
0000
0000
0300
,
0000
0000
1000
0000
,
1000
0000
2000
0000
,
3000
0000
0001
0000
,
0001
0000
0002
0000
,
0003
0000
0010
0000
,
0010
0000
0020
0000
,
0030
0000
0200
0000
,
0000
0300
0040
0000
,
0030
0000
0002
0000
,
0003
0000
0002
0000
,
0003
0000
1000
0000
,
1000
0000
2000
0000
,
3000
0000
0020
0000
,
0030
0000
0020
0000
,
0030
0000
0100
0000
,
0100
0000
0200
0000
,
0300
0000
0002
0000
,
0003
0000
0002
0000
,
0003
0000
1000
0000
,
1000
0000
2000
0000
,
3000
0000
0100
0000
,
0100
0000
0200
0000
,
0300
0000
0020
0000
,
0000
0000
0030
0000
,
0100
0000
0200
0000
,
0300
1000
2000
0000
,
3000
0001
0002
0000
,
0003
0010
0020
0000
,
0030
0100
0100
0000
,
0200
0000
0300
0000
,
1000
0000
2000
0000
,
0000
0000
3000
0000
,
0010
0000
0010
0000
,
0020
0000
0030
0000
,
0100
0000
0200
0000
,
0000
0000
0300
0004
,
0003
0000
2000
0000
,
3000
0000
2000
0000
,
3000
0000
0001
0000
,
0001
0000
0002
0000
,
0003
0000
0010
0000
,
0010
0000
0020
0000
,
0030
0000
0100
0000
,
0100
0000
0200
0000
,
0300
0000
1000
0000
,
1000
0000
2000
0000
,
3000
0000
0001
0000
,
0001
0000
0002
0000
,
0003
0000
0100
0000
,
0100
0000
0200
0000
,
0300
0000
0020
0000
,
0000
0000
0030
0000
,
1000
0000
2000
0000
,
0000
0000
3000
0000
,
0001
0000
0002
0000
,
0000
0000
0003
0000
,
0020
0000
0030
0000
,
0020
0000
0030
0000
,
0100
0000
0200
0000
,
0000
0000
0300
0000
,
1000
0000
1000
0000
,
2000
0000
3000
0000
,
0001
0000
0002
0000
,
0000
0000
0003
0000
,
0200
0000
0300
0000
,
0200
0000
0300
0000
,
0010
0000
0020
0000
,
0000
0030
0400
0000
,
0000
0300
0001
0000
,
0002
0000
0003
0000
,
0100
0000
0100
0000
,
0200
0000
0300
0000
,
0010
0000
0010
0000
,
0020
0000
0030
0000
,
1000
0000
2000
0000
,
0000
3000
0200
0000
,
0000
0300
0000
0000
;
