#TITLE:Dreamin' ChuChu;
#SUBTITLE:(Chocola-ta-ta-ta-ta);
#ARTIST:Lizz Robinett;
#TITLETRANSLIT:;
#SUBTITLETRANSLIT:;
#ARTISTTRANSLIT:;
#GENRE:;
#CREDIT:Ace Of Arrows;
#BANNER:Dreamin' ChuChu - bn.png;
#BACKGROUND:Dreamin' ChuChu - bg.jpg;
#LYRICSPATH:;
#CDTITLE:Ace Of Arrows.png;
#MUSIC:Dreamin' ChuChu.ogg;
#OFFSET:1.270;
#SAMPLESTART:66.000;
#SAMPLELENGTH:12.000;
#SELECTABLE:YES;
#BPMS:0.000=128.000,136.000=64.000,140.000=128.000,268.000=64.000,272.000=128.000,372.000=64.000,380.000=128.000;
#STOPS:;
#BGCHANGES:2.500=Dreamin' ChuChu Video.avi=1.000=1=0=1===CrossFade==,
99999=-nosongbg-=1.000=0=0=0 // don't automatically add -songbackground-
;
#KEYSOUNDS:;

//---------------dance-single - Ace Of Arrows (2018)----------------
#NOTES:
     dance-single:
     Ace Of Arrows (2018):
     Challenge:
     10:
     0.693,0.178,0.649,0.867,0.275:
0000
0000
0000
0000
,
0000
0000
0000
0000
,
1001
0000
0000
0000
0000
0101
0000
0120
,
0000
0030
0000
0000
0000
0000
0000
0000
,
1010
0000
0000
0000
0000
1001
0000
0012
,
0000
0003
0000
0000
0000
0000
0000
0000
,
1001
0000
0000
0000
0000
1010
0000
0210
,
0000
0000
0300
0000
0001
1000
0100
0010
0001
0010
0100
1000
0001
1000
0002
0003
,
0101
0000
0000
0000
0000
0110
0000
2010
,
0000
0000
3001
0000
0010
0000
0100
0000
1000
0001
1000
0000
1100
0000
0000
0000
,
1001
0000
0001
0100
0001
0000
1000
0000
0100
0000
0020
0000
0000
0030
0012
0000
,
0000
0000
1003
0010
0100
0001
1000
0001
0100
0010
2000
0000
3001
0010
0001
0000
,
2001
0000
3010
0100
0010
0000
1000
0000
1002
0000
0013
0000
0000
0000
0210
0000
,
0000
0000
1300
0100
0010
0001
1000
0001
0010
0100
2000
0000
3001
0100
0001
0000
,
2001
0000
3010
0100
0010
0000
1000
0000
0002
0000
1003
0000
0000
0000
1020
0000
,
0000
0000
0130
0001
1000
0100
0010
0100
1000
0001
0200
0000
0301
1000
0001
0000
,
0021
0000
0130
1000
0100
0000
0010
0000
0002
0000
1003
0000
0000
0000
1200
0000
,
0000
0000
0310
0000
0100
M00M
0100
0000
0010
M00M
0010
0000
0001
1000
0001
0000
,
0201
0320
0000
1030
0001
0010
0100
1000
,
1001
0001
0100
0020
0000
0030
0000
2010
,
0000
3002
0000
0013
0110
0100
1000
0001
,
0201
0310
1000
2002
0000
3003
0000
0001
,
0101
0100
0010
1000
1001
0001
0010
0100
,
1100
1000
0001
0200
0000
0300
0000
0120
,
0000
2030
0000
3001
0101
0100
0010
1000
,
1001
0001
0010
0220
0000
0000
0330
0000
,
2100
3001
0200
0300
0120
0000
1030
0001
,
0011
0010
0100
2200
0000
3300
0000
1000
,
1001
0001
0100
0010
1010
1000
0001
0010
,
0110
0100
1000
0002
0000
0003
0000
0100
,
0110
0010
2000
3000
1001
0001
0010
0100
,
1000
0001
0100
0220
0000
0000
0330
0000
,
0000
0010
1000
1002
0000
0013
0100
1100
,
0000
2000
0000
3000
0004
0000
0103
0000
,
0120
0000
2030
0000
3002
0000
0023
0030
0210
0000
0300
1000
0002
0000
0003
1000
,
1020
0000
0000
0000
0230
0000
0300
0000
0101
0000
0001
0000
0000
0000
0100
0010
,
0100
M00M
0100
0000
0010
M00M
0010
0000
2000
0000
0000
0000
3000
0000
0001
0000
,
0201
0000
0310
2010
0000
3001
0010
0100
,
1100
1000
0001
0100
0220
0330
0000
0010
,
2010
0000
0000
0000
3002
0000
0003
0000
0101
0000
0100
0000
0000
0000
0010
0100
,
0010
M00M
0010
0000
0100
M00M
0100
0000
0002
0000
0000
0000
0003
0000
1000
0000
,
1100
0100
0010
0001
2002
3003
0000
1000
,
1010
0010
0100
0001
2002
0000
3003
1000
,
1200
0000
0000
0000
0320
0000
0030
0000
0011
0000
0001
0000
0000
0000
0100
0010
,
0100
M00M
0100
0000
0010
M00M
0010
0000
2000
0000
0000
0000
3000
0000
0001
0000
,
0011
0010
0100
2100
0000
3001
0100
0010
,
1010
1000
0001
0010
0220
0000
0330
0100
,
2100
0000
0000
0000
3002
0000
0003
0000
0101
0000
1001
0000
1100
0000
0100
0010
,
0100
M00M
0100
0000
0010
M00M
0010
0000
0002
0000
0000
0000
0003
0000
0010
0100
,
0010
M00M
0010
0000
0100
M00M
0100
0000
2000
0000
0000
0000
3000
0000
0100
0010
,
0100
M00M
0100
0000
0010
M00M
0010
0000
0002
0000
0000
0000
0003
0000
0000
0000
,
1000
0000
1010
0000
0000
0010
0000
0000
0110
0000
0100
0001
1000
0001
0100
0000
,
0001
1000
0001
0000
0010
0000
0100
1000
0100
0000
1000
0001
0100
0001
1000
0000
,
0000
0000
0000
0000
0000
0000
1001
0000
0000
0000
0000
0000
0000
0000
0000
0001
0000
0000
0000
0000
0000
0000
0000
0000
1001
0000
0000
0000
0000
0000
1000
0000
0100
0000
0010
0000
0001
0000
0000
1000
0000
0000
0002
0000
0000
0000
0000
0000
,
1003
0010
2000
0000
3001
0000
0010
0000
0100
0010
0200
0000
1300
0001
0010
0001
,
1000
0000
0000
0000
0000
0000
1010
0000
0000
0000
0000
0000
0000
0000
0000
0010
0000
0000
0000
0000
0000
0000
0000
0000
1010
0000
0000
0000
0000
0000
1000
0000
0010
0000
0100
0000
0001
0000
0000
1000
0000
0000
0002
0000
0000
0000
0000
0000
,
0000
0000
1003
0000
0100
0000
0010
0000
0001
1000
0002
0000
0103
0010
0200
0000
,
0300
0000
0000
0000
0000
0000
0101
0000
0000
0000
0000
0000
0000
0000
0000
1001
0000
0000
0000
0000
0000
0000
0000
0000
2100
0000
0000
0000
0000
0000
3001
0000
0010
0000
0100
0000
1000
0000
0000
0001
0000
0000
2000
0000
0000
0000
0000
0000
,
0000
0000
0000
0000
0000
0000
3001
0000
0100
0000
0010
0000
2000
0000
0000
0000
0000
0000
3001
0000
0000
0010
0000
0000
0100
0000
0000
1000
0000
0000
0100
0000
0000
0010
0000
0000
0001
0000
0000
0010
0000
0000
0100
0000
0000
1000
0000
0000
,
0002
0203
0000
0310
1010
1000
0001
0010
,
0110
0100
1000
2002
0000
3003
0000
0001
,
0101
0100
0010
1000
1002
0000
0013
0210
,
0000
1300
0001
0202
0000
0303
0000
0100
,
0110
0010
1000
0001
0011
0010
0100
1000
,
1001
0001
0100
0220
0000
0330
0000
0010
,
1010
1000
0001
0010
0110
0100
1000
0001
,
0101
0100
0010
2020
0000
3030
0000
1000
,
1002
0000
0103
0020
0000
2030
3000
1002
0000
0013
0200
0000
0000
0300
0000
1000
,
1002
0000
0000
0000
0203
0000
0300
0000
0120
0000
1030
0000
0000
0000
0100
0010
,
0100
M00M
0100
0000
0010
M00M
0010
0000
0002
0000
0000
0000
0003
0000
1000
0000
,
1020
0000
0130
0102
0000
1003
0100
0010
,
0012
1003
0010
0100
0202
0303
0000
0001
,
2001
0000
0000
0000
3020
0000
0030
0000
0210
0000
0301
0000
0000
0000
0010
0100
,
0010
M00M
0010
0000
0100
M00M
0100
0000
2000
0000
0000
0000
3000
0000
0001
0000
,
0201
0310
1000
0001
0020
0000
0030
0100
,
2100
3001
0100
0010
2020
0000
3030
1000
,
1002
0000
0000
0000
0023
0000
0030
0000
0210
0000
1300
0000
0000
0000
0100
0010
,
0100
M00M
0100
0000
0010
M00M
0010
0000
0002
0000
0000
0000
0003
0000
1000
0000
,
1020
0130
0001
2002
0003
3100
0010
0001
,
2001
3010
0100
0001
2002
3003
0000
1000
,
1200
0000
0000
0000
0320
0000
0030
0000
0011
0000
1001
0000
1010
0000
0010
0100
,
0010
M00M
0010
0000
0100
M00M
0100
0000
0002
0000
0000
0000
0003
0000
0100
0010
,
0100
M00M
0100
0000
0010
M00M
0010
0000
2000
0000
0000
0000
3000
0000
0010
0100
,
0010
M00M
0010
0000
0100
M00M
0100
0000
0002
0000
0000
0000
0003
0000
1000
0000
,
0001
0010
1000
0010
0001
1000
0001
0010
,
0001
0100
1000
0100
0002
0000
0003
1000
,
0100
0001
0100
1000
0001
0100
0001
1000
,
0100
0001
0100
1000
0002
0000
0003
1000
,
0010
0100
0001
0100
0010
1000
0001
0010
,
0100
1000
0001
0200
0000
0300
0000
0010
,
1000
0001
0010
0100
1000
0000
0000
0002
,
0000
1003
0010
0100
0001
1000
0100
0010
,
0100
1000
0001
0020
0000
0030
0000
0001
,
2000
0000
0000
3020
0000
0000
0230
0000
0000
0000
0301
0000
1000
0000
0002
0000
0000
0000
1003
0000
0100
0000
0010
0000
0002
0000
0000
0000
0003
0000
1000
0000
,
0010
0100
0010
1000
0002
0003
0000
1000
0100
0010
0001
1000
0001
0100
0002
0003
,
0000
0000
2000
3000
1200
0310
0001
1000
,
1010
0010
0100
0001
2000
0000
3000
0001
,
0021
0130
1000
0001
0202
0000
0303
0100
,
0110
0010
1010
1000
2002
0000
3003
0001
,
0021
0000
0000
0000
0230
0000
0300
0000
2100
0000
3001
0000
0000
0000
0100
0010
,
0100
M00M
0100
0000
0010
M00M
0010
0000
2000
0000
0000
0000
3000
0000
0001
0000
,
0021
0000
0130
2100
0000
3001
0100
0010
,
2010
3001
0010
0100
2200
0000
3300
1000
,
1002
0000
0000
0000
0203
0000
0300
0000
0120
0000
1030
0000
0000
0000
0010
0100
,
0010
M00M
0010
0000
0100
M00M
0100
0000
0002
0000
0000
0000
0003
0000
1000
0000
,
1200
0310
0001
1000
2020
0000
3030
0010
,
0210
0301
1000
0100
0220
0000
0330
0010
,
0012
0000
0000
0000
2003
0000
3000
0000
1200
0000
0310
0000
0000
0000
0100
0010
,
0100
M00M
0100
0000
0010
M00M
0010
0000
0002
0000
0000
0000
0003
0000
1000
0000
,
1020
0130
0001
2002
0003
3100
0010
0001
,
2001
3010
0100
0001
0022
0000
0033
0010
,
0210
0000
0000
0000
2300
0000
3000
0000
1010
0000
1001
0000
0011
0000
0010
0100
,
0010
M00M
0010
0000
0100
M00M
0100
0000
2000
0000
0000
0000
3000
0000
0100
0010
,
0100
M00M
0100
0000
0010
M00M
0010
0000
0002
0000
0000
0000
0003
0000
0010
0100
,
0010
M00M
0010
0000
0100
M00M
0100
0000
2000
0000
0000
0000
3000
0000
0000
0000
,
0002
0000
0103
0010
2000
3000
1001
0001
,
0200
0310
1010
1000
0002
0013
0110
0100
,
2000
3001
0100
0010
2000
3000
1100
0100
,
0020
0031
1001
1000
0020
0130
0101
0001
,
2000
3100
0010
0001
2000
3000
1010
0010
,
0200
0301
1001
1000
0200
0310
0011
0001
,
2000
3100
0010
0001
2000
3010
0100
0202
,
0000
0000
0300
0000
1003
0100
0010
0001
,
0020
0000
0230
0000
2300
0000
3002
0000
0203
0000
0320
0030
2020
0000
3030
0000
;

//---------------dance-single - AceOfArrows (2018)----------------
#NOTES:
     dance-single:
     AceOfArrows (2018):
     Hard:
     8:
     0.494,0.127,0.041,0.583,0.088: // measure 1
0000
0000
0000
0000
,  // measure 2
0000
0000
0000
0000
,  // measure 3
1001
0000
0000
0000
0000
0001
0000
0020
,  // measure 4
0000
0030
0000
0000
0000
0000
0000
0000
,  // measure 5
0110
0000
0000
0000
0000
0100
0000
2000
,  // measure 6
0000
3000
0000
0000
0000
0000
0000
0000
,  // measure 7
1001
0000
0000
0000
0000
0001
0000
0200
,  // measure 8
0000
0300
0040
0000
0000
0000
0030
0000
,  // measure 9
1010
0000
0000
0000
0000
1000
0000
0002
,  // measure 10
0000
1003
0100
0010
0001
0000
0000
0000
,  // measure 11
1001
0000
0000
0000
1000
0010
0000
0200
,  // measure 12
0000
0304
0000
0000
0003
0000
0000
0000
,  // measure 13
1001
0000
0000
0000
1000
0100
0000
0020
,  // measure 14
0000
0430
0000
0000
0300
0000
0000
0000
,  // measure 15
1100
0000
0000
0000
1000
0001
0000
0200
,  // measure 16
0000
0340
0000
0000
0030
0000
0000
0000
,  // measure 17
1010
0000
0000
0000
1000
0001
0000
0020
,  // measure 18
0000
0130
1000
0004
0000
0000
0000
0000
,  // measure 19
0003
2000
0000
3100
0010
0100
1000
0001
,  // measure 20
1000
0010
1000
0002
0000
0003
0000
2000
,  // measure 21
0000
3020
0000
0130
0001
1000
0100
0010
,  // measure 22
0001
0010
0100
2000
0000
3000
0000
0001
,  // measure 23
1000
0100
1000
0001
0100
0001
1000
0010
,  // measure 24
1000
0001
0010
0002
0000
0003
0000
0020
,  // measure 25
0000
0230
0000
1300
0001
0100
0010
1000
,  // measure 26
0010
0100
0001
2000
0000
0000
3000
0000
,  // measure 27
0000
0001
0020
0000
0230
0000
0310
0001
,  // measure 28
1000
0010
0100
0002
0000
0003
0000
1000
,  // measure 29
0100
0010
0001
0010
0100
1000
0001
0100
,  // measure 30
0010
0100
0001
2000
0000
3000
0000
0001
,  // measure 31
0010
0100
0020
0000
0031
1000
0010
0100
,  // measure 32
0010
1000
0001
0200
0000
0000
0300
0000
,  // measure 33
0000
0010
0100
0002
0000
1003
0010
0200
,  // measure 34
0000
0302
0000
0003
0000
0000
0000
0000
,  // measure 35
2000
0000
3200
0000
0320
0000
0230
0000
2300
0000
0000
3001
0020
0000
0000
0130
,  // measure 36
2000
0000
0000
0000
3002
0000
0000
0000
0013
0000
0100
0000
0000
0000
1000
0100
,  // measure 37
1000
0001
0010
0100
0020
0000
0030
0001
,  // measure 38
2000
0000
3010
0200
0000
0301
1000
0100
,  // measure 39
1000
0001
0100
0010
2000
0000
3000
0001
,  // measure 40
0020
0000
0000
0000
0230
0000
0000
0000
1300
0000
0001
0000
0000
0000
0010
0100
,  // measure 41
0010
0001
1000
0001
0200
0000
0300
0001
,  // measure 42
1000
0010
1000
0001
0020
0000
0030
0100
,  // measure 43
1000
0001
0100
0001
2000
0000
3000
0001
,  // measure 44
0200
0000
0000
0000
0320
0000
0000
0000
1030
0000
0001
0000
0000
0000
1000
0010
,  // measure 45
1000
0001
1000
0001
0020
0000
0030
0001
,  // measure 46
1000
0010
1000
0002
0000
0013
0100
1000
,  // measure 47
0100
0010
0001
1000
0002
0000
0003
0010
,  // measure 48
0200
0000
0000
0000
2300
0000
0000
0000
3001
0000
0010
0000
0100
0000
1000
0100
,  // measure 49
1000
0000
0001
0000
1000
0000
0001
0000
0200
0000
0000
0000
0300
0000
0001
0100
,  // measure 50
0001
0000
1000
0000
0001
0000
1000
0000
0020
0000
0000
0000
0030
0000
1000
0010
,  // measure 51
1000
0001
1000
0001
0020
0000
0030
0000
,  // measure 52
0000
0000
0100
0000
0000
1000
0000
0000
0004
0000
0000
0000
1003
0000
0010
0000
,  // measure 53
2000
0000
3001
0040
0000
0031
0000
2000
,  // measure 54
0000
0000
3010
0000
0000
0100
0000
0000
0004
0000
0000
0000
0003
0000
2000
0000
,  // measure 55
0000
0000
3001
0000
1000
0010
1000
0002
,  // measure 56
0000
0000
0013
0000
0000
0100
0000
0000
4000
0000
0000
0000
3000
0000
0002
0000
,  // measure 57
0000
1003
0020
0000
0130
0002
0000
1003
,  // measure 58
0000
0000
0100
0000
0000
0010
0000
0000
0024
0000
0000
0000
0033
0000
2002
0000
,  // measure 59
0000
0000
0000
0000
3003
0000
4000
0400
0000
0000
0000
0000
0000
0000
3300
0000
,  // measure 60
0000
2000
0000
3001
0100
0010
1000
0010
,  // measure 61
0100
0001
1000
0200
0000
0300
0000
0010
,  // measure 62
0100
1000
0001
1000
0020
0000
0130
0002
,  // measure 63
0000
1003
0100
2000
0000
3000
0000
0001
,  // measure 64
0010
0100
1000
0100
0010
0001
1000
0001
,  // measure 65
0100
0010
1000
0002
0000
0003
0000
1000
,  // measure 66
0010
0100
0010
1000
0001
0010
0100
0010
,  // measure 67
0001
1000
0001
0200
0000
0300
0000
0010
,  // measure 68
2000
0000
3001
0020
0000
0230
0000
2300
0000
3001
0020
0000
0000
0030
0000
0001
,  // measure 69
2000
0000
0000
0000
3020
0000
0000
0000
0130
0000
0001
0000
0000
0000
1000
0001
,  // measure 70
1000
0100
0010
0100
2000
0000
3000
0001
,  // measure 71
0020
0000
0130
2000
0000
3001
0100
0010
,  // measure 72
1000
0010
0100
0001
2000
0000
3000
0001
,  // measure 73
0020
0000
0000
0000
0230
0000
0000
0000
0310
0000
0001
0000
0000
0000
1000
0010
,  // measure 74
1000
0001
1000
0001
0020
0000
0030
0100
,  // measure 75
1000
0001
0100
0001
2000
0000
3000
0001
,  // measure 76
0010
0001
1000
0010
0200
0000
0300
0001
,  // measure 77
2000
0000
0000
0000
3200
0000
0000
0000
1300
0000
0001
0000
0000
0000
0010
0100
,  // measure 78
0010
0001
1000
0001
0200
0000
0300
0010
,  // measure 79
1000
0001
0010
0200
0000
0310
0001
1000
,  // measure 80
0001
0100
0001
1000
0200
0000
0300
0010
,  // measure 81
0002
0000
0000
0000
2003
0000
0000
0000
3010
0000
0100
0000
0001
0000
1000
0100
,  // measure 82
1000
0000
0001
0000
0100
0000
0001
0000
2000
0000
0000
0000
3000
0000
0001
0010
,  // measure 83
0001
0000
1000
0000
0001
0000
1000
0000
0020
0000
0000
0000
0030
0000
0100
0001
,  // measure 84
0100
0001
1000
0001
0200
0000
0300
0001
,  // measure 85
1000
0100
0010
0001
0010
0100
1000
0001
,  // measure 86
0100
0010
1000
0010
0200
0000
0300
0001
,  // measure 87
1000
0001
0010
0100
0010
0001
1000
0001
,  // measure 88
0100
0010
0100
0001
2000
0000
3000
0010
,  // measure 89
0100
0001
1000
0100
0010
0001
0010
0100
,  // measure 90
1000
0001
1000
0020
0000
0030
0000
0100
,  // measure 91
0001
1000
0100
0010
0001
0000
0000
2000
,  // measure 92
0000
3010
0100
0001
1000
0100
0010
0100
,  // measure 93
1000
0001
0100
0020
0000
0030
0000
1000
,  // measure 94
0002
0000
0000
0023
0000
0000
0230
0000
0000
0000
1300
0000
0001
0000
2000
0000
0000
0000
3001
0000
0010
0000
0100
0000
2000
0000
0000
0000
3000
0000
0001
0000
,  // measure 95
0010
0001
0010
0100
2000
3000
0000
0001
0100
0001
0100
0010
1000
0010
2000
3000
,  // measure 96
0000
0000
0002
0000
0013
0100
1000
0001
,  // measure 97
0100
0010
0100
0001
2000
0000
3000
0001
,  // measure 98
0010
0100
1000
0001
0200
0000
0300
0010
,  // measure 99
0100
0001
1000
0100
0020
0000
0030
0001
,  // measure 100
2000
0000
0000
0000
3020
0000
0000
0000
0130
0000
0001
0000
0000
0000
0100
0010
,  // measure 101
0100
0001
1000
0001
0020
0000
0030
0100
,  // measure 102
2000
0000
3001
0200
0000
0310
1000
0001
,  // measure 103
0010
0100
0010
0001
2000
0000
3000
0010
,  // measure 104
0200
0000
0000
0000
0302
0000
0000
0000
1003
0000
0100
0000
0000
0000
0010
0001
,  // measure 105
0010
0100
0010
0100
2000
0000
3000
0001
,  // measure 106
1000
0010
1000
0001
0020
0000
0030
0100
,  // measure 107
1000
0001
0100
0001
2000
0000
3000
0001
,  // measure 108
0200
0000
0000
0000
0320
0000
0000
0000
1030
0000
0001
0000
0000
0000
1000
0100
,  // measure 109
1000
0001
0100
0001
2000
0000
3000
0100
,  // measure 110
0010
0100
1000
0002
0000
1003
0010
0100
,  // measure 111
0001
0100
0010
1000
0002
0000
0003
0010
,  // measure 112
0200
0000
0000
0000
2300
0000
0000
0000
3001
0000
0010
0000
0100
0000
0010
0001
,  // measure 113
0010
0000
0100
0000
1000
0000
0100
0000
0020
0000
0000
0000
0030
0000
0001
1000
,  // measure 114
0001
0000
0100
0000
0010
0000
0100
0000
0002
0000
0000
0000
0003
0000
1000
0010
,  // measure 115
1000
0001
1000
0001
0020
0000
0030
0000
,  // measure 116
0001
1000
0010
0100
0002
0000
0003
1000
,  // measure 117
0010
0100
0010
2000
0000
3001
0010
0100
,  // measure 118
0010
0001
1000
0100
0020
0000
0130
1000
,  // measure 119
0001
1000
0010
0200
0000
0301
1000
0100
,  // measure 120
0010
0001
0010
0100
2000
0000
3001
0100
,  // measure 121
0010
0100
0001
2000
0000
3001
0010
0100
,  // measure 122
1000
0100
0010
0001
2000
3010
0100
0002
,  // measure 123
0000
1003
0010
1000
0001
0010
0100
1000
,  // measure 124
0100
0010
0001
1000
0100
0010
0002
0003
;

//---------------dance-single - AceOfArrows (2018)----------------
#NOTES:
     dance-single:
     AceOfArrows (2018):
     Medium:
     5:
     0.341,0.102,0.000,0.591,0.002:
0000
0000
0000
0000
,
0000
0000
0000
0000
,
0001
0000
0000
0000
0000
1000
0000
0002
,
0000
0003
0000
0000
0000
0000
0000
0000
,
0010
0000
0000
0000
0000
0100
0000
0020
,
0000
0030
0000
0000
0000
0000
0000
0000
,
0001
0000
0000
0000
0000
1000
0000
0020
,
0000
0030
0000
0000
0000
0000
0000
0000
,
1000
0000
0000
0000
0000
0001
0000
0020
,
0000
0000
0031
1000
0001
0000
0000
0000
,
1000
0000
0000
0000
0001
0010
0000
0002
,
0000
0000
0003
0000
,
1000
0000
0000
0000
0010
1000
0000
0020
,
0000
0000
0030
0000
,
0100
0000
0000
0000
0001
0100
0000
0002
,
0000
0000
0003
0000
,
1000
0000
0000
0000
0100
1000
0000
0200
,
0000
0000
0300
0000
,
0000
2000
0000
3001
0010
0000
0001
0000
,
1000
0000
0001
0200
0000
0300
0000
0001
,
0000
2000
0000
3001
0010
0000
0001
0000
,
1000
0000
0100
0020
0000
0030
0000
0001
,
1000
0010
1000
0001
,
0010
0000
0001
2000
0000
3000
0000
0020
,
0000
2030
0000
3001
0010
0000
0001
0000
,
1000
0000
0001
0020
0000
0030
0000
0000
,
0000
0001
2000
0000
3002
0000
0103
0000
,
0010
0000
1000
0002
0000
0003
0000
1000
,
0100
1000
0001
1000
,
0010
0000
0100
0002
0000
0003
0000
1000
,
0020
2030
3001
0010
,
0001
0000
1000
0200
0000
0300
0000
0000
,
0000
0010
0000
0001
0000
1000
0000
0001
,
0000
0020
0000
0030
0000
0000
0000
0000
,
0100
0100
0100
0000
1000
0000
1000
0000
,
0002
0000
1003
0000
0001
0010
0000
0000
,
0001
1000
0001
0000
0200
0000
0300
0000
,
0020
0000
1030
0002
0000
0000
1003
0100
,
1000
0001
0200
0300
,
0020
0000
2030
0000
3001
0010
0000
0000
,
0001
1000
0001
0000
0020
0000
0030
0000
,
0002
0000
1003
0100
2000
0000
3000
0000
,
0002
0000
0013
0100
0020
0000
0030
0000
,
0002
0000
2003
0000
3010
0100
0000
0000
,
0001
1000
0001
0000
0200
0000
0300
0000
,
0020
0000
1030
0002
0000
0000
1003
0000
,
0100
0000
1000
0001
2000
0000
3000
0000
,
0002
0000
0023
0000
0031
1000
0001
0000
,
1000
0001
1000
0000
0020
0000
0030
0000
,
0100
0001
0100
0000
0002
0000
0003
0000
,
1000
0100
1000
0000
0002
0000
0003
0000
,
0000
2000
0000
0000
3000
0000
0001
0000
,
0200
0300
0020
0000
,
0030
2000
0000
0000
3000
0000
0001
0000
,
0200
0000
0000
0300
,
0000
0020
0000
0000
0030
0000
1000
0000
,
0001
0010
0002
0000
,
0003
2000
0000
0000
3000
0000
0000
0200
,
0000
0000
0000
0300
,
0000
0020
0000
0031
1000
0000
0010
0000
,
1000
0000
0001
0020
0000
0030
0000
0100
,
2000
0000
3001
0000
0200
0000
0310
2000
,
0000
3001
0010
0002
0000
0003
0000
0010
,
0200
1300
0001
1000
,
0010
0000
0100
0002
0000
0003
0000
1000
,
0200
0310
0001
1000
,
0100
0000
1000
0002
0000
0003
0000
0000
,
0200
0000
0000
0300
0000
0000
0000
0020
0000
0000
0030
0000
0000
0000
0000
0000
,
2000
0000
3020
0000
1030
0001
0000
0000
,
1000
0100
1000
0000
0002
0000
0003
0000
,
0020
0000
0130
2000
0000
0000
3001
0000
,
0200
0000
0301
1000
0002
0000
0003
0000
,
2000
0000
3200
0000
0310
0001
0000
0000
,
1000
0010
1000
0000
0002
0000
0003
0000
,
0010
0100
0010
0000
0002
0000
0003
0000
,
1000
0001
1000
0000
0020
0000
0030
0000
,
0200
0000
0302
0000
1003
0001
0000
0000
,
0010
0100
0010
0000
0002
0000
0003
0000
,
2000
0000
3001
0200
0000
0000
0301
0000
,
1000
0100
1000
0000
0002
0000
0003
0000
,
0020
0000
0230
0000
1300
0001
1000
0000
,
0001
0100
0001
0000
2000
0000
3000
0000
,
0100
0010
0100
0000
2000
0000
3000
0000
,
0001
0010
0001
0000
2000
0000
3000
0000
,
0001
0010
0001
0000
1000
0000
0100
0000
,
1000
0001
1000
0000
0020
0000
0030
0000
,
1000
0001
1000
0000
0100
0000
1000
0000
,
0001
0100
0002
0000
2003
0000
3000
0000
,
0010
0100
0010
0000
2000
0000
3001
0000
,
0020
0000
0130
2000
0000
3000
0000
0001
,
0200
0000
0301
0000
1000
0000
0000
0002
,
0000
1003
0100
0000
0010
0000
0100
0000
,
1000
0000
0001
0020
0000
0030
0000
0000
,
0002
0000
0000
0003
0000
0000
0000
0000
1000
0000
1000
0000
1000
0000
0000
0000
,
0020
0000
0030
0000
0100
0100
0200
0300
,
0000
0002
2003
3001
,
0020
0000
0031
1000
0002
0000
0003
0000
,
1000
0010
1000
0000
0002
0000
0003
0000
,
0010
0100
0010
0000
0002
0000
0003
0000
,
2000
0000
3020
0000
0130
0001
0000
0000
,
1000
0100
1000
0000
0002
0000
0003
0000
,
0020
0000
0130
2000
0000
0000
3001
0100
,
0002
1003
0200
0300
,
0020
0000
0230
0000
1300
0001
0000
0000
,
1000
0010
1000
0000
0002
0000
0003
0000
,
0010
0100
0010
0000
0002
0000
0003
0000
,
1000
0001
1000
0000
0020
0000
0030
0000
,
2000
0000
3002
0000
0013
0100
0000
0000
,
1000
0001
1000
0000
0200
0000
0300
0000
,
0020
0000
0031
2000
0000
0000
3001
0100
,
0002
2003
3200
0300
,
0020
0000
0032
0000
1003
0001
1000
0000
,
0010
1000
0010
0000
2000
0000
3000
0000
,
0001
0010
0001
0000
2000
0000
3000
0000
,
0010
0100
0010
0000
0200
0000
0300
0000
,
0002
0000
1003
0100
2000
0000
3000
0000
,
0001
0010
0001
1000
,
0020
0000
0130
0001
0200
0000
0300
0000
,
0010
1000
0001
0010
,
0200
0000
1300
0001
2000
0000
3000
0000
,
0010
1000
0001
0010
,
0200
0000
0310
0001
0020
0000
0030
0200
,
0000
1300
0001
0100
,
0010
1000
0010
0000
1000
0001
2000
0000
,
3000
0000
0000
0000
;

//---------------dance-single - AceOfArrows (2018)----------------
#NOTES:
     dance-single:
     AceOfArrows (2018):
     Easy:
     3:
     0.176,0.076,0.000,0.267,0.000:
0000
0000
0000
0000
,
0000
0000
0000
0000
,
1000
0000
0000
0000
0000
2000
0000
0000
,
3000
0000
0000
0000
,
0001
0000
0000
0000
0000
0002
0000
0000
,
0003
0000
0000
0000
,
0100
0000
0000
0000
0000
0200
0000
0000
,
0300
0000
0000
0000
,
0010
0000
0000
0000
0000
0020
0000
0000
,
0030
0000
0000
0000
,
1000
0000
0000
0000
1000
0000
0000
2000
,
0000
0000
3000
0000
,
0100
0000
0000
0000
0100
0000
0000
0200
,
0000
0000
0300
0000
,
0010
0000
0000
0000
0010
0000
0000
0020
,
0000
0000
0030
0000
,
0001
0000
0000
0000
0001
0000
0000
0002
,
0000
0000
0003
0000
,
0000
1000
1000
1000
,
2000
0000
3000
0000
,
0020
0030
0100
0100
,
0200
0000
0300
0000
,
0001
0001
0002
0003
,
2000
0000
3000
0000
,
0100
0100
0200
0300
,
0010
0010
0020
0030
,
0000
0001
0001
0001
,
0002
0000
0003
0000
,
2000
3000
0010
0010
,
0020
0000
0030
0000
,
0100
0100
0200
0300
,
0002
0000
0003
0000
,
0000
0000
1000
1000
,
2000
0000
3000
0000
,
0020
0030
0200
0300
,
0002
0003
0001
0000
,
4000
0000
3000
0000
,
0200
0000
0300
0000
,
0010
0010
0010
0000
,
0200
0300
0100
0000
,
4000
0000
3000
0000
,
0001
0001
0001
0000
,
0100
0100
0100
0000
,
0020
0030
0010
0000
,
0400
0000
0300
0000
,
0002
0000
0003
0000
,
1000
1000
1000
0000
,
0200
0300
0100
0000
,
0040
0000
0030
0000
,
0004
0000
0003
0000
,
4000
0000
3000
0000
,
0020
0000
0030
0000
,
0100
0100
0100
0000
,
0002
0000
0003
0000
,
1000
1000
1000
0000
,
0200
0000
0300
0000
,
0010
0010
0010
0000
,
0002
0000
0003
0000
,
0000
0000
0000
0000
,
0000
1000
1000
1000
,
2000
0000
3000
0000
,
0010
0010
0020
0030
,
0200
0000
0300
0000
,
0001
0001
0001
0001
,
0002
0000
0003
0000
,
1000
1000
1000
1000
,
2000
0000
3000
0000
,
0200
0300
0020
0030
,
0002
0003
0001
0000
,
0040
0000
0030
0000
,
0200
0000
0300
0000
,
1000
1000
1000
0000
,
0002
0003
0001
0000
,
0400
0000
0300
0000
,
0010
0010
0010
0000
,
1000
1000
1000
0000
,
0002
0003
0001
0000
,
4000
0000
3000
0000
,
0200
0000
0300
0000
,
0010
0010
0010
0000
,
0002
0003
0001
0000
,
4000
0000
3000
0000
,
0040
0000
0030
0000
,
0400
0000
0300
0000
,
0001
0001
0001
0000
,
1000
1000
1000
0000
,
0100
0100
0100
0000
,
0010
0010
0010
0000
,
0001
0001
0001
0000
,
2000
0000
3000
0000
,
0010
0010
0010
0000
,
0200
0300
0001
0001
,
0002
0000
0003
0000
,
2000
0000
3000
0000
0001
0001
0001
0000
,
0100
0100
0100
0000
0010
0010
0010
0000
,
0000
1000
1000
1000
,
2000
0000
3000
0000
,
0100
0100
0100
0000
,
0010
0010
0010
0000
,
0002
0003
0001
0000
,
4000
0000
3000
0000
,
0020
0000
0030
0000
,
0100
0100
0100
0000
,
0002
0003
0001
0000
,
0400
0000
0300
0000
,
0010
0010
0010
0000
,
1000
1000
1000
0000
,
0002
0003
0001
0000
,
0040
0000
0030
0000
,
0200
0000
0300
0000
,
1000
1000
1000
0000
,
0002
0003
0001
0000
,
0400
0000
0300
0000
,
0040
0000
0030
0000
,
4000
0000
3000
0000
,
0001
0001
0002
0003
,
0020
0000
0030
0000
,
0100
0100
0200
0300
,
2000
0000
3000
0000
,
0001
0001
0002
0003
,
0200
0000
0300
0000
,
0010
0010
0020
0030
,
2000
0000
3000
0000
,
0010
0010
0010
0010
;

//---------------dance-single - AceOfArrows (2018)----------------
#NOTES:
     dance-single:
     AceOfArrows (2018):
     Beginner:
     1:
     0.127,0.051,0.000,0.246,0.000:
0000
0000
0000
0000
,
0000
0000
0000
0000
,
0002
0000
0000
0003
,
0000
0000
0000
0000
,
0002
0000
0000
0003
,
0000
0000
0000
0000
,
2000
0000
0000
3000
,
0000
0000
0000
0000
,
2000
0000
0000
3000
,
0000
0000
0000
0000
,
0010
0000
0010
0000
,
0020
0000
0030
0000
,
0100
0000
0100
0000
,
0200
0000
0300
0000
,
0001
0000
0001
0000
,
0002
0000
0003
0000
,
1000
0000
1000
0000
,
2000
0000
3000
0000
,
0001
0000
0001
0000
,
0002
0000
0003
0000
,
0010
0000
0010
0000
,
0020
0000
0030
0000
,
0100
0000
0100
0000
,
0200
0000
0300
0000
,
1000
0000
1000
0000
,
2000
0000
3000
0000
,
0000
0000
0001
0000
,
0002
0000
0003
0000
,
0100
0000
0100
0000
,
0200
0000
0300
0000
,
0010
0000
0010
0000
,
0020
0000
0030
0000
,
0000
0000
1000
0000
,
2000
0000
3000
0000
,
0002
0000
0003
0000
,
2000
0000
3000
0000
,
4000
0000
3000
0000
,
0010
0000
0010
0000
,
0020
0000
0030
0000
,
0200
0000
0300
0000
,
0400
0000
0300
0000
,
0001
0000
0001
0000
,
0002
0000
0003
0000
,
1000
0000
1000
0000
,
4000
0000
3000
0000
,
0100
0000
0100
0000
,
0200
0000
0300
0000
,
0020
0000
0030
0000
,
0040
0000
0030
0000
,
0040
0000
0030
0000
,
0040
0000
0030
0000
,
0002
0000
0003
0000
,
1000
0000
1000
0000
,
2000
0000
3000
0000
,
0010
0000
0010
0000
,
0020
0000
0030
0000
,
0100
0000
0100
0000
,
0200
0000
0300
0000
,
0000
0000
0000
0000
,
0001
0000
0001
0000
,
0002
0000
0003
0000
,
1000
0000
1000
0000
,
2000
0000
3000
0000
,
0100
0000
0100
0000
,
0200
0000
0300
0000
,
0010
0000
0010
0000
,
0020
0000
0030
0000
,
0002
0000
0003
0000
,
2000
0000
3000
0000
,
4000
0000
3000
0000
,
0010
0000
0010
0000
,
0020
0000
0030
0000
,
0200
0000
0300
0000
,
0400
0000
0300
0000
,
0001
0000
0001
0000
,
0002
0000
0003
0000
,
2000
0000
3000
0000
,
4000
0000
3000
0000
,
0010
0000
0010
0000
,
0020
0000
0030
0000
,
0200
0000
0300
0000
,
0400
0000
0300
0000
,
0400
0000
0300
0000
,
0400
0000
0300
0000
,
1000
0000
1000
0000
,
2000
0000
3000
0000
,
0001
0000
0001
0000
,
0002
0000
0003
0000
,
0100
0000
0100
0000
,
0200
0000
0300
0000
,
0010
0000
0010
0000
,
0020
0000
0030
0000
,
0020
0000
0030
0000
,
1000
1000
2000
3000
,
0001
0001
0002
0003
,
0000
0000
0010
0000
,
0020
0000
0030
0000
,
0100
0000
0100
0000
,
0200
0000
0300
0000
,
2000
0000
3000
0000
,
4000
0000
3000
0000
,
0001
0000
0001
0000
,
0002
0000
0003
0000
,
0200
0000
0300
0000
,
0400
0000
0300
0000
,
0010
0000
0010
0000
,
0020
0000
0030
0000
,
2000
0000
3000
0000
,
4000
0000
3000
0000
,
0001
0000
0001
0000
,
0002
0000
0003
0000
,
0020
0000
0030
0000
,
0040
0000
0030
0000
,
0040
0000
0030
0000
,
0040
0000
0030
0000
,
0002
0000
0003
0000
,
1000
0000
1000
0000
,
2000
0000
3000
0000
,
0010
0000
0010
0000
,
0020
0000
0030
0000
,
1000
0000
1000
0000
,
2000
0000
3000
0000
,
0002
0000
0003
0000
,
0040
0000
0000
0030
;
