#TITLE:City Escape;
#SUBTITLE:;
#ARTIST:Ted Poley & Tony Harnell;
#TITLETRANSLIT:;
#SUBTITLETRANSLIT:;
#ARTISTTRANSLIT:;
#GENRE:;
#CREDIT:Ace Of Arrows;
#BANNER:City Escape - bn.png;
#BACKGROUND:City Escape - bg.jpg;
#LYRICSPATH:;
#CDTITLE:Ace Of Arrows.png;
#MUSIC:City Escape.ogg;
#OFFSET:0.740;
#SAMPLESTART:39.780;
#SAMPLELENGTH:12.000;
#SELECTABLE:YES;
#BPMS:0.000=130.000;
#STOPS:;
#BGCHANGES:;
#KEYSOUNDS:;

//---------------dance-single - AceOfArrows (2018)----------------
#NOTES:
     dance-single:
     AceOfArrows (2018):
     Challenge:
     10:
     1.000,0.375,0.442,1.000,0.990: // measure 1
0000
0000
0000
0000
,  // measure 2
0002
0000
0013
0000
0100
1000
0100
0020
0000
0130
1000
0200
0000
0310
0001
0000
,  // measure 3
2000
0000
3010
0000
0100
0001
0100
0020
0000
1030
0001
2000
0000
3100
0020
0000
,  // measure 4
0032
0000
1003
0000
0010
0100
0010
2000
0000
3001
0010
0002
0000
1003
0100
0000
,  // measure 5
0020
0000
0130
0000
1000
0001
1000
0020
0000
0130
0001
0200
0000
0310
1000
0000
,  // measure 6
0002
0000
0013
0000
0100
1000
0100
0020
0000
0130
1000
0100
0010
0001
0010
0001
,  // measure 7
2000
0000
3010
0000
0100
0000
0001
0000
2001
0000
3100
0010
0000
0001
1000
0000
,  // measure 8
1020
0000
0130
0001
0000
0000
2001
0000
0000
3100
0000
0000
0010
0000
0001
0000
,  // measure 9
0201
0000
0310
1000
0000
1000
0001
0000
0201
0000
0310
1000
0000
1000
0001
0000
,  // measure 10
0021
0000
0130
2000
0000
0000
3001
0000
0010
0100
0020
0000
0031
0000
1000
0010
,  // measure 11
0100
0000
0001
0000
1000
0000
0100
0000
0120
0000
0031
1000
0000
1000
0010
0000
,  // measure 12
0210
0000
0301
1000
0000
1000
0100
0000
0120
0000
0031
0000
1000
0000
0010
0000
,  // measure 13
0210
0000
0301
1000
0000
1000
0001
0000
0021
0000
0130
1000
0000
1000
0001
0000
,  // measure 14
0201
0000
0310
1000
0000
1000
0002
0000
1003
0100
1000
0100
0010
0001
0010
0001
,  // measure 15
2000
0000
3001
0000
0010
0100
0010
0100
2000
0000
3001
0000
0100
0001
0100
0001
,  // measure 16
2000
0000
3100
0000
0010
0001
0010
0001
2000
0000
3010
0000
0100
0001
0100
0001
,  // measure 17
2000
0000
3100
0000
0010
0100
0010
0100
2000
0000
3001
0000
0100
0001
0100
0001
,  // measure 18
2000
0000
3100
0000
0010
0001
0010
0001
2000
0000
3010
0100
0001
1000
0001
1000
,  // measure 19
0200
0000
0310
0000
0001
1000
0001
0000
0200
0000
0310
0000
1000
0001
1000
0000
,  // measure 20
0200
0000
0310
0000
0001
1000
0001
0000
0200
0000
0310
0000
1000
0010
0100
0010
,  // measure 21
2000
0000
0000
0000
3002
0000
0000
0000
0013
0100
1000
0100
0020
0000
0031
0000
,  // measure 22
2001
0000
3010
0100
0000
0100
0001
0000
1000
0100
0010
0001
0020
0000
0030
0000
,  // measure 23
0210
0000
0000
2300
0000
3000
1002
0000
0203
0000
0310
1000
0000
0001
0010
0000
,  // measure 24
0210
0000
1300
0001
0000
0000
0201
0000
0320
0000
1030
0001
0000
0010
0100
0000
,  // measure 25
2100
0000
3001
0100
0000
0100
0010
0000
2010
0000
3001
0010
0000
0010
0100
0000
,  // measure 26
2100
0000
3001
0100
0000
0100
0010
0000
2010
0000
3001
0010
0100
1000
0100
0010
,  // measure 27
0002
0000
1003
0010
0000
0010
0100
0000
0002
0000
1003
0000
0200
0000
0310
0000
,  // measure 28
0001
0000
0000
0000
2001
0000
0000
0000
0000
0000
0000
0000
3010
0000
0000
0000
0100
0000
0001
0000
0000
0000
1000
0100
1000
0000
0001
0000
0100
0000
0010
0000
,  // measure 29
0200
0000
0301
1000
0000
0000
1200
0000
0320
0000
0031
1000
0000
1000
0010
0000
,  // measure 30
0210
0000
0301
1000
0000
0000
1200
0000
0320
0000
0031
1000
0000
1000
0010
0000
,  // measure 31
0210
0000
0301
1000
0000
0100
0010
0000
0012
0000
1003
0010
0000
0100
0001
0000
,  // measure 32
2001
0000
3100
0010
0000
0001
1000
0000
0010
0100
0010
0100
0001
1000
0001
1000
,  // measure 33
0200
0000
0310
0001
0000
0001
1000
0000
0020
0000
0130
0001
0000
0001
1000
0000
,  // measure 34
0100
0000
0120
0000
0032
0000
1003
0000
0020
0000
0130
0000
0002
0000
1003
0100
,  // measure 35
0010
0001
0010
0100
1000
0100
0010
0001
1000
0001
1000
0100
0010
0001
0010
0100
,  // measure 36
2000
0000
3001
0000
0010
0100
1000
0200
0000
0310
0001
0020
0000
0130
1000
0000
,  // measure 37
0002
0000
0103
0000
0010
1000
0010
0200
0000
0301
1000
0002
0000
0000
1003
0000
,  // measure 38
1200
0000
0320
0000
0031
1000
0001
0200
0000
0310
1000
0020
0000
0130
0001
0000
,  // measure 39
1000
0000
0100
0010
0100
0000
1000
0000
0001
0000
0100
0000
0010
0000
1000
0000
0001
0000
0010
0000
0100
0000
1000
0000
0100
0000
0010
0000
0001
0000
1000
0000
,  // measure 40
0001
1000
0100
0010
1000
0010
0001
0100
,  // measure 41
2000
0000
0000
3200
0000
0000
0302
0000
0000
0000
0003
0000
0000
0000
0000
0000
,  // measure 42
1001
0000
0000
1000
0000
0000
1200
0000
0000
0000
0310
0000
0001
0000
1000
0000
,  // measure 43
1020
0000
0130
0002
0000
0003
2001
0000
3100
0010
0002
0000
1003
0000
0010
0000
,  // measure 44
0210
0301
1000
0100
0110
0010
0001
1000
,  // measure 45
1200
0000
0000
0320
0000
0030
0012
0000
1003
0010
2000
0000
3001
0000
0010
0000
,  // measure 46
0210
0000
1300
0002
0000
0000
0103
0000
0010
1000
0020
0000
1030
0000
0001
0000
,  // measure 47
0021
0000
0130
2000
0000
3001
0100
0000
0010
0100
0020
0000
1030
0001
0010
0001
,  // measure 48
2000
0000
3010
0000
0100
0001
1000
0001
0200
0000
0310
0000
1000
0001
0010
0001
,  // measure 49
2000
0000
3001
0000
0010
0100
1000
0100
0020
0000
0031
0000
1000
0100
0010
0100
,  // measure 50
2000
0000
3001
0000
0100
0010
1000
0010
0200
0000
0301
0000
1000
0001
0010
0001
,  // measure 51
2000
0000
3100
0000
0010
0001
1000
0001
0010
0100
0010
0100
1000
0001
1000
0001
,  // measure 52
0200
0000
0310
0000
1000
0001
1000
0000
1200
0000
0310
0000
0001
0010
0100
0010
,  // measure 53
0002
0000
1003
0000
0010
0100
0001
0100
0020
0000
1030
0000
0001
0010
0100
0000
,  // measure 54
2100
0000
3001
0100
0000
0100
0010
0000
1000
0001
0100
0001
2000
0000
3100
0000
,  // measure 55
0020
0000
0130
1000
0000
1000
0001
0000
0100
0010
1000
0010
0200
0000
0000
0300
,  // measure 56
0102
0000
1003
0100
0000
0000
0120
0000
0000
0031
1000
0000
0010
0000
0100
0000
,  // measure 57
0102
0000
1003
0010
0000
0000
0210
0000
0000
0301
1000
0000
0100
0000
0010
0000
,  // measure 58
0012
0000
1003
0010
0000
1000
0001
0000
0021
0000
0130
1000
0000
0001
0100
0000
,  // measure 59
0120
0000
1030
0001
0000
0100
0010
0000
2010
0000
3001
0010
0100
1000
0100
0010
,  // measure 60
0002
0000
1003
0010
0100
0010
2000
0000
3002
0000
1003
0100
0010
0100
2000
0000
,  // measure 61
3001
0000
0201
0000
0000
0000
0310
0000
1000
0001
0000
0001
0010
0100
0010
0001
,  // measure 62
2000
0000
3010
0100
0000
0000
0102
0000
0000
1003
0100
0000
0010
0000
0100
0000
,  // measure 63
2100
0000
3001
0100
0000
0000
0120
0000
0000
1030
0001
0000
0010
0000
0100
0000
,  // measure 64
2100
0000
3001
0100
0000
0010
1000
0000
1002
0000
0013
0100
0000
1000
0001
0000
,  // measure 65
0201
0000
0310
1000
0000
0001
0010
0000
0100
1000
0100
1000
0001
0100
0001
0100
,  // measure 66
0020
0000
1030
0001
0000
0001
0010
0000
0210
0000
1300
0001
0000
0001
0100
0000
,  // measure 67
0010
0000
2010
0000
3001
0010
0001
0000
2000
0000
3100
0010
0200
0000
1300
0001
,  // measure 68
1000
0010
0100
0010
1000
0001
1000
0100
0010
0001
1000
0001
0100
0010
0100
0001
,  // measure 69
2000
0000
3100
0000
0010
0100
1000
0200
0000
0310
0001
0020
0000
0130
1000
0000
,  // measure 70
0002
0000
0103
0000
0010
1000
0010
0200
0000
0301
1000
0000
0100
0000
0010
0000
,  // measure 71
0012
0000
1003
0000
0010
0100
0010
2000
0000
3001
0010
0002
0000
1003
0010
0000
,  // measure 72
0200
0000
0301
0000
1000
0100
1000
0002
0000
0103
0010
0100
0001
1000
0001
0010
,  // measure 73
0100
0000
2100
0000
3001
0100
0002
0000
1003
0100
0000
0100
0010
0000
0012
0000
,  // measure 74
2003
0000
3010
0100
0000
0100
0001
0000
1000
0100
1000
0100
0010
0001
0010
0001
,  // measure 75
1000
0010
1000
0010
0200
0000
0000
0000
0000
0000
0000
0000
0000
0000
0000
0000
,  // measure 76
0000
0300
0000
0000
;

//---------------dance-single - AceOfArrows (2018)----------------
#NOTES:
     dance-single:
     AceOfArrows (2018):
     Hard:
     8:
     0.645,0.348,0.349,1.000,0.310:
0000
0000
0000
0000
,
2000
0000
3001
0000
0010
0000
0100
2000
0000
3001
0000
0020
0000
0130
2000
0000
,
3002
0000
0103
0000
0010
0000
1000
0002
0000
0013
0000
0200
0000
1300
0002
0000
,
0203
0000
0310
0000
1000
0000
0001
0020
0000
0130
0000
2000
0000
3001
0100
0000
,
0020
0000
0130
0000
0001
0000
1000
0200
0000
0310
0000
0002
0000
1003
0010
0000
,
2000
0000
3001
0000
4000
0400
0000
0000
0000
0000
0000
0000
0000
0000
0000
0000
,
3300
0000
0100
0000
0010
0000
0001
0000
2000
0000
0000
3010
0000
0000
0100
0000
,
0102
0000
0000
1003
0000
0000
1200
0000
0000
0310
0000
0000
0000
0000
0001
0000
,
2001
0000
0000
3020
0000
0000
0130
0000
0002
0000
0000
2003
0000
0000
3100
0000
,
0120
0000
0000
0032
0000
0000
1003
0000
1020
0000
0000
0000
0230
0000
0000
0000
,
0300
0000
0001
0000
1000
0000
0100
0000
0020
0000
0000
0130
0000
0000
1000
0000
,
1002
0000
0000
0203
0000
0000
0310
0000
2000
0000
0000
0000
3000
0000
0001
0000
,
0010
0000
0000
0200
0000
0000
0310
0000
0002
0000
0000
2003
0000
0000
3010
0000
,
0210
0000
0000
0302
0000
0000
1003
0000
0400
0040
0000
0000
0000
0000
0000
0000
,
0330
0000
0020
0000
0032
0000
2003
3000
,
1010
0010
0100
0002
0000
2003
0000
3000
,
0000
0100
0010
0100
1000
0001
0100
0010
,
1010
1000
0001
0020
0000
0000
0430
0000
,
0300
2000
3002
0203
,
0310
1000
0001
0200
0000
0000
0300
0000
,
0120
0000
2030
0000
3002
0000
0023
0030
,
0210
0000
2300
3000
1002
0000
0003
0000
,
0201
0000
0000
0310
0000
0000
2000
0000
0000
0000
3000
0000
0000
0000
0000
0000
,
1002
0000
0000
0013
0000
0000
0200
0000
0000
0000
0300
0000
0000
0000
0000
0000
,
2100
0000
0000
3002
0000
0000
0103
0000
0020
0000
0000
2030
0000
0000
3001
0000
,
0021
0000
0000
0230
0000
0000
1300
0000
0002
0000
0000
0000
0403
0000
0000
0000
,
0300
0000
0020
0000
2030
0000
3002
0003
,
0022
0000
0033
0000
0020
0000
0230
0300
,
2100
0000
0000
3002
0000
0000
0203
0000
0000
0000
0000
0000
0300
0000
0000
0000
,
0120
0000
0000
2030
0000
0000
3002
0000
0000
0000
0000
0000
0003
0000
0000
0000
,
0021
0000
0000
0230
0000
0000
1300
0000
0002
0000
0000
0203
0000
0000
0310
0000
,
2010
0000
0000
3002
0000
0000
0013
0000
0200
0000
0000
0000
4300
0000
0000
0000
,
3000
0000
0002
0000
0203
0000
0320
0030
,
2010
0000
3002
0003
0021
0000
0230
0300
,
2100
0000
0000
3002
0000
0000
0103
0000
0010
0000
0000
0000
1000
0000
0001
0000
,
0020
0000
0031
0000
1000
0000
0001
0020
0000
0130
0000
2000
0000
3001
0200
0000
,
0302
0000
1003
0000
0100
0000
0010
0200
0000
1300
0000
0002
0000
0103
0020
0000
,
2030
0000
3002
0000
0023
0000
0130
2000
0000
3001
0000
0200
0000
0310
2000
0000
,
3004
0040
0000
0000
0000
0000
0000
0000
0000
0000
0000
0000
0000
0000
0000
0000
,
0033
0001
1000
0010
0100
0001
1000
0100
,
0120
0000
0000
0032
0000
0000
2003
0000
0000
3000
0000
0000
0000
0000
0000
0000
,
1100
0000
0000
0100
0000
0000
0020
0000
0000
0000
0031
0000
1000
0000
0010
0000
,
0210
0000
0000
0301
0000
0000
2002
0000
0000
0000
0003
0000
3200
0000
0310
0000
,
0001
1000
0010
0100
0001
1000
0100
0010
,
0012
0000
0000
1003
0000
0000
0200
0000
0000
0000
0300
0000
0000
0000
0010
0000
,
0002
0000
0000
2003
0000
0000
3010
0000
0100
0000
0001
0000
1000
0000
0100
0000
,
0120
0000
0000
0032
0000
0000
1003
0000
2020
0000
0000
0000
0000
0000
3000
0000
,
0230
0302
2003
3200
,
0310
0100
1000
0002
0000
0203
0000
0300
,
0000
0010
1000
0001
0010
0100
0010
0001
,
1001
1000
0010
0200
0000
0000
0304
0000
,
0003
1000
0100
0010
0001
1000
0001
0010
,
0110
0100
1000
0002
0000
0003
0000
0000
,
2001
0000
3020
0000
0230
0000
0302
0003
,
2001
3200
0320
0030
,
0012
0000
0000
1003
0000
0000
0020
0000
0000
0000
0000
0000
0030
0000
0000
0000
,
0210
0000
0000
0301
0000
0000
2000
0000
0000
0000
3000
0000
0000
0000
0000
0000
,
1200
0000
0000
0320
0000
0000
0031
0000
2000
0000
0000
3020
0000
0000
0130
0000
,
0102
0000
0000
2003
0000
0000
3100
0000
0020
0000
0000
0000
0430
0000
0000
0000
,
0300
2000
3002
0203
,
0310
2000
0000
3001
0020
0000
0230
0300
,
2100
0000
0000
3001
0000
0000
0200
0000
0000
0000
0000
0000
0300
0000
0000
0000
,
0120
0000
0000
1030
0000
0000
0002
0000
0000
0000
0000
0000
0003
0000
0000
0000
,
0021
0000
0000
0230
0000
0000
1300
0000
0002
0000
0000
0203
0000
0000
0310
0000
,
2010
0000
0000
3002
0000
0000
0013
0000
0200
0000
0000
0000
4300
0000
0000
0000
,
3000
0000
0002
0000
0203
0000
0320
0030
,
2010
0000
3002
0003
0021
0000
0230
0300
,
2100
0000
0000
3002
0000
0000
0103
0000
0010
0000
0000
0000
0200
0000
0301
0000
,
2000
0000
3100
0000
0010
0000
0100
2000
0000
3001
0000
1000
0000
0010
0200
0000
,
0302
0000
1003
0000
0100
0000
0010
0002
0000
1003
0000
0020
0000
1030
0002
0000
,
0023
0000
0130
0000
1000
0000
0001
0020
0000
0130
0000
0020
0000
0031
2000
0000
,
3020
0000
0130
0000
0001
0000
1000
0200
0000
0310
0000
0200
0000
1300
0002
0000
,
1003
0020
0230
0300
0102
0000
2003
3000
,
1200
0000
0000
0320
0000
0000
0031
0000
1000
0000
0000
0000
1020
0000
0000
0000
,
0000
0230
0002
0000
0000
0000
0000
0000
,
0000
0303
0000
0000
;

//---------------dance-single - AceOfArrows (2018)----------------
#NOTES:
     dance-single:
     AceOfArrows (2018):
     Medium:
     6:
     0.437,0.134,0.000,1.000,0.164:
0000
0000
0000
0000
,
0001
0000
0010
0000
0001
0000
0000
2000
0000
0000
0000
0000
3000
0000
0000
0000
,
0010
0000
0100
0000
0010
0000
0000
2000
0000
0000
0000
0000
3000
0000
0000
0000
,
0001
0000
0100
0000
0001
0000
0000
0200
0000
0000
0000
0000
0320
0000
0000
0000
,
1030
0000
0001
0000
1000
0000
0000
0200
0000
0000
0000
0000
0300
0000
0000
0000
,
0010
0000
0100
0000
0010
0000
0000
0004
0000
0000
0000
0000
0000
0000
0003
0000
,
0000
0000
1000
0000
0020
0000
0000
0000
0230
0000
0000
0302
0000
0000
1003
0000
,
0020
0000
0000
1030
0000
0000
0002
0000
0000
0000
0003
0000
0000
0000
1000
0000
,
0200
0000
0000
0000
0000
0000
1300
0000
0002
0000
0000
2003
0000
0000
0000
0000
,
3020
0000
0000
0230
0000
0000
0301
0000
2000
0000
0000
0000
3002
0000
0000
0000
,
0003
0000
1000
0000
0200
0000
0000
0000
0320
0000
0000
0032
0000
0000
0000
0000
,
2003
0000
0000
3020
0000
0000
1030
0000
0002
0000
0000
0000
0003
0000
0010
0000
,
0200
0000
0000
0320
0000
0000
0031
0000
2000
0000
0000
3020
0000
0000
0000
0000
,
2030
0000
0000
3002
0000
0000
0013
0000
0200
0000
0000
0000
4300
0000
0000
0000
,
3000
0002
2003
3020
,
2030
0000
3001
0020
0000
0230
0000
0300
,
0000
1000
0001
0000
0200
0000
0310
1000
,
0020
0000
1030
0002
0000
0000
4003
0000
,
3000
0002
0023
0230
,
2300
0000
3001
0200
0000
0300
0000
0000
,
0020
0230
0302
2003
,
3200
2300
3002
0003
,
1000
0000
0000
0100
0000
0000
2000
0000
0000
0000
3000
0000
0000
0000
0000
0000
,
0100
0000
0000
0010
0000
0000
0200
0000
0000
0000
0300
0000
0000
0000
0000
0000
,
1000
0000
0000
2000
0000
0000
0000
0000
3001
0000
0000
0002
0000
0000
0000
0000
,
0013
0000
0000
0020
0000
0000
0000
0000
0130
0000
0000
0000
0400
0000
0000
0000
,
0300
2000
3002
0023
,
0230
0300
2000
3002
,
0013
0000
0000
0001
0000
0000
0020
0000
0000
0000
0030
0000
0000
0000
0000
0000
,
0100
0000
0000
1000
0000
0000
0200
0000
0000
0000
0300
0000
0000
0000
0000
0000
,
0010
0000
0000
0020
0000
0000
0000
0000
0031
0000
0000
0002
0000
0000
0000
0000
,
1003
0000
0000
2000
0000
0000
0000
0000
3010
0000
0000
0000
0040
0000
0000
0000
,
0030
0200
0302
2003
,
3002
0023
0230
2300
,
3004
0000
0000
0000
0003
0000
1000
0100
,
2000
3000
0002
0203
,
0310
0000
1000
0000
0020
0000
0000
0230
0000
0000
0300
0000
0000
0000
0001
0000
,
2000
0000
0000
0000
3001
0000
0000
0020
0000
0000
0000
0000
0230
0000
0000
0000
,
4300
0000
0000
0000
,
3000
0001
0020
0000
0230
0000
1300
0001
,
2000
0000
0000
3100
0000
0000
0200
0000
0000
0000
0300
0000
0000
0000
0000
0000
,
0010
0000
0000
0001
0000
0000
0020
0000
0000
0000
0000
0000
0031
0000
1000
0000
,
0002
0000
0000
0103
0000
0000
0020
0000
0000
0000
0000
0000
0030
0000
0000
0000
,
0000
1000
0002
0000
0013
0000
0001
1000
,
0002
0000
0000
0013
0000
0000
0200
0000
0000
0000
0300
0000
0000
0000
1000
0000
,
0002
0000
0000
2003
0000
0000
0000
0000
3001
0000
0100
0000
0001
0000
0000
0000
,
2000
0000
0000
3020
0000
0000
0130
0000
0002
0000
0000
0000
0003
0000
0000
0000
,
0000
2000
3002
0023
,
0032
0000
1003
0020
0000
0230
0000
0300
,
0000
0001
0100
0000
0001
1000
0002
0000
,
2003
0000
3100
0040
0000
0000
0000
0000
,
0030
0001
2000
0000
3010
0100
0020
0000
,
1030
0000
0001
0200
0000
0300
0000
0000
,
0002
2003
3200
0320
,
0032
2003
3020
0030
,
0100
0000
0000
0001
0000
0000
0200
0000
0000
0000
0300
0000
0000
0000
0000
0000
,
0001
0000
0000
1000
0000
0000
0002
0000
0000
0000
0003
0000
0000
0000
0000
0000
,
1000
0000
0000
2000
0000
0000
0000
0000
3100
0000
0000
0200
0000
0000
0000
0000
,
0310
0000
0000
0020
0000
0000
0000
0000
0031
0000
0000
0000
0004
0000
0000
0000
,
0003
2000
3002
0023
,
0230
0300
2000
3002
,
1003
0000
0000
0010
0000
0000
2000
0000
0000
0000
3000
0000
0000
0000
0000
0000
,
0001
0000
0000
0100
0000
0000
0002
0000
0000
0000
0003
0000
0000
0000
0000
0000
,
0100
0000
0000
0200
0000
0000
0000
0000
0310
0000
0000
0020
0000
0000
0000
0000
,
1030
0000
0000
2000
0000
0000
0000
0000
3010
0000
0000
0000
0040
0000
0000
0000
,
0030
0200
0302
2003
,
3002
0023
0230
2300
,
3004
0000
0000
0000
0003
0000
1000
0010
,
2000
0000
0000
0000
3002
0000
0000
0023
0000
0000
0000
0000
0030
0000
0000
0000
,
0001
0000
1000
0000
0002
0000
0000
0203
0000
0000
0000
0000
0310
0000
1000
0000
,
0020
0000
0000
0000
2030
0000
0000
3002
0000
0000
0000
0000
0023
0000
0000
0000
,
0031
0000
1000
0000
0002
0000
0000
0403
0000
0000
0000
0000
0000
0000
0000
0000
,
0300
0020
2030
3002
,
0023
0000
0030
0200
,
0000
2300
0000
0000
0000
0000
0000
0000
,
0000
3000
0000
0000
;

//---------------dance-single - AceOfArrows (2018)----------------
#NOTES:
     dance-single:
     AceOfArrows (2018):
     Easy:
     4:
     0.229,0.107,0.000,0.335,0.000:
0000
0000
0000
0000
,
1000
1000
2000
3000
,
0001
0001
0002
0003
,
0100
0100
0200
0300
,
0010
0010
0020
0030
,
0100
0100
0400
0000
,
0300
0001
0001
0000
,
1000
0000
0000
2000
0000
3000
0000
0000
,
0010
0000
0010
0000
,
0010
0000
0100
0200
,
0300
0010
0010
0000
,
1000
1000
2000
3000
,
0001
0001
0002
0003
,
0010
0010
0010
0020
,
0030
0100
0100
0100
,
0200
0000
0000
0300
,
0000
1000
1000
1000
,
2000
0000
0000
3000
,
0000
0001
0001
0001
,
0002
0000
0003
0000
,
0100
0100
0100
0100
,
0200
0000
0300
0000
,
0010
0000
0000
0020
0000
0030
0000
0000
,
1000
0000
0000
2000
0000
3000
0000
0000
,
0001
0001
0001
0001
,
0002
0000
0000
0003
,
0000
0010
0010
0010
,
0020
0030
0200
0300
,
1000
0000
0000
2000
0000
3000
0000
0000
,
0001
0000
0000
0002
0000
0003
0000
0000
,
0100
0100
0100
0100
,
0400
0000
0000
0000
,
0300
0001
0001
0001
,
0002
0003
1000
1000
,
4000
0000
3000
0010
,
0010
0010
0020
0030
,
0100
0100
0200
0300
,
0001
0001
0002
0003
,
0400
0000
0000
0000
,
0300
0010
0010
0000
,
1000
0000
0000
2000
0000
3000
0000
0000
,
0001
0000
0000
0002
0000
0003
0000
0000
,
0010
0000
0000
0020
0000
0000
0030
0000
,
0000
0100
0100
0000
,
1000
0000
0000
2000
0000
3000
0000
0000
,
0001
0001
0001
0000
,
0010
0010
0020
0030
,
0000
0100
0100
0100
,
0200
0000
0300
0000
,
0000
1000
1000
1000
,
4000
0000
0000
0000
,
3000
0010
0010
0010
,
0020
0000
0030
0000
,
0100
0100
0100
0100
,
0200
0000
0300
0000
,
0001
0000
0000
0002
0000
0003
0000
0000
,
1000
0000
0000
2000
0000
3000
0000
0000
,
0100
0100
0100
0100
,
0200
0000
0000
0300
,
0000
1000
1000
1000
,
2000
3000
0002
0003
,
0100
0000
0000
0200
0000
0300
0000
0000
,
0010
0000
0000
0020
0000
0030
0000
0000
,
1000
1000
1000
1000
,
2000
0000
0000
3000
,
0000
0001
0001
0001
,
0002
0003
0010
0010
,
0040
0000
0030
0001
,
0001
0001
0002
0003
,
1000
1000
2000
3000
,
0010
0010
0020
0030
,
0100
0100
0200
0300
,
0000
0001
0001
0001
,
0002
0000
0003
0100
,
0000
0200
0000
0000
0000
0000
0000
0000
,
0000
0300
0000
0000
;

//---------------dance-single - AceOfArrows (2018)----------------
#NOTES:
     dance-single:
     AceOfArrows (2018):
     Beginner:
     2:
     0.130,0.054,0.000,0.292,0.000:
0000
0000
0000
0000
,
0002
0000
0003
0000
,
2000
0000
3000
0000
,
2000
0000
3000
0000
,
0002
0000
0003
0000
,
0004
0000
0003
0000
,
0000
0000
1000
0000
,
2000
0000
3000
0000
,
0010
0000
0010
0000
,
0020
0000
0000
0000
,
0030
0000
0100
0000
,
0200
0000
0300
0000
,
0001
0000
0001
0000
,
0001
0000
0004
0000
,
0003
0000
1000
0000
,
2000
0000
3000
0000
,
0000
0000
0100
0000
,
0200
0000
0300
0000
,
0000
0000
0010
0000
,
0020
0000
0030
0000
,
0001
0000
0001
0000
,
0002
0000
0003
0000
,
2000
0000
3000
0000
,
2000
0000
3000
0000
,
0010
0000
0010
0000
,
0020
0000
0000
0000
,
0030
0000
0100
0000
,
0200
0000
0300
0000
,
0002
0000
0003
0000
,
0002
0000
0003
0000
,
1000
0000
1000
0000
,
2000
0000
0000
0000
,
3000
0000
0100
0000
,
0100
0000
0100
0000
,
0400
0000
0300
0000
,
2000
0000
3000
0000
,
2000
0000
3000
0000
,
0002
0000
0003
0000
,
0004
0000
0000
0000
,
0003
0000
0100
0000
,
0200
0000
0300
0000
,
0010
0000
0010
0000
,
0020
0000
0000
0000
,
0030
0000
1000
0000
,
2000
0000
3000
0000
,
0001
0000
0001
0000
,
0002
0000
0000
0000
,
0003
0000
1000
0000
,
2000
0000
3000
0000
,
0000
0000
0100
0000
,
0200
0000
0300
0000
,
0000
0000
0010
0000
,
0020
0000
0030
0000
,
0001
0000
0001
0000
,
0002
0000
0003
0000
,
0020
0000
0030
0000
,
0020
0000
0030
0000
,
0100
0000
0100
0000
,
0200
0000
0000
0000
,
0300
0000
1000
0000
,
2000
0000
3000
0000
,
0002
0000
0003
0000
,
0002
0000
0003
0000
,
0100
0000
0100
0000
,
0200
0000
0000
0000
,
0300
0000
0010
0000
,
0010
0000
0010
0000
,
0040
0000
0030
0000
,
0002
0000
0003
0000
,
0002
0000
0003
0000
,
2000
0000
3000
0000
,
4000
0000
0000
0000
,
3000
0000
0010
0000
,
0020
0000
0030
0000
,
0000
0200
0000
0000
,
0000
0300
0000
0000
;
