#TITLE:Break Out Of...;
#SUBTITLE:;
#ARTIST:Lotus Juice & Shihoko Hirata;
#TITLETRANSLIT:;
#SUBTITLETRANSLIT:;
#ARTISTTRANSLIT:;
#GENRE:;
#CREDIT:Ace Of Arrows;
#BANNER:Break Out Of - bn.png;
#BACKGROUND:Break Out Of - bg.png;
#LYRICSPATH:;
#CDTITLE:Ace Of Arrows.png;
#MUSIC:Break Out Of.ogg;
#OFFSET:1.220;
#SAMPLESTART:55.800;
#SAMPLELENGTH:12.000;
#SELECTABLE:YES;
#BPMS:0.000=175.000,264.000=87.500,272.000=175.000,288.000=87.500,296.000=175.000,472.000=87.500,504.000=175.000;
#STOPS:;
#BGCHANGES:;
#KEYSOUNDS:;

//---------------dance-single - Ace Of Arrows (2018)----------------
#NOTES:
     dance-single:
     Ace Of Arrows (2018):
     Hard:
     10:
     0.781,0.473,0.506,0.982,0.236: // measure 1
0000
0000
0000
0000
,  // measure 2
0000
0000
0000
0000
0000
0001
0010
0200
,  // measure 3
0000
1300
0001
0000
0100
0010
1000
0001
,  // measure 4
0100
0010
0100
0000
0001
1000
0100
0020
,  // measure 5
0000
0130
1000
0000
0001
0100
0010
1000
,  // measure 6
0001
0010
0100
1000
0000
0001
0000
0020
,  // measure 7
0000
0031
1000
0001
0010
0100
0010
0001
,  // measure 8
1000
0010
0100
0000
0001
1000
0100
0020
,  // measure 9
0000
0130
1000
0000
0001
0100
0010
1000
,  // measure 10
0004
0000
0000
0000
0000
0000
0003
0021
,  // measure 11
M000
0130
1000
0000
00M1
0000
0100
0000
,  // measure 12
M010
0000
1000
0000
0M01
0000
0010
0210
,  // measure 13
000M
1300
0001
0000
M100
0000
0010
0000
,  // measure 14
1M00
0000
0001
0021
M000
0130
1000
1002
,  // measure 15
00M0
0103
0010
0000
1M00
0000
0001
0000
,  // measure 16
M010
0000
0100
0000
100M
0000
0001
0201
,  // measure 17
M000
0310
1000
0000
0M01
0000
0010
0000
,  // measure 18
010M
1000
0001
0101
M000
0100
0000
0120
,  // measure 19
0000
0000
2030
0000
3001
0010
0000
0110
,  // measure 20
0000
0200
0000
0000
1300
0001
0000
0201
,  // measure 21
0000
0000
0310
1000
0001
0010
0100
0010
,  // measure 22
0002
0000
1003
0010
0000
0100
0000
0102
,  // measure 23
0000
0000
1003
0100
1000
0000
0001
0010
0001
0000
2000
0000
3200
0000
0000
0000
,  // measure 24
0310
0100
0010
0000
0002
0000
0000
0000
1003
0000
0010
0000
0110
0000
0000
0000
,  // measure 25
0100
0001
0100
0000
0020
0000
1030
0000
0002
0000
1003
0100
2000
0000
3001
0000
,  // measure 26
0200
0310
1000
0001
0010
0100
1000
1002
,  // measure 27
0000
0000
0000
0000
0103
0000
0010
0000
2000
0000
0000
3000
1001
0000
0000
0000
,  // measure 28
0001
0010
0100
1000
0000
1002
0000
0103
,  // measure 29
0010
1000
0002
0003
0021
0000
0130
1000
,  // measure 30
0002
0000
1003
1020
0000
0130
0000
0102
,  // measure 31
1003
0100
0020
0130
1000
0001
0200
0310
,  // measure 32
2000
0000
3001
0010
0001
0000
0000
0000
1000
0000
0010
0000
0200
0000
0301
0000
,  // measure 33
1000
0100
1000
0000
0001
0000
0010
0000
0001
0000
1000
0020
0000
0000
0130
0000
,  // measure 34
0001
1000
0002
0000
0013
0000
0100
0000
1000
0000
0001
0000
0000
0000
0201
0000
,  // measure 35
0000
0000
0310
0000
1000
0001
0000
0021
,  // measure 36
0000
0430
0000
0000
0300
1000
0001
0201
,  // measure 37
0000
0000
0320
0000
1030
0001
0000
0021
,  // measure 38
0000
0230
0000
2300
0000
3002
0003
0401
,  // measure 39
0000
0000
0300
0000
0000
0010
1000
0002
,  // measure 40
0000
0000
1003
0200
0000
0310
0000
0012
,  // measure 41
0000
1003
0010
0100
0001
1000
0100
0020
,  // measure 42
0000
0130
1000
0001
0100
0010
0000
2020
,  // measure 43
0000
0000
0000
3030
1000
0001
0000
0022
,  // measure 44
0000
0000
0000
0000
0033
0000
0010
0210
,  // measure 45
0000
1300
0001
0100
0010
1000
0000
1002
,  // measure 46
0000
0013
0000
0200
0000
1300
0001
0401
,  // measure 47
0000
0000
0310
0000
1000
0000
0001
0000
0010
0000
0100
1000
0200
0000
0310
0000
,  // measure 48
0001
1000
0010
0100
0001
1000
0200
0310
,  // measure 49
0100
0000
1000
0002
0000
0000
1003
0000
0010
0000
0100
0001
0200
0000
0000
0000
,  // measure 50
0320
0000
1030
0002
0000
0000
1003
0100
2000
0000
3001
0000
0100
0000
0220
0000
,  // measure 51
0000
0000
0000
0330
0010
1000
0000
2002
,  // measure 52
0000
0000
0000
0000
3003
0000
0000
0021
,  // measure 53
0000
0130
2000
0000
3001
0200
0300
0120
,  // measure 54
0000
1030
0000
1002
0000
0013
0100
4100
,  // measure 55
0000
0000
3001
0010
0001
0000
2000
0000
3010
0000
0100
0000
0101
0000
0000
0000
,  // measure 56
0001
0000
1000
0200
0000
0000
0000
0000
1300
0001
1000
0000
0010
0000
0200
0000
,  // measure 57
0000
0300
0000
0001
2000
0000
0000
3000
,  // measure 58
1002
0000
0003
0021
0000
0130
0000
2100
,  // measure 59
0000
3001
M100
0010
1010
0000
2M00
0000
,  // measure 60
3001
0010
M100
1000
0001
0100
001M
1000
,  // measure 61
0001
0000
0100
0000
0M10
0000
1000
0001
1000
0000
0100
0000
M010
0000
0001
0000
,  // measure 62
1000
0010
010M
0001
1000
0100
0M10
0001
,  // measure 63
0000
1000
001M
0200
0000
0301
1M00
0001
,  // measure 64
0010
0000
0100
0000
10M0
0000
0001
0000
0100
0010
0100
0000
00M1
0000
1000
0000
,  // measure 65
0100
0000
0010
0000
0M01
1000
0001
0000
0200
0000
0000
0000
031M
0000
1000
0000
,  // measure 66
0001
0010
0001
1000
0010
0100
0001
2001
,  // measure 67
0000
0000
3010
0000
0200
0000
0301
1000
0002
0000
0013
0200
0000
2300
3000
1002
,  // measure 68
0000
0103
0020
0030
2010
0000
3001
0010
0200
0000
1300
0002
0000
0103
0010
0200
,  // measure 69
0301
1000
0100
0010
0001
1000
0010
0100
,  // measure 70
0001
0000
1000
0010
0000
0200
0000
0000
0301
0000
1000
0000
0100
0010
0000
0000
,  // measure 71
0001
0000
1000
0000
1020
0000
0000
0000
0130
0000
0001
0000
1000
0100
0000
0000
,  // measure 72
0020
0000
0031
1000
0001
0000
0100
0000
0010
0000
1000
0000
0001
0010
0002
0000
,  // measure 73
0000
0000
1003
0000
0020
0000
1030
0001
2000
0000
3001
0200
0000
0310
0000
2010
,  // measure 74
0000
3001
0010
0001
2000
0000
3010
0200
0000
0302
0000
2003
0000
3200
0000
0320
,  // measure 75
0031
1000
0001
0000
0200
0000
0310
0000
1000
0000
0001
0000
0010
0000
0100
0000
,  // measure 76
1000
0001
0201
0000
0310
1000
0002
0013
,  // measure 77
0100
0000
1000
0002
0000
0103
0000
0000
0010
0000
1000
0000
0002
0000
0013
0000
,  // measure 78
0000
0100
1000
0001
0100
0010
1000
1002
,  // measure 79
0000
0000
0013
0000
0100
1000
0000
1002
,  // measure 80
0000
0403
0000
0300
0000
0010
0000
2010
,  // measure 81
0000
0000
3001
0010
0100
1000
0000
1002
,  // measure 82
0000
0203
0000
0310
0000
1000
0000
2002
,  // measure 83
0000
0000
3003
0000
0000
0001
0000
0021
,  // measure 84
0000
0000
0130
1000
0001
0100
0000
0110
,  // measure 85
0000
4020
0000
0000
3030
1000
0001
0010
,  // measure 86
0000
0100
1000
0000
0001
1000
0000
2200
,  // measure 87
0000
0000
0000
3300
0100
0010
0000
0024
,  // measure 88
0000
0000
0000
0000
0000
0033
0001
2001
,  // measure 89
0000
3010
0100
0001
1000
0100
0000
0120
,  // measure 90
0000
0032
0003
2001
0000
3010
0100
0104
,  // measure 91
0000
0000
1003
0000
0100
0000
0010
0000
0100
0000
1000
0001
1000
0000
0010
0000
,  // measure 92
0100
0001
1000
0100
0010
0100
1000
0001
,  // measure 93
0100
0000
0010
2000
0000
0000
3001
0000
0010
0000
0100
1000
0200
0000
0000
0000
,  // measure 94
0320
0000
0031
2000
0000
0000
3001
0100
0002
0000
1003
0000
0100
0000
0220
0000
,  // measure 95
0000
0000
0000
0330
0010
0001
0000
2002
,  // measure 96
0000
0000
0000
0000
0000
3003
0000
1020
,  // measure 97
0000
0130
0002
0000
1003
0100
0000
0120
,  // measure 98
0000
0032
0003
2001
0000
3010
0100
0004
,  // measure 99
0000
0000
1003
0010
1000
0000
0001
0000
0010
0000
0100
0000
2000
0000
0000
0000
,  // measure 100
3001
0000
0100
0020
0000
0000
0000
0000
1030
0000
0001
0000
0010
0000
0220
0000
,  // measure 101
0000
0330
0000
0100
2000
0000
3000
0000
,  // measure 102
2002
0000
3003
0201
0000
0310
0000
2010
,  // measure 103
0000
0000
3001
0010
0001
0000
1000
0000
0010
0000
0100
0000
0001
0000
1000
0000
,  // measure 104
0100
0010
0100
1000
1002
0000
0203
0000
,  // measure 105
0300
0010
1000
0001
0010
0100
1000
0001
,  // measure 106
0100
0010
1000
0001
0010
0100
2200
0000
,  // measure 107
3300
1000
0001
0100
0010
1000
0001
0010
,  // measure 108
0100
1000
0001
0100
0010
1000
0001
0010
,  // measure 109
0002
1003
0002
1003
0002
1003
0200
0310
,  // measure 110
0200
0310
0200
1300
0001
1000
0010
0210
,  // measure 111
0000
0000
0301
0000
1000
0000
0010
0100
0010
0000
1000
0001
2000
0000
3100
0000
,  // measure 112
0010
0100
1000
0001
0100
0010
2000
3001
,  // measure 113
0020
0000
0031
1000
0002
0000
0000
0000
0103
0000
0010
0000
1000
0000
0001
0000
,  // measure 114
0020
0000
0130
1000
0100
0000
0010
0000
0001
0000
1000
0000
0010
0000
0200
0000
,  // measure 115
0300
0101
0000
0001
1000
0100
0010
0100
,  // measure 116
1000
0001
0100
0010
1000
0001
0010
0100
,  // measure 117
1000
0001
0100
0010
1000
0001
0010
0000
,  // measure 118
0001
1000
0001
0000
1000
0010
1000
0000
0001
0000
0020
0000
0000
0000
0230
0000
,  // measure 119
0000
0000
1300
0000
0001
0100
0000
0120
0000
4030
0000
0000
3000
0001
0010
0210
,  // measure 120
0000
0000
2300
0000
3001
0100
0000
0120
0000
2030
0000
3002
0000
0023
0030
0420
,  // measure 121
0000
0000
0330
0000
0000
0100
1000
0002
0000
0000
1003
0020
0000
0130
0000
0102
,  // measure 122
0000
2003
0000
0000
0000
0000
0000
0000
3000
0000
0000
0000
0010
0100
0000
0102
,  // measure 123
0000
0000
2003
0000
3100
0010
0000
0012
0000
4003
0000
0000
3000
0010
0000
0210
,  // measure 124
0000
0000
0301
1000
0100
0010
0000
0012
0000
2003
0000
3010
0000
0100
0000
0202
,  // measure 125
0000
0000
0303
0000
0000
0001
1000
0200
0000
0000
0310
0100
1000
0001
0000
0201
,  // measure 126
0000
0320
0000
0000
1030
0001
0010
0200
0000
1300
0001
0000
0100
0010
0000
2020
,  // measure 127
0000
0000
0000
3030
1000
0001
0000
0402
,  // measure 128
0000
0000
0000
0000
0000
0000
0303
0120
,  // measure 129
0000
1030
0001
0010
0100
1000
0000
1002
,  // measure 130
0000
0103
0010
1010
0000
1000
0001
0021
,  // measure 131
0000
0130
1000
0001
0100
0010
1000
0001
,  // measure 132
0010
0100
0010
0001
1000
0001
0100
0020
,  // measure 133
0000
0000
1030
0000
0001
0000
0010
0000
0100
0000
1000
0002
0000
0000
0003
0000
,  // measure 134
1000
0010
1000
0000
0000
0000
0001
0000
1000
0100
0010
0100
1000
0000
2002
0000
,  // measure 135
0000
0000
0000
3003
0001
1000
0000
2200
,  // measure 136
0000
0000
0000
0000
0000
3300
0000
0120
,  // measure 137
0000
0031
2000
0000
3010
0100
0000
0102
,  // measure 138
0000
2003
3000
1200
0000
0310
0001
4001
,  // measure 139
0000
0000
3010
0100
0010
0000
1000
0000
0001
0000
0010
0000
0200
0000
0000
0000
,  // measure 140
1300
0000
0001
0020
0000
0000
0230
0000
0000
0000
1300
0000
0001
0000
0202
0000
,  // measure 141
0000
0303
0000
0100
0120
0000
0030
0000
,  // measure 142
2020
0000
3030
1002
0000
0013
0000
0210
,  // measure 143
0000
1300
0M01
0000
0100
0000
M110
0000
,  // measure 144
0010
0000
100M
0000
0001
0000
M010
0210
,  // measure 145
0000
1300
00M1
0000
1000
0000
110M
0000
,  // measure 146
0100
0000
0M10
0012
0000
1003
001M
0210
,  // measure 147
0000
0301
10M0
0000
0100
0000
M110
0000
,  // measure 148
0010
0000
0M01
0000
1000
0000
00M1
0201
,  // measure 149
0000
0310
100M
0000
0001
0000
M011
0000
,  // measure 150
0010
0100
10M0
0001
0100
0010
0M00
2010
,  // measure 151
0000
3001
M010
0000
0100
0000
110M
0000
,  // measure 152
1000
0000
0M01
0000
0100
0000
00M1
2001
,  // measure 153
0000
3100
M010
0000
0001
0000
10M1
0000
,  // measure 154
1000
0000
001M
0210
0000
0301
10M0
1200
,  // measure 155
0000
0310
0M01
0000
1000
0000
101M
0000
,  // measure 156
0010
0000
M100
0000
0001
0000
1M00
1020
,  // measure 157
0000
0130
M001
0000
1000
0000
11M0
0000
,  // measure 158
0100
0010
0001
1000
0000
0010
0000
0110
,  // measure 159
0000
2002
0000
0000
,  // measure 160
3003
0000
0000
0000
;

//---------------dance-single - Ace Of Arrows (2018)----------------
#NOTES:
     dance-single:
     Ace Of Arrows (2018):
     Challenge:
     12:
     1.000,0.710,1.000,1.000,0.376:
0000
0000
0000
0000
,
0000
0000
0000
0000
0000
0000
0000
0000
0000
0000
1000
0000
0001
0010
0001
0000
,
1000
0000
0010
0000
0200
0000
0000
0000
0310
1000
0001
1000
0010
0000
0100
0000
,
0001
0000
1000
0000
0001
0000
0010
0100
1000
0100
0010
0000
0001
0000
2000
0000
,
0000
0000
3100
0000
0010
0000
0001
1000
0100
1000
0001
0000
0100
0000
0010
0000
,
0100
0000
0001
0000
1000
0000
0001
0010
0001
0000
1000
0100
1000
0000
0002
0000
,
0000
0000
1003
0000
0010
0000
0100
0001
1000
0001
0100
0000
0010
0000
1000
0000
,
0001
0000
0010
0000
0100
0000
1000
0100
0010
0100
1000
0000
0001
0000
0200
0000
,
0000
0000
0310
0000
1000
0000
0001
0010
0100
0010
0001
0000
1000
0000
0010
0000
,
0200
0000
0301
1000
0001
0000
0020
0000
0000
0000
0130
0000
1000
0000
1002
0000
,
00M0
0103
M010
0000
101M
0000
1M00
0000
,
10M1
0000
M001
0000
0M11
0000
001M
0210
,
M000
1300
00M1
0000
M101
0000
01M0
0000
,
012M
0000
1M30
1002
M013
0100
10M0
1002
,
0M00
0103
001M
0000
1M10
0000
10M0
0000
,
1M01
0000
M001
0000
0M11
0010
010M
2100
,
00M0
3001
M100
0000
011M
0000
0M10
0000
,
10M0
0001
1000
0000
M100
0000
0010
0100
100M
0100
0010
0000
0M01
0000
2001
0000
,
0000
3010
0100
0000
0102
1003
0100
0120
,
0000
0031
2000
0000
3010
0100
0000
0102
,
0000
1003
1100
0100
0010
0001
1000
0010
,
0210
0000
0000
0000
0301
0000
1000
0000
1200
0000
0310
0001
0010
0000
0210
0000
,
1300
0100
0010
0100
2000
0000
3001
0010
0002
0000
1003
0000
0020
0000
0000
0000
,
0130
0001
0100
0000
0010
0000
1000
0001
2000
0000
3100
0000
0120
0000
0031
1000
,
0010
1000
0001
0000
0200
0000
0310
0000
2010
0000
3001
0010
0100
0000
1000
0000
,
1001
0000
0001
0000
0100
0000
0010
0000
1010
0000
1000
0001
0010
0000
0210
0000
,
1300
0001
0011
0010
0100
1000
1001
0001
,
0100
0010
1010
1000
0000
1000
1100
0100
,
0120
0031
1000
0010
0100
0001
1001
1000
,
1020
0000
0130
0000
0001
0000
1001
0000
1000
0000
0100
0010
0001
0000
2001
0000
,
3010
0100
0102
1003
0100
0010
0012
1003
,
1020
0000
0130
0001
1000
0000
0000
0000
0100
0000
0010
0000
0012
0000
1003
0000
,
0010
0100
0001
0000
1000
0000
0100
0000
0110
0000
0010
0002
0000
1003
0000
0000
,
0010
0100
0020
0000
1030
0000
0001
0000
0010
0000
0001
1000
0100
0000
0120
0000
,
0000
0031
1001
0000
1000
0010
0100
0102
,
0000
2003
0100
0000
3001
0010
0100
2100
,
0000
3001
0101
0000
0110
0010
0000
2010
,
0000
0000
3001
0000
0010
0000
0210
0000
0000
0000
1300
0001
0100
0000
0140
0000
,
0000
1030
1001
0000
0001
0010
0100
2100
,
0000
3001
0101
0200
0000
0310
0000
2010
,
0000
3001
0010
0100
1000
0001
0100
0020
,
0000
0000
1030
0000
1001
0000
0001
0010
0100
0000
1000
0000
0000
0000
2002
0000
,
3000
0103
0010
0000
1000
0001
0000
0022
,
0003
0130
1100
0000
1000
0001
0100
0120
,
0000
1030
1001
0001
0011
0010
0000
0210
,
0000
0000
1300
0000
0000
0000
1002
0000
0000
0000
0103
0010
1000
0000
1004
0000
,
0000
0000
0013
0000
0100
0000
1000
0000
1001
0000
0001
0100
0010
0000
1000
0000
,
1001
0001
0010
0100
1100
1000
1001
0001
,
0200
0000
0310
2000
0000
0000
3001
0000
0010
0000
0100
0010
0002
0000
0003
0000
,
2001
0000
3010
0100
0002
0000
1003
0100
0010
0100
1000
0000
0001
0000
0202
0000
,
0003
0310
1010
0000
1000
0001
0000
0022
,
0003
0130
1100
1000
0001
0100
0010
2010
,
0000
3001
0101
0000
0110
0010
0000
1010
,
0000
1000
0000
1002
0000
0013
0100
4100
,
0000
0000
3001
0100
0001
0000
1000
0000
1100
0000
0100
0000
0110
0000
0000
0000
,
0011
0000
0001
2000
0000
0000
3010
0000
0100
0001
1000
0000
0100
0000
0020
0000
,
0000
0031
1001
1000
2020
0000
3030
0000
,
0210
0301
1000
1200
0000
0310
0001
2001
,
3000
0000
0010
0100
M001
0000
1000
0000
01M0
0000
0000
0000
012M
0000
0000
0000
,
0M31
1000
101M
0010
M100
0001
10M1
2000
,
3M01
0010
0100
0000
20M0
0000
3001
0100
001M
0000
1000
0000
1M01
0000
0002
0000
,
M013
0000
0110
0000
010M
0000
1100
0000
10M0
0001
0100
0000
M010
0000
2010
0000
,
00M0
0000
3001
0000
0M10
0000
0200
0000
030M
0000
1000
0001
1M00
0000
0010
0000
,
011M
0000
0100
0000
M101
0000
0001
0000
10M0
0100
0010
0000
0M12
0000
1003
0000
,
001M
0000
0100
0000
00M1
1000
0100
0000
M020
0000
0000
0000
0M31
0000
1000
0000
,
101M
0000
0010
0100
M001
0000
1000
0000
010M
0010
0001
0000
1000
0000
1020
0000
,
0000
0000
0230
0000
0302
0000
1003
0100
0120
0000
0031
2000
0000
3020
0030
0210
,
0000
0000
0301
0000
2000
0000
0000
0000
3200
0000
0000
0000
0310
0000
0100
0000
2000
0000
0000
0000
3001
0000
0100
0000
0001
0000
1000
0100
1000
0000
1002
0000
,
0000
0000
0013
0100
1000
0000
0001
0000
0100
0000
0010
0000
2010
0000
3001
0000
,
0010
0000
0100
1000
0000
0002
0000
0003
1001
0000
1000
0000
0010
0200
0000
0300
,
0101
0000
0001
0000
2001
0000
0000
3000
1100
0000
0100
0000
0010
0001
0000
0000
,
1001
0000
1000
0010
0100
0000
0001
0000
1000
0000
0100
0010
0001
1000
0020
0000
,
0000
0000
0130
0000
0102
0000
1003
0100
0120
0000
0031
2001
0000
3010
0000
0210
,
0000
0000
0301
0000
1000
0000
0100
0000
0110
0000
0000
0000
0010
0000
0012
0000
0000
0000
1003
0010
1000
0000
0001
0000
0010
0100
0010
0000
0001
0000
2001
0000
,
3100
0010
0002
0000
2003
0000
3010
0000
0100
0000
0001
1000
0002
0000
0013
0000
,
0110
0100
2100
3000
1001
0001
0201
0310
,
2010
0000
3001
0020
0000
0000
0130
0000
1000
0000
0001
0000
0201
0000
0310
0000
,
0000
0000
1000
0000
1001
0000
0001
0000
0010
0000
0100
1000
0001
0000
0201
0000
,
0000
0310
1010
0000
1000
0001
0010
0210
,
0000
1300
1001
0000
0001
0100
0110
0020
,
0000
1030
1001
0001
0011
0010
0000
0210
,
0000
0000
1300
0000
0001
0000
0100
0000
0120
0000
1030
0001
0010
0000
0210
0000
,
0000
1300
1001
0000
0000
0001
0101
0200
,
0000
0310
1010
1000
0001
0011
0000
0110
,
0000
4100
0000
3001
0100
0010
1000
1001
,
0000
0000
0001
0000
0101
0000
0100
0000
0110
0000
0010
1000
0001
0000
0022
0000
,
0003
0130
1100
0000
1000
0001
0100
0220
,
0300
1030
1001
0001
0100
0010
1010
2000
,
0000
3001
0011
0010
0110
0200
0300
1100
,
0000
0000
1000
0000
1001
0000
0002
0000
0103
0000
0010
1000
0001
0000
0041
0000
,
0000
0000
0130
0000
1000
0000
0001
0000
0101
0000
0100
0010
1000
0000
0001
0000
,
0011
0010
0100
1000
1001
0001
0201
0310
,
2010
0000
3001
0020
0000
0000
0130
0000
1100
0000
1000
0001
0200
0000
0300
0000
,
0110
0000
0010
2000
0000
0000
3001
0010
0100
0000
1000
0001
1000
0000
2200
0000
,
3000
0310
0011
0000
0001
1000
0001
0202
,
0003
0310
1010
1000
0001
0010
0100
2200
,
0300
0000
3001
0000
0201
0000
0000
0300
0110
0000
0020
0000
0000
0030
1010
0000
,
0000
0000
2000
0000
0000
3000
1001
0000
0001
0000
0010
0000
0100
0000
4100
0000
,
0000
0000
3001
0010
0100
0000
1000
0000
1001
0000
0001
0000
0201
0000
0300
0000
,
0110
0000
0010
2000
0000
0000
3001
0000
0010
0000
0001
0000
1000
0000
2020
0000
,
3000
0130
0101
0001
2001
3100
0010
0001
,
2001
3010
0100
0102
1003
0100
0110
0020
,
0000
0000
0031
0000
1000
0001
0200
0000
0310
0000
1000
0000
0001
0000
0100
0000
,
0020
1030
0001
0010
0220
0330
2200
3300
,
0000
1000
0001
0100
0110
0010
1000
0001
,
0010
0000
0110
0000
0100
0000
1000
0000
0001
0000
0100
0010
1000
0000
2002
0000
,
3000
0013
0100
1000
1002
0103
0010
1000
,
1001
0001
0021
0130
1100
1000
0001
0100
,
0120
1030
1002
0103
0102
1003
0200
0310
,
0200
0000
1300
0000
0200
0000
0310
0000
0001
0000
1000
0001
0010
0000
0210
0000
,
0000
0000
1300
0000
0002
0000
1003
0010
0100
0000
0001
0000
1000
0000
1200
0000
,
0310
0001
1001
1000
1020
0130
0102
1003
,
1200
0000
0310
0001
2000
0000
3000
0000
1001
0000
0001
0000
0021
0000
0130
0000
,
2000
0000
3001
0100
0020
0000
1030
0000
0001
0000
0010
0000
0210
0000
2300
0000
,
3000
1001
0000
0001
0100
0010
1000
0001
,
0010
0110
0100
1100
1000
1001
0002
0103
,
0110
0010
1010
1000
1001
0001
0011
0020
,
0130
1000
0002
0000
1003
0010
0100
0000
0002
0000
1003
0000
0000
0000
1200
0000
,
0000
0000
0310
0000
0001
1000
0000
1020
0000
0430
0000
0000
0300
0001
1000
1200
,
0000
0000
0320
0000
0031
1000
0000
1020
0000
0230
0000
0302
0000
2003
3000
2400
,
0000
0000
3300
0000
0000
0100
0010
0002
0000
0000
1003
0020
0000
0130
0000
0102
,
0000
2003
0000
3100
0010
0002
0000
2003
0000
3020
0000
0030
0100
0002
0003
2001
,
0000
0000
3200
0000
0310
0001
1000
1020
0000
0430
0000
0000
0300
0001
1000
1200
,
0000
0000
0000
0000
0310
0000
0001
0000
1000
0000
0010
0000
0000
0000
0210
0000
0000
0000
0302
0000
0000
0000
2003
0000
3100
0000
0010
0001
0010
0000
0210
0000
,
0000
0000
0300
0000
0000
1000
0001
0201
0000
0000
0310
1000
0001
0010
0100
2100
,
0000
0000
3001
0000
0100
0000
0010
0000
1000
0000
0002
0000
0013
0000
0200
0000
0000
0000
1300
0000
1001
0000
0001
0000
0100
0000
0010
0100
0010
0000
2020
0000
,
0030
3001
0011
0000
0010
0100
1000
2002
,
3000
0103
0110
0010
1000
0001
0011
0020
,
0000
0130
1100
1000
1001
0001
0000
0101
,
0000
0000
0200
0000
0310
0000
1010
0000
0000
0000
1000
0001
0010
0000
0210
0000
,
0000
1300
1001
0001
0100
0010
2010
3001
,
0011
0010
0110
0100
1100
1000
1002
0103
,
0010
0000
1000
0000
1001
0000
0001
0000
0011
0000
0010
0200
0000
0000
1300
0000
,
0001
0100
0010
0000
0000
0000
1000
0000
0001
0010
0100
0010
0001
0000
2002
0000
,
0003
3010
0110
0000
0100
0001
0000
2002
,
0003
3100
0110
0010
0001
1000
0010
0220
,
0030
0000
0301
0000
2000
0000
0000
3000
1100
0000
0200
0000
0000
0300
0120
0000
,
0000
0031
1000
1010
0010
0100
0001
4001
,
0000
0000
3100
0010
0001
0000
1000
0000
1010
0000
0010
0000
0210
0000
0300
0000
,
0101
0000
0001
2000
0000
0000
3100
0000
0010
0000
0001
0000
1000
0000
2020
0000
,
3000
0130
0101
0001
2001
3100
0010
0001
,
1000
0010
0100
0000
0001
0000
2001
0000
3100
0010
0001
0010
0100
0000
2200
0000
,
0300
3001
01M0
0000
M110
0000
001M
0000
,
1M10
0000
10M0
0000
1M01
0000
M001
0021
,
000M
0130
10M0
0000
1M01
0000
M001
0000
,
01M1
0000
0000
0000
010M
0000
0010
0000
0M00
0000
1000
0001
M010
0000
0210
0000
,
00M0
1300
0M01
0000
M101
0000
010M
0000
,
M110
0000
0M10
0000
101M
0000
1M00
1002
,
M000
0013
010M
0000
11M0
0000
1M00
0000
,
M001
0100
0010
0000
1M00
0000
0001
0010
010M
0000
1000
0000
0M01
0000
0201
0000
,
M000
0310
100M
0000
1M01
0000
M001
0000
,
0M11
0000
001M
0000
M110
0000
01M0
2100
,
0M00
3001
M100
0000
011M
0000
M010
0000
,
1M10
0000
0000
0000
10M0
0000
1002
0000
0M00
0000
0013
0100
100M
0000
1002
0000
,
00M0
0103
M010
0000
1M10
0000
100M
0000
,
1M01
0000
00M1
0000
M011
0000
001M
0210
,
00M0
1300
0M01
0000
M101
0000
01M0
0000
,
012M
0000
1030
0001
0M10
0000
0210
0000
13M0
0001
0100
0000
0010
0000
1010
0000
,
0000
0202
0000
0000
,
0303
0000
0000
0000
;

//---------------dance-single - Ace Of Arrows (2018)----------------
#NOTES:
     dance-single:
     Ace Of Arrows (2018):
     Medium:
     8:
     0.630,0.473,0.000,0.723,0.155:
0000
0000
0000
0000
,
0000
0000
0000
0000
0000
0000
0000
2000
,
0000
3001
0010
0000
0001
1000
0100
1000
,
0001
1000
0100
0000
1000
0001
0010
0200
,
0000
1300
0001
0000
1000
0010
0100
0001
,
0100
0010
1000
0001
0000
1000
0000
0200
,
0000
0310
0001
0000
1000
0100
0010
0001
,
0010
0100
1000
0000
0001
0100
0010
0200
,
0000
0301
1000
0000
0001
0010
0100
0010
,
0004
0000
0000
0000
0000
0000
0003
2000
,
0000
3001
0010
0000
0100
0000
1000
0000
,
0001
0000
0100
0000
0010
0000
1000
0002
,
0000
0013
0100
0000
1000
0000
0001
0000
,
0100
0000
0010
2000
0000
3001
0010
0002
,
0000
1003
0010
0000
0100
0000
0001
0000
,
1000
0000
0001
0000
0010
0000
0100
2000
,
0000
3001
0100
0000
0010
0000
1000
0000
,
0001
0100
0001
2000
0000
3100
0000
0020
,
0000
0000
0032
0000
1003
0010
0000
1000
,
0000
0002
0000
0000
1003
0100
0000
0020
,
0000
0000
0031
1000
0001
0100
0010
1000
,
0002
0000
1003
0200
0000
0310
0000
0001
,
1000
0001
0020
0000
0031
1000
0002
0000
,
1003
0010
2000
0000
3001
1000
0002
0000
,
0013
0100
0020
0000
0031
1000
0001
0000
,
1000
0010
0100
0001
0100
0010
1000
0002
,
0000
0000
1003
0100
2000
0000
3001
0000
,
1000
0010
1000
0001
0000
2000
0000
3001
,
0010
0100
0020
0000
0031
0000
1000
0010
,
2000
0000
3001
0020
0000
0130
0000
1000
,
0100
0010
0001
0010
0100
1000
0001
1000
,
0001
0100
0001
0000
1000
0100
0010
0100
,
1000
0000
0001
0000
1000
0000
0010
0000
1000
0000
0001
0020
0000
0000
0130
0000
,
1000
0001
1000
0010
1000
0001
0000
0020
,
0000
0000
0130
0000
1000
0001
0000
0010
,
0000
0400
0000
0000
0300
1000
0001
2000
,
0000
0000
3200
0000
0310
0001
0000
2000
,
0000
3002
0000
0203
0000
0310
0000
4000
,
0000
0000
3000
0000
0000
0001
0100
0002
,
0000
0000
1003
0020
0000
1030
0000
0001
,
0000
0400
0000
0000
0000
0000
0300
0002
,
0000
0003
0000
0000
0000
1000
0000
0020
,
0000
0000
0000
0000
1030
0001
0000
0020
,
0000
0000
0000
0000
0030
0000
0100
2000
,
0000
3001
0100
0010
0100
0001
0000
1000
,
0000
0002
0000
0023
0000
0130
1000
0200
,
0000
1300
0001
0100
0001
1000
0002
0000
,
1003
0100
0010
0001
0010
0100
2000
0000
,
3001
0000
0010
0200
0000
0000
1300
0000
0001
0000
1000
0000
0020
0000
0000
0000
,
1030
0000
0001
0020
0000
0000
0130
0000
1000
0000
0001
0000
1000
0000
0020
0000
,
0000
0000
0000
0000
1030
0001
0000
0020
,
0000
0000
0000
0000
0030
0000
0000
0200
,
0000
1300
0002
0000
1003
0010
0000
2000
,
0000
3001
0000
0020
0000
0031
1000
0002
,
0000
1003
0100
0010
0001
0010
0200
0000
,
1300
0000
0001
0200
0000
0000
0000
0000
0310
0000
1000
0000
0001
0000
2000
0000
,
0000
0000
3000
0010
0200
0000
0000
0300
,
0002
0000
0000
2003
0000
3100
0000
0020
,
0000
0031
1000
0001
0100
0000
0020
0000
,
1030
0001
0010
0001
1000
0001
0010
0100
,
1000
0001
1000
0010
1000
0001
0010
0100
,
1000
0001
1000
0010
0100
0001
0100
0010
,
0000
1000
0001
0010
0100
1000
0100
0010
,
0001
1000
0001
0100
0010
1000
0001
0010
,
0100
1000
0001
1000
0020
0000
1030
0001
,
0100
0010
0100
0001
1000
0001
0010
0200
,
0000
0000
1300
0000
0001
0000
0010
0100
0020
0000
0031
2000
0000
3001
0000
0200
,
0000
0301
2000
0000
3100
0000
0010
0100
0020
0000
0000
0032
0000
1003
0100
2000
,
0000
3001
0010
0001
1000
0010
0100
0010
,
1000
0000
0001
0010
0000
0002
0000
0000
1003
0000
0001
0000
0010
0200
0000
0000
,
1300
0000
0001
0000
2000
0000
0000
0000
3001
0000
0010
0000
0100
1000
0000
0000
,
0001
0010
0001
1000
0001
1000
0100
0020
,
0000
0000
0031
0000
2000
0000
3001
0010
0002
0000
1003
0020
0000
0130
0000
0002
,
0000
1003
0100
1000
0200
0000
0310
0002
0000
1003
0000
0020
0000
0000
0000
0230
,
0000
0301
1000
0001
0010
0100
2000
0000
,
3001
0100
0002
0000
1003
0100
0010
0100
,
1000
0000
0001
0020
0000
0130
0000
0000
0010
0000
0001
0000
1000
0000
0001
0000
,
0000
1000
0010
0100
0001
0100
0010
2000
,
0000
0000
3001
0000
0010
0100
0000
1000
,
0000
0004
0000
0003
0000
1000
0000
0020
,
0000
0000
1030
0001
1000
0100
0000
0020
,
0000
0130
0000
1000
0000
0001
0000
0020
,
0000
0000
0030
0000
0000
0100
0000
2000
,
0000
0000
3001
1000
0010
1000
0000
0001
,
0000
0400
0000
0000
0000
0300
0000
0000
,
0000
0000
0000
0000
0000
0010
0000
2000
,
0000
0000
0000
0000
3001
0010
0000
0400
,
0000
0000
0000
0000
0000
0300
1000
0002
,
0000
1003
0010
1000
0001
0010
0000
0200
,
0000
1300
0000
0002
0000
1003
0010
4000
,
0000
3001
0010
0100
1000
0100
0020
0000
,
0031
1000
0100
1000
0001
1000
0200
0000
,
1300
0000
0001
0020
0000
0000
0130
0000
1000
0000
0001
0000
2000
0000
0000
0000
,
3001
0000
0100
0020
0000
0000
1030
0000
0001
0000
0010
0000
0001
0000
2000
0000
,
0000
0000
0000
0000
3010
0100
0000
0002
,
0000
0000
0000
0000
0000
0003
0000
2000
,
0000
3100
0020
0000
0031
1000
0000
0020
,
0000
1030
0000
0002
0000
0013
0100
4000
,
0000
3001
0100
0001
1000
0100
2000
0000
,
3001
0000
0010
0200
0000
0000
0000
0000
1300
0000
0001
0000
0100
0000
0002
0000
,
0000
0000
0003
1000
0020
0000
0000
0030
,
0200
0000
0000
0302
0000
1003
0000
0200
,
0000
0310
0001
1000
0001
0100
0010
1000
,
0001
0010
0100
1000
0002
0000
0203
0000
,
0300
0010
1000
0001
0010
0100
1000
0100
,
0010
0001
1000
0001
0100
0010
2000
0000
,
3000
0001
0010
0100
1000
0100
0010
0001
,
1000
0001
0100
0010
1000
0010
0100
0001
,
2000
3001
2000
3001
2000
3001
0200
0310
,
0200
0310
0200
0301
1000
0100
0020
0000
,
0030
0001
1000
0010
1000
0001
0010
0001
,
1000
0100
1000
0001
0100
0001
1000
0100
,
0010
0100
2000
0000
3001
0100
0010
0100
,
0001
1000
0001
0010
0100
1000
0100
0010
,
0000
0001
0000
1000
0010
0100
0001
0100
,
0010
1000
0001
1000
0100
0010
0001
0010
,
0100
1000
0001
1000
0010
0100
0001
0000
,
1000
0100
0010
0100
1000
0001
0000
2000
,
0000
0000
3100
0000
0010
0001
0000
2000
0000
3040
0000
0000
0030
0100
0010
0200
,
0000
0000
0302
0000
1003
0100
0000
0020
0000
0230
0000
2300
0000
3002
0000
0403
,
0000
0000
0300
0000
0000
0001
1000
0002
0000
0000
0013
0200
0000
1300
0000
0001
,
0000
0020
0000
0000
0000
0000
0000
0000
0030
0000
0000
0000
0100
1000
0000
0002
,
0000
0000
1003
0000
0010
0100
0000
0001
0000
4000
0000
0000
3000
0001
0000
0020
,
0000
0000
0130
1000
0100
1000
0000
0002
0000
1003
0000
0010
0000
0100
0000
0002
,
0000
0000
0003
0000
0000
1000
0100
2000
0000
0000
3001
0010
0001
0010
0000
0100
,
0000
4000
0000
0000
0000
0000
3001
0000
0000
0000
0000
0000
0000
0100
0000
0020
,
0000
0000
0000
0000
1030
0001
0000
0040
,
0000
0000
0000
0000
0000
0000
0030
0200
,
0000
1300
0001
1000
0010
1000
0000
0002
,
0000
1003
0100
1000
0000
0001
1000
0002
,
0000
1003
0010
0100
0001
0100
0010
1000
,
0001
1000
0001
0010
0100
1000
0002
0000
,
0000
0000
1003
0000
0100
0000
0010
0000
0001
0000
0010
0200
0000
0000
0000
0000
,
1300
0001
0000
1000
0010
0100
0010
2000
,
0000
0000
0000
0000
3001
0100
0000
0020
,
0000
0000
0000
0000
0000
0030
0000
2000
,
0000
3001
0020
0000
0130
1000
0000
0002
,
0000
1003
0000
0020
0000
0130
0001
4000
,
0000
3001
0010
0100
0010
0001
2000
0000
,
3001
0000
1000
0200
0000
0000
0000
0000
0310
0000
0001
0000
1000
0000
0002
0000
,
0000
0000
0003
1000
0020
0000
0000
0030
,
2000
0000
0000
3002
0000
0013
0000
0200
,
0000
1300
0001
0000
1000
0000
0010
0000
,
0100
0000
0001
0000
1000
0000
0010
0200
,
0000
0301
1000
0000
0100
0000
0010
0000
,
0001
0000
1000
0010
0100
0001
0100
0020
,
0000
1030
0001
0000
0010
0000
0100
0000
,
1000
0000
0100
0000
0010
0000
0001
2000
,
0000
3001
0100
0000
0010
0000
1000
0000
,
0001
0010
0100
1000
0100
0010
0000
0002
,
0000
1003
0010
0000
0100
0000
0001
0000
,
0100
0000
0010
0000
1000
0000
0001
0020
,
0000
0130
1000
0000
0001
0000
0100
0000
,
0010
0000
1000
0002
0000
1003
0100
0020
,
0000
0130
1000
0000
0001
0000
1000
0000
,
0010
0000
0100
0000
0001
0000
1000
0200
,
0000
0310
0001
0000
1000
0000
0001
0000
,
1000
0100
0010
0002
0000
1003
0000
0010
,
0000
0200
0000
0000
,
0300
0000
0000
0000
;

//---------------dance-single - Ace Of Arrows (2018)----------------
#NOTES:
     dance-single:
     Ace Of Arrows (2018):
     Easy:
     5:
     0.437,0.237,0.000,0.506,0.102:
0000
0000
0000
0000
,
0000
0000
0000
0000
0000
0000
0000
0002
,
0000
1003
1000
0000
,
0001
0000
0010
0000
0001
0000
0000
2000
,
0000
3100
0100
0000
,
1000
0000
0001
0000
1000
0000
0000
0020
,
0000
0130
0100
0000
,
0001
0000
1000
0000
0001
0000
0000
0020
,
0000
0130
0100
0000
,
4000
0000
0000
0000
3000
0000
0000
0002
,
0000
1003
0100
0000
1000
0000
0001
0000
,
1000
0000
0010
0000
1000
0000
0001
0020
,
0000
0031
1000
0000
0010
0000
1000
0000
,
0001
0000
1000
0200
0000
0310
0000
0002
,
0000
1003
0010
0000
1000
0000
0001
0000
,
0010
0000
0001
0000
1000
0000
0010
0200
,
0000
0310
1000
0000
0001
0000
0010
0000
,
0200
0000
1300
0001
0000
1000
0000
0020
,
0000
0000
1030
0000
0001
0010
0000
0001
,
0000
2000
0000
0000
3001
0010
0000
0200
,
0000
1300
0001
1000
,
0020
0000
0130
0002
0000
2003
0000
0000
,
3010
1000
0001
0010
,
0001
1000
0100
0010
,
0100
1000
0001
0100
,
0010
0000
1000
0000
0001
0000
0000
0200
,
0000
0310
1000
0001
,
0010
0000
0000
0001
0000
2000
0000
0000
,
3010
0100
0020
1030
,
0001
0000
0000
1000
0000
0200
0000
0000
,
1300
0001
0100
0010
,
0100
0001
1000
0100
,
0010
0100
1000
0001
,
1000
0000
0010
0000
0100
0001
0000
2000
,
0000
0000
3100
0000
0010
0100
0000
1000
,
0000
0004
0000
0000
0003
1000
0000
0020
,
0000
0000
2030
0000
3001
0010
0000
0002
,
0000
1003
0000
0010
0000
1000
0000
0004
,
0000
0000
0003
0000
0000
1000
0000
0020
,
0000
0000
0130
0002
0000
1003
0000
0001
,
0000
0400
0000
0000
0000
0000
0300
0020
,
0000
0030
0000
0000
0000
1000
0000
0002
,
0000
0000
0000
0000
1003
0100
0000
0020
,
0000
0000
0000
0000
0030
0000
0000
0002
,
0000
1003
0010
0000
1000
0001
0000
0020
,
0000
0031
0000
2000
0000
0000
3001
0400
,
0000
0310
1000
0001
,
0010
0001
1000
0010
,
0100
0001
1000
0100
,
0010
0000
0100
0000
1000
0001
0000
0020
,
0000
0000
0000
0000
0130
1000
0000
0002
,
0000
0000
0000
0000
0003
0000
0000
2000
,
0000
3001
0100
0000
0010
1000
0000
0002
,
0000
1003
0000
0200
0000
0000
0310
0004
,
0000
1003
0100
0010
,
0100
0000
1000
0000
0001
0000
1000
0020
,
0000
0030
0000
1000
0002
0000
0003
0000
,
2000
0000
0000
3002
0000
0013
0000
0200
,
0000
1300
0001
0100
,
0010
1000
0001
0010
,
0100
1000
0100
0010
,
0001
1000
0010
0100
,
0000
0001
0000
1000
,
0100
0010
0001
0010
,
0100
1000
0001
0100
,
0010
0000
1000
0000
0001
0000
0010
0200
,
0000
0000
1300
0000
1000
0000
0000
0000
0001
0000
0000
0002
0000
0003
0000
0010
,
0000
0000
0010
0000
0010
0000
0000
0000
0200
0000
0000
2300
0000
0000
0000
3002
,
0000
1003
0010
0100
,
0010
1000
0001
0010
,
0100
1000
0001
0100
,
0010
0000
1000
0000
0001
0000
1000
0020
,
0000
0000
0130
0000
0100
0000
0000
0000
0001
0000
0000
0002
0000
0003
0000
2000
,
0000
0000
3100
0000
0100
0000
0000
0020
0000
0031
0000
0002
0000
0000
0000
2003
,
0000
3010
0100
0001
,
1000
0001
0010
0100
,
1000
0001
0100
0010
,
0000
0000
1000
0000
0001
0010
0000
0200
,
0000
0000
1300
0000
0001
1000
0000
0010
,
0000
0400
0000
0300
0000
0001
0000
2000
,
0000
0000
3001
0000
0010
0100
0000
2000
,
0000
3001
0000
1000
0000
0100
0000
0020
,
0000
0000
0030
0000
0000
0100
0000
2000
,
0000
0000
3001
0100
0000
0010
0000
1000
,
0000
0004
0000
0000
0000
0003
0000
0000
,
0000
0000
0000
0000
0000
1000
0000
0020
,
0000
0000
0000
0000
0130
0001
0000
4000
,
0000
0000
0000
0000
0000
3000
0000
0002
,
0000
0013
0100
0000
1000
0100
0000
0020
,
0000
0031
0000
2000
0000
0000
3001
0400
,
0000
0310
1000
0001
,
0010
0100
1000
0001
,
0100
0010
1000
0001
,
0010
0000
0100
0000
1000
0001
0000
0200
,
0000
0000
0000
0000
0310
1000
0000
0002
,
0000
0000
0000
0000
0000
0003
0000
2000
,
0000
3001
0010
0000
0001
1000
0000
0020
,
0000
1030
0000
0002
0000
0000
0013
0400
,
0000
1300
0001
0100
,
0010
0000
1000
0000
0002
0000
1003
0200
,
0000
0000
0300
0010
0002
0000
0003
0000
,
2000
0000
0000
3020
0000
0130
0000
0002
,
0000
1003
0100
0010
,
0100
1000
0002
2003
,
3000
0100
0010
0001
,
1000
0001
0100
0020
,
0030
0100
0001
1000
,
0100
0010
0100
1000
,
0001
0001
0001
0100
,
0100
0100
0010
0010
,
0000
1000
0001
0010
,
0001
1000
0010
1000
,
0001
0100
0001
1000
,
0100
1000
0001
1000
,
0000
0001
0000
0000
0010
0000
0100
0000
,
1000
0100
0010
0001
,
1000
0010
0100
0001
,
1000
0000
0001
0000
0100
0010
0000
2000
,
0000
0000
3001
0000
0010
0100
0000
1000
0000
0004
0000
0000
0003
1000
0000
0200
,
0000
0000
0320
0000
0031
0010
0000
0200
0000
2300
0000
3002
0000
2003
0000
3040
,
0000
0000
0030
0000
0000
1000
0000
0002
0000
0000
0013
0200
0000
1300
0000
0001
,
0000
0020
0000
0000
0000
0000
0000
0000
0030
0000
0000
0000
0001
1000
0000
0020
,
0000
0000
1030
0000
0001
0010
0000
0100
0000
4000
0000
0000
3000
0001
0000
0200
,
0000
0000
0301
0000
1000
0100
0000
0020
0000
0130
0000
1000
0000
0001
0000
2000
,
0000
0000
3000
0000
0000
0001
0000
0200
0000
0000
0301
2000
0000
3001
0000
0010
,
0000
0400
0000
0000
0000
0000
1300
0000
0000
0000
0000
0000
0000
0001
0000
0020
,
0000
0000
0000
0000
0130
1000
0000
0004
,
0000
0000
0000
0000
0000
0000
0003
2000
,
0000
3001
0100
0000
0010
0100
0000
0002
,
0000
1003
0000
0200
0000
0000
0310
0002
,
0000
1003
0010
1000
,
0001
0010
0100
1000
,
0000
0001
1000
0010
,
0100
0000
0001
0000
1000
0100
0000
0020
,
0000
0000
0000
0000
0130
1000
0000
0002
,
0000
0000
0000
0000
0000
0003
0000
2000
,
0000
3001
0010
0000
0001
1000
0000
0020
,
0000
1030
0000
0002
0000
0000
0013
0400
,
0000
1300
0001
1000
,
0010
0000
0100
0000
0002
0000
1003
0020
,
0000
0000
0030
1000
0002
0000
0003
0000
,
0020
0000
0000
0230
0000
1300
0000
0002
,
0000
1003
0010
0000
1000
0000
0001
0000
,
0010
0000
0100
0000
1000
0000
0100
0020
,
0000
0031
1000
0000
0010
0000
1000
0000
,
0001
0000
0010
0100
0000
1000
0000
0002
,
0000
1003
0010
0000
0100
0000
0001
0000
,
0100
0000
0010
0000
1000
0000
0001
0200
,
0000
0301
1000
0000
0100
0000
0010
0000
,
0002
0000
1003
0010
0000
0100
0000
0020
,
0000
1030
0001
0000
0010
0000
0100
0000
,
1000
0000
0100
0000
0010
0000
0001
2000
,
0000
3010
0100
0000
0001
0000
1000
0000
,
0001
0000
0010
0200
0000
0000
0310
0002
,
0000
1003
0010
0000
1000
0000
0001
0000
,
0010
0000
0100
0000
1000
0000
0001
0200
,
0000
0310
1000
0000
0001
0000
0010
0000
,
0002
0000
1003
0010
0000
0100
0000
0010
,
0000
2000
0000
0000
,
3000
0000
0000
0000
;

//---------------dance-single - Ace Of Arrows (2018)----------------
#NOTES:
     dance-single:
     Ace Of Arrows (2018):
     Beginner:
     2:
     0.185,0.101,0.000,0.285,0.000:
0000
0000
0000
0000
,
0000
0000
0000
0000
,
1000
0000
1000
0000
,
1000
0000
0000
0000
,
0001
0000
0001
0000
,
0001
0000
0000
0000
,
0010
0000
0010
0000
,
0010
0000
0000
0000
,
0100
0000
0100
0000
,
0400
0000
0300
0000
,
1000
0000
1000
0000
,
2000
0000
3000
0000
,
0001
0000
0001
0000
,
0002
0000
0003
0000
,
0100
0000
0100
0000
,
0200
0000
0300
0000
,
0010
0000
0010
0000
,
0020
0000
0030
0000
,
1000
0000
1000
0000
,
1000
0000
0000
0000
,
0001
0000
0001
0000
,
0002
0000
0003
0000
,
0010
0000
0010
0000
,
0020
0000
0030
0000
,
0200
0000
0300
0000
,
2000
0000
3000
0000
,
0001
0000
0001
0000
,
0001
0000
0000
0000
,
0100
0000
0100
0000
,
0200
0000
0300
0000
,
0010
0000
0010
0000
,
0020
0000
0030
0000
,
0200
0000
0300
0000
,
0002
0000
0003
0000
,
1000
0000
1000
0000
,
1000
0000
0000
0000
,
0010
0000
0010
0000
,
0020
0000
0030
0000
,
0040
0000
0030
0000
,
0100
0000
0100
0000
,
0400
0000
0300
0000
,
0000
0000
0000
0000
,
0001
0000
0001
0000
,
0002
0000
0003
0000
,
1000
0000
1000
0000
,
2000
0000
3000
0000
,
4000
0000
3000
0000
,
0001
0000
0001
0000
,
0002
0000
0003
0000
,
0200
0000
0300
0000
,
0010
0000
0010
0000
,
0020
0000
0030
0000
,
0100
0000
0100
0000
,
0200
0000
0300
0000
,
0400
0000
0300
0000
,
0001
0000
0002
0000
,
0003
0000
1000
0000
,
1000
0000
2000
0000
,
3000
0000
0100
0000
,
0200
0000
0300
0000
,
1000
0000
1000
0000
,
2000
0000
3000
0000
,
0000
0000
0001
0000
,
0001
0000
0002
0000
,
0003
0000
0010
0000
,
0010
0000
0010
0000
,
0100
0100
0200
0300
,
1000
1000
2000
3000
,
0001
0000
0001
0000
,
0002
0000
0003
0000
,
0100
0000
0100
0000
,
0200
0000
0300
0000
,
0010
0010
0020
0030
,
1000
1000
2000
3000
,
0001
0000
0001
0000
,
0002
0000
0003
0000
,
0010
0000
0010
0000
,
0020
0000
0030
0000
,
0100
0000
0100
0000
,
0400
0000
0300
0000
,
1000
0000
1000
0000
,
2000
0000
3000
0000
,
0002
0000
0003
0000
,
1000
0000
1000
0000
,
4000
0000
3000
0000
,
0000
0000
0000
0000
,
0001
0000
0001
0000
,
0004
0000
0003
0000
,
0010
0000
0010
0000
,
0020
0000
0030
0000
,
0040
0000
0030
0000
,
0100
0000
0100
0000
,
0200
0000
0300
0000
,
2000
0000
3000
0000
,
0001
0000
0001
0000
,
0002
0000
0003
0000
,
0010
0000
0010
0000
,
0020
0000
0030
0000
,
0040
0000
0030
0000
,
0100
0000
0100
0000
,
0200
0000
0300
0000
,
1000
0000
1000
0000
,
2000
0000
3000
0000
,
0001
0000
0002
0003
,
0000
0000
1000
0000
,
1000
0000
2000
0000
,
3000
0000
0010
0000
,
0020
0000
0030
0000
,
0100
0000
0100
0000
,
0200
0000
0300
0000
,
0000
0000
0001
0000
,
0002
0000
0003
0000
,
1000
0000
1000
0000
,
2000
0000
3000
0000
,
0100
0000
0100
0000
,
0200
0000
0300
0000
,
0010
0000
0010
0000
,
0020
0000
0030
0000
,
0001
0001
0004
0003
,
1000
1000
2000
3000
,
4000
3000
0010
0010
,
0020
0000
0030
0000
,
0100
0100
0400
0300
,
0001
0001
0002
0003
,
0002
0003
1000
1000
,
4000
3000
0000
0000
,
0010
0000
0010
0000
,
0040
0000
0030
0000
,
0100
0000
0100
0000
,
0200
0000
0300
0000
,
0001
0000
0001
0000
,
0002
0000
0003
0000
,
1000
0000
1000
0000
,
2000
0000
3000
0000
,
0010
0000
0010
0000
,
0020
0000
0030
0000
,
1000
0000
1000
0000
,
2000
0000
3000
0000
,
4000
0000
3000
0000
,
0001
0000
0001
0000
,
0002
0000
0003
0000
,
0010
0000
0010
0000
,
0020
0000
0030
0000
,
0200
0000
0300
0000
,
1000
0000
1000
0000
,
2000
0000
3000
0000
,
0001
0000
0001
0000
,
0002
0000
0003
0000
,
0100
0000
0100
0000
,
0400
0000
0300
0000
,
0010
0000
0010
0000
,
0020
0000
0030
0000
,
1000
0000
1000
0000
,
2000
0000
3000
0000
,
0001
0000
0001
0000
,
0002
0000
0003
0000
,
0010
0000
0010
0000
,
0040
0000
0000
0000
0000
0000
0000
0030
,
0000
0200
0000
0000
,
0300
0000
0000
0000
;
