#TITLE:Break It Down;
#SUBTITLE:;
#ARTIST:Gagain feat. Myong;
#TITLETRANSLIT:;
#SUBTITLETRANSLIT:;
#ARTISTTRANSLIT:;
#GENRE:;
#CREDIT:;
#BANNER:Break It Down - Bn.png;
#BACKGROUND:Break It Down - Bg.jpg;
#LYRICSPATH:;
#CDTITLE:Ace Of Arrows.png;
#MUSIC:Break It Down.ogg;
#OFFSET:0.100;
#SAMPLESTART:49.600;
#SAMPLELENGTH:12.000;
#SELECTABLE:YES;
#BPMS:0.000=160.000;
#STOPS:;
#BGCHANGES:;
#KEYSOUNDS:;

//---------------dance-single - AceOfArrows (2018)----------------
#NOTES:
     dance-single:
     AceOfArrows (2018):
     Challenge:
     10:
     0.864,0.000,0.856,1.000,1.000: // measure 1
0000
0000
0000
0000
,  // measure 2
0000
0000
0000
0000
,  // measure 3
0000
0000
0000
0000
0000
0000
0000
0000
0000
0000
0000
1000
,  // measure 4
0001
0000
0000
0000
0001
0000
0010
0000
0000
0000
0010
0000
0100
0000
0000
0000
2000
0000
0000
0000
0000
0000
3001
0010
,  // measure 5
0200
0000
0000
0000
0310
0000
0002
0000
0000
0000
1003
0000
0000
0000
0002
0000
0000
0000
0000
0000
0000
0000
0013
0100
,  // measure 6
2000
0000
3001
0200
0000
0000
0000
0000
0000
0000
0000
0000
,  // measure 7
0000
0000
0000
0310
0000
0000
0010
0000
0000
0010
0000
1000
,  // measure 8
0002
0000
0003
0021
0000
0130
2000
0000
3002
0000
0000
0103
,  // measure 9
0000
0000
0010
2010
0000
3001
0020
0030
0110
0000
0000
0110
,  // measure 10
0200
0000
0300
2100
0000
0000
3002
0000
0000
0203
0000
0000
,  // measure 11
0320
0000
0030
2010
0000
0000
3001
0000
0021
0000
0000
0130
,  // measure 12
2000
0000
3000
1002
0000
0103
0020
0030
2010
0000
0000
0000
,  // measure 13
3002
0000
0103
0120
0000
1030
0002
0003
0011
0000
0000
0012
,  // measure 14
0000
0000
0003
2001
0000
0000
3200
0000
0320
0000
0000
0032
,  // measure 15
0000
0000
2003
0000
0000
3020
0000
0000
0000
0230
0000
0302
,  // measure 16
0000
0003
0000
1001
0000
1000
0010
0000
0110
0000
0000
0100
,  // measure 17
0001
0000
0000
1001
0000
1000
0100
0000
0120
0000
0000
0031
,  // measure 18
1000
0000
0010
0110
0000
0100
0001
0000
2001
0000
0000
3100
,  // measure 19
0010
0000
0000
0012
0000
1003
0010
0000
0210
0000
0000
0301
,  // measure 20
1000
0000
0100
0110
0000
0010
0001
0000
1001
0000
0000
1000
,  // measure 21
0010
0000
0000
0110
0000
0100
0001
0000
2001
0000
0000
3100
,  // measure 22
0010
0100
1000
1001
0000
0001
0100
0000
0000
0110
0000
0010
,  // measure 23
1000
0000
1002
0000
0000
0013
0100
1000
0001
0100
0010
0100
,  // measure 24
0001
1000
0100
0120
0000
0000
0032
0000
0003
2001
0000
0000
,  // measure 25
3020
0030
0210
0000
0000
0301
2000
0000
3000
1200
0000
0000
,  // measure 26
0310
0000
0000
0022
0000
0000
0033
0000
2200
0000
0000
3300
,  // measure 27
0000
0000
1000
0002
0000
0103
0010
0000
4000
0000
0000
3001
,  // measure 28
0100
0000
0100
0120
0000
0000
2030
0000
3000
1002
0000
0000
,  // measure 29
0013
0000
0210
0000
0000
1300
0002
0000
0003
0201
0000
0000
,  // measure 30
0310
0000
0000
2020
0000
0000
3030
0000
0220
0000
0000
0330
,  // measure 31
0202
0000
0303
2001
0000
3100
0010
0000
0012
0000
0000
1003
,  // measure 32
0010
0100
0010
2000
0000
3001
0100
0000
0100
0010
0000
0010
,  // measure 33
1000
0000
1002
0000
0000
0013
0200
0000
1300
0001
0100
0010
,  // measure 34
1000
0010
0100
0001
0000
0001
1000
0000
1000
0100
0000
0020
,  // measure 35
0000
0000
0130
1000
0000
1000
0001
0000
0020
0000
0000
0130
,  // measure 36
1000
0000
1000
0002
0000
0000
0203
0000
0000
0320
0000
0000
,  // measure 37
2030
0000
3000
1002
0000
0103
0010
0000
2010
0000
0000
3001
,  // measure 38
0010
0100
0010
0001
0000
0001
0010
0000
0010
0100
0000
2000
,  // measure 39
0000
0000
3001
0100
0000
0100
0010
0000
2000
0000
0000
3001
,  // measure 40
0010
0000
0010
0210
0000
1300
0002
0003
0101
0000
0000
0200
,  // measure 41
0000
0300
0120
0000
0000
1030
0002
0000
0000
1003
0100
0010
,  // measure 42
0001
0010
0100
1100
0000
1000
0001
0000
0101
0000
0000
0100
,  // measure 43
0010
0000
0000
1010
0000
1000
0001
0000
0021
0000
0000
0130
,  // measure 44
1000
0000
0000
0000
0001
0000
0201
0000
0000
0000
0310
0000
1000
0000
0000
0000
1000
0000
0002
0000
0000
0000
0013
0100
,  // measure 45
2000
0000
3002
0000
0000
0103
0010
0000
0010
1000
0001
0010
,  // measure 46
0100
1000
0001
0101
0000
0100
0010
0000
1010
0000
0000
1000
,  // measure 47
0001
0000
0000
0011
0000
0010
0100
0000
1100
1000
0001
0100
,  // measure 48
0010
0000
1000
0000
0001
0000
0011
0000
0000
0000
0010
0000
0200
0000
0000
0000
1300
0100
0010
0000
0000
0000
0001
0010
,  // measure 49
0100
0000
2100
0000
0000
3001
0100
0010
1000
0010
0100
0001
,  // measure 50
1000
0100
0010
0012
0000
0000
2003
0000
3000
1020
0000
0000
,  // measure 51
0230
0000
0300
0102
0000
0000
0000
0000
2003
0000
0000
3100
,  // measure 52
0010
0000
0000
0012
0000
1003
0010
0000
0210
0000
0000
0301
,  // measure 53
1000
0000
1000
1100
0000
0100
0010
0000
0012
0000
0000
1003
,  // measure 54
0010
0000
0010
0210
0000
0000
0302
0000
0003
2001
0000
0000
,  // measure 55
3020
0000
0030
0210
0000
0000
0000
0000
0302
0000
0000
1003
,  // measure 56
0200
0000
0300
0120
0000
0031
1000
0000
1020
0000
0000
0130
,  // measure 57
0001
1000
0100
0120
0000
0031
1000
0000
1020
0000
0000
0130
,  // measure 58
0001
0000
0001
2001
0000
0000
3200
0000
0300
0120
0000
0000
,  // measure 59
0031
0000
2001
0000
0000
3010
0200
0000
0300
0102
0000
1003
,  // measure 60
1200
0000
0300
0220
0000
0000
0330
0000
0022
0000
0000
0033
,  // measure 61
0000
0000
0001
2001
0000
3020
0000
0030
0410
0000
0000
0301
,  // measure 62
1000
0000
1000
1100
0000
0000
0200
0000
0300
0120
0000
0000
,  // measure 63
0031
0000
2001
0000
0000
3010
0200
0000
0300
0102
0000
1003
,  // measure 64
0100
0010
0100
2200
0000
3300
0000
0000
2002
0000
0000
3003
,  // measure 65
0101
0000
0000
0120
0000
1030
0001
0000
0021
0000
0000
0130
,  // measure 66
1000
0000
1000
0001
0100
0010
0100
0001
1000
0100
0010
0100
,  // measure 67
1000
0001
0010
0100
0010
0001
1000
0001
0100
0010
1000
0010
,  // measure 68
0100
0001
1000
0100
0000
0100
0010
0000
0010
0001
0000
2000
,  // measure 69
0000
0000
3010
0100
0000
0100
0001
0000
2000
0000
0000
3001
,  // measure 70
0000
0000
0010
0200
0000
0000
1300
0000
0000
1002
0000
0000
,  // measure 71
0203
0000
0300
0120
0000
1030
0001
0000
0011
0010
0100
1000
,  // measure 72
0001
0100
0010
1000
0000
1000
0001
0000
0001
0100
0000
0020
,  // measure 73
0000
0000
1030
0001
0000
0001
0010
0000
0200
0000
0000
1300
,  // measure 74
0001
0000
0001
0201
0000
0000
0310
0000
1010
0000
0000
2000
,  // measure 75
0000
3000
1002
0000
0000
0013
0100
1000
0001
0201
0000
0310
,  // measure 76
1000
0000
1000
0001
0000
0001
0010
0000
0010
0100
0000
2000
,  // measure 77
0000
0000
3000
0001
0000
0001
0100
0000
0020
0000
0000
1030
,  // measure 78
0001
0000
0001
0021
0000
0000
0230
0000
0000
2300
0000
0000
,  // measure 79
3002
0000
0003
0201
0000
0310
1000
0000
1002
0000
0000
0013
,  // measure 80
0100
1000
0001
0101
0000
0100
0010
0000
0010
1000
0000
0002
,  // measure 81
0000
0000
0003
0010
0000
0010
0100
0000
2000
0000
0000
3001
,  // measure 82
0100
0000
0100
0120
0000
0000
1030
0000
1001
0000
0000
0002
,  // measure 83
0000
0003
0021
0000
0000
0130
2000
0000
3000
1002
0000
0103
,  // measure 84
0010
0000
0010
1010
0000
1000
0001
0000
0011
0000
0000
0010
,  // measure 85
0100
0000
0000
1100
0000
1000
0001
0000
0201
0000
0000
0310
,  // measure 86
1000
0000
1000
1001
0000
0001
0010
0000
0000
0110
0000
0100
,  // measure 87
1000
0000
0000
0000
1002
0000
0000
0000
0000
0000
0103
0000
0040
0400
0000
0000
0000
0000
0000
0000
0000
0000
0330
0000
,  // measure 88
0100
0001
1000
1100
0000
0100
0010
0000
0011
0000
0000
0001
,  // measure 89
1000
0000
0000
1010
0000
0010
0100
0000
0102
0000
0000
1003
,  // measure 90
0100
0000
0100
0110
0000
0010
0001
1000
0010
0100
0001
1000
,  // measure 91
0001
0000
2002
0000
0000
0000
0000
3003
0000
0000
0000
0000
;

//---------------dance-single - AceOfArrows (2018)----------------
#NOTES:
     dance-single:
     AceOfArrows (2018):
     Hard:
     8:
     0.697,0.000,0.107,1.000,0.749: // measure 1
0000
0000
0000
0000
,  // measure 2
0000
0000
0000
0000
,  // measure 3
0000
0000
0000
0000
0000
0000
0000
0000
0000
0000
0000
0001
,  // measure 4
0010
0000
0100
0010
0000
0001
0010
0000
0200
0000
0000
2300
,  // measure 5
0000
0000
3001
0100
0000
0010
0000
0200
0000
0000
0000
0000
,  // measure 6
0301
0000
1000
0002
0000
0000
0000
0000
0000
0000
0000
0000
,  // measure 7
0000
0000
0000
1003
0000
0000
1000
0000
0000
1000
0000
0001
,  // measure 8
0020
0000
0000
0230
0000
1300
0002
0000
0103
0000
0000
0000
,  // measure 9
0000
0000
0010
2000
0000
3001
0020
0000
0130
0000
0000
1000
,  // measure 10
0002
0203
0320
2030
,  // measure 11
3002
0000
0000
0023
0000
0000
0130
0000
2000
0000
0000
3001
,  // measure 12
0200
0000
0000
0320
0000
0130
0002
0000
2003
0000
0000
0000
,  // measure 13
3200
0000
0310
0001
0000
1000
0002
0000
0203
0000
0000
0320
,  // measure 14
0000
0000
0000
2030
0000
0000
3001
0000
0020
0000
0000
0230
,  // measure 15
0000
0000
2300
0000
0000
3002
0000
0000
0000
1003
0000
0020
,  // measure 16
0000
0000
0000
2030
0000
3001
0020
0000
0230
0000
0000
1300
,  // measure 17
0001
0000
0000
0200
0000
0000
0310
0000
2000
0000
0000
3001
,  // measure 18
0010
0000
0001
2000
0000
0000
0000
0000
3020
0000
0000
0000
,  // measure 19
0130
0000
0000
0002
0000
0000
1003
0000
0200
0000
0000
1300
,  // measure 20
0001
0000
1000
0020
0000
0130
0001
0000
2000
0000
0000
3100
,  // measure 21
0010
0000
0000
0002
0000
0000
1003
0000
0020
0000
0000
0130
,  // measure 22
0001
0000
0100
0020
0000
0000
2030
0000
0000
3002
0000
0013
,  // measure 23
0100
0000
2000
0000
0000
3001
0010
0000
0001
1000
0000
0001
,  // measure 24
0100
0000
0001
2000
0000
0000
3200
0000
0000
0320
0000
0000
,  // measure 25
0031
0000
2000
0000
0000
3010
0200
0000
0000
0302
0000
0000
,  // measure 26
0003
0000
0000
2000
0000
0000
0000
0000
3200
0000
0000
0000
,  // measure 27
0300
0000
0010
0001
0000
0020
0000
0000
0430
0000
0000
1300
,  // measure 28
0001
0000
1000
0020
0000
0000
0230
0000
0000
0302
0000
0000
,  // measure 29
1003
0000
0200
0000
0000
0310
0002
0000
0000
2003
0000
0000
,  // measure 30
3000
0000
0000
1010
0000
0000
0000
0000
0020
0000
0000
0030
,  // measure 31
0110
0000
0000
0200
0000
0000
0301
0000
2000
0000
0000
0000
,  // measure 32
3200
0320
0001
0100
,  // measure 33
0032
0000
2003
0000
0000
3100
0010
0000
0100
1000
0000
0100
,  // measure 34
0020
0000
0000
0032
0000
1003
0002
0000
0103
0002
0000
1003
,  // measure 35
0000
0000
0010
0200
0000
0301
1000
0000
0020
0000
0000
0000
,  // measure 36
0030
0200
0302
2003
,  // measure 37
3200
0000
0000
0320
0000
0130
1000
0000
0002
0000
0000
2003
,  // measure 38
0000
0000
3001
0020
0000
0130
0020
0000
0031
0020
0000
0130
,  // measure 39
0000
0000
1000
0002
0000
0103
0010
0000
2000
0000
0000
0000
,  // measure 40
3000
0000
0000
1002
0000
0000
0013
0000
0200
0000
0000
2300
,  // measure 41
0000
3000
1002
0000
0000
0103
0020
0000
0000
2030
0000
0000
,  // measure 42
3000
0000
0000
0002
0000
0013
0100
0000
2000
0000
0000
3001
,  // measure 43
0100
0000
0000
0020
0000
0000
0130
0000
0002
0000
0000
1003
,  // measure 44
0100
0000
1000
0002
0000
0000
0203
0000
0000
0320
0000
0000
,  // measure 45
1030
0000
0002
0000
0000
0013
0100
0000
0010
0001
0000
0010
,  // measure 46
0100
0000
0010
0002
0000
1003
0010
0000
0200
0000
0000
0301
,  // measure 47
1000
0000
0000
0200
0000
0310
0001
0000
2000
0000
0000
3001
,  // measure 48
0100
0000
0001
2000
0000
0000
3200
0000
0000
0320
0000
0130
,  // measure 49
1000
0000
0002
0000
0000
1003
0010
0000
1000
0001
0000
1000
,  // measure 50
0200
0320
0032
2003
,  // measure 51
3020
0000
0000
0230
0000
0000
0000
0000
0302
0000
0000
1003
,  // measure 52
0020
0000
0000
0230
0000
0301
1000
0000
0200
0000
0000
0310
,  // measure 53
0001
0000
0000
2000
0000
3001
0100
0000
0020
0000
0000
1030
,  // measure 54
0001
0000
1000
0200
0000
0000
0320
0000
0000
0230
0000
0000
,  // measure 55
2300
0000
0000
3002
0000
0000
0000
0000
0203
0000
0000
0310
,  // measure 56
2000
0000
0000
3002
0000
0013
0100
0000
2000
0000
0000
3001
,  // measure 57
0200
0000
0000
0320
0000
1030
0001
0000
0020
0000
0000
0130
,  // measure 58
1000
0000
0100
0020
0000
0000
0032
0000
0000
2003
0000
0000
,  // measure 59
3010
0000
0200
0000
0000
0301
2000
0000
0000
3200
0000
0310
,  // measure 60
0001
0000
0000
2002
0000
0000
3003
0000
2020
0000
0000
0000
,  // measure 61
3030
0000
0010
0100
0000
0001
0000
0000
4001
0000
0000
3100
,  // measure 62
0010
0000
0100
2000
0000
0000
3002
0000
0000
0203
0000
0000
,  // measure 63
0310
0000
2000
0000
0000
3001
0020
0000
0000
0230
0000
0000
,  // measure 64
0300
0000
0000
1100
0000
0000
0000
0000
2000
0000
0000
3000
,  // measure 65
1001
0000
0000
0002
0000
0000
0103
0000
0020
0000
0000
0000
,  // measure 66
2030
0000
0000
3001
0000
0010
0001
0000
1000
0001
0000
0100
,  // measure 67
0001
0000
1000
0100
0000
1000
0001
0000
1000
0010
0000
1000
,  // measure 68
0002
0000
0000
2003
0000
3100
0020
0000
0130
2000
0000
3100
,  // measure 69
0000
0000
0010
0002
0000
1003
0100
0000
0020
0000
0000
0000
,  // measure 70
0030
0200
2300
3002
,  // measure 71
0203
0000
0000
0320
0000
1030
0001
0000
0020
0000
0000
0230
,  // measure 72
0000
0000
0310
0002
0000
0013
0200
0000
0310
0002
0000
1003
,  // measure 73
0000
0000
0010
0200
0000
0310
1000
0000
0002
0000
0000
0000
,  // measure 74
0003
0000
0000
2001
0000
0000
0000
0000
3200
0000
0000
0310
,  // measure 75
0000
0000
0012
0000
0000
1003
0020
0000
0000
0230
0000
0301
,  // measure 76
1000
0000
0001
0020
0000
0130
2000
0000
3100
0020
0000
0031
,  // measure 77
0000
0000
0000
2000
0000
3010
0100
0000
0002
0000
0000
0000
,  // measure 78
0003
0000
1000
0200
0000
0000
0320
0000
0000
0230
0000
0000
,  // measure 79
2300
0000
0000
3002
0000
0103
0020
0000
2030
0000
0000
3001
,  // measure 80
0010
0000
0001
2000
0000
3010
0200
0000
0310
2000
0000
3002
,  // measure 81
0000
0000
0003
2000
0000
3100
0010
0000
0002
0000
0000
0000
,  // measure 82
0003
0000
0000
2001
0000
0000
3010
0000
0200
0000
0000
0302
,  // measure 83
0000
0003
2001
0000
0000
3100
0020
0000
0030
0022
0000
0000
,  // measure 84
0033
0000
0000
2001
0000
3010
0100
0000
0002
0000
0000
1003
,  // measure 85
0100
0000
0000
0020
0000
0130
1000
0000
0002
0000
0000
1003
,  // measure 86
0010
0000
1000
0002
0000
0000
0023
0000
0000
0230
0000
1300
,  // measure 87
0001
0000
0200
0000
0000
0340
0000
0000
0000
0000
0000
0130
,  // measure 88
0001
0000
0100
0020
0000
1030
0001
0000
0020
0000
0000
0130
,  // measure 89
1000
0000
0000
0002
0000
1003
0010
0000
0200
0000
0000
0301
,  // measure 90
1000
0000
0001
0020
0000
0000
0230
0000
0000
2300
0000
3001
,  // measure 91
0100
0000
0020
0000
0000
0000
0000
0030
0000
0000
0000
0000
;

//---------------dance-single - AceOfArrows (2016)----------------
#NOTES:
     dance-single:
     AceOfArrows (2016):
     Medium:
     6:
     0.350,0.000,0.000,0.692,0.264: // measure 1
0000
0000
0000
0000
,  // measure 2
0000
0000
0000
0000
,  // measure 3
0000
0000
0000
0000
,  // measure 4
1000
0000
0000
0001
0000
0000
0010
0000
0002
0000
0000
0000
,  // measure 5
2003
0000
0000
3001
0000
0010
0000
0001
0000
0000
0000
0000
,  // measure 6
2000
3200
0000
0000
,  // measure 7
0000
0000
0000
0300
,  // measure 8
0000
0000
0000
0020
0000
0000
0031
0000
1000
0000
0000
0000
,  // measure 9
0000
0000
0000
0020
0000
0000
1030
0000
0001
0000
0000
0020
,  // measure 10
0000
0230
2300
3002
,  // measure 11
2003
0000
0000
3020
0000
0000
0130
0000
0002
0000
0000
0000
,  // measure 12
0003
0000
0000
2000
0000
0000
3100
0000
0010
0000
0000
0000
,  // measure 13
0200
0000
0000
2300
0000
0000
3001
0000
0020
0000
0000
0000
,  // measure 14
0030
0000
0000
0200
0000
0000
0300
0000
0020
0000
0000
0032
,  // measure 15
0000
0000
0023
0000
0000
0230
0000
0000
0000
1300
0000
0002
,  // measure 16
0000
0000
0000
1003
0000
0000
0000
0000
1000
0000
0000
0000
,  // measure 17
1000
0000
0000
0010
0000
0000
0010
0000
0020
0000
0000
0000
,  // measure 18
0030
0000
0000
0100
0000
0000
0000
0000
0100
0000
0000
0000
,  // measure 19
0100
0000
0000
0001
0000
0000
0001
0000
0002
0000
0000
0000
,  // measure 20
0003
0000
0000
1000
0000
0000
0000
0000
1000
0000
0000
0000
,  // measure 21
1000
0000
0000
0100
0000
0000
0100
0000
0200
0000
0000
0000
,  // measure 22
0300
0010
0010
0010
,  // measure 23
0001
0000
0002
0000
0000
0000
0000
0000
0000
0003
0000
0000
,  // measure 24
1000
0010
1000
0020
,  // measure 25
0000
0000
0230
0000
0000
0000
0301
0000
0000
0002
0000
0000
,  // measure 26
0000
0000
0000
2003
0000
0000
0000
0000
3200
0000
0000
0000
,  // measure 27
0300
0000
0000
0010
0000
0001
0000
0000
4000
0000
0000
0000
,  // measure 28
3000
0001
0010
0002
,  // measure 29
0000
0000
2003
0000
0000
0000
3010
0000
0000
0020
0000
0000
,  // measure 30
0030
0000
0000
2000
0000
0000
0000
0000
3002
0000
0000
0000
,  // measure 31
1003
0000
0000
0001
0000
0000
0000
0000
0002
0000
0000
0000
,  // measure 32
2003
3200
0000
0000
,  // measure 33
0000
0000
0320
0000
0000
0000
0000
0000
0000
0000
0000
0000
,  // measure 34
0030
0001
0001
0001
,  // measure 35
0000
0000
0000
1000
0000
0000
0001
0000
0020
0000
0000
0000
,  // measure 36
0030
0002
1003
0001
,  // measure 37
1000
0000
0000
0200
0000
0000
0000
0000
0320
0000
0000
0032
,  // measure 38
0000
1003
1000
1000
,  // measure 39
0000
0000
0000
0002
0000
0000
1003
0000
0020
0000
0000
0000
,  // measure 40
0030
0000
0000
2000
0000
0000
0000
0000
3002
0000
0000
0203
,  // measure 41
0000
0000
0302
0000
0000
0000
1003
0000
0000
2000
0000
0000
,  // measure 42
3000
0000
0000
0001
0000
0000
0000
0000
0001
0000
0000
0000
,  // measure 43
0001
0000
0000
0010
0000
0000
0000
0000
0020
0000
0000
0000
,  // measure 44
0030
0100
0100
0100
,  // measure 45
0000
0000
2000
0000
0000
0000
3004
0000
0000
0000
0000
0000
,  // measure 46
0003
0000
0000
1000
0000
0000
0000
0000
1000
0000
0000
0000
,  // measure 47
1000
0000
0000
0010
0000
0000
0000
0000
0020
0000
0000
0000
,  // measure 48
0030
0100
0100
0100
,  // measure 49
0000
0000
0002
0000
0000
0000
0003
0000
0000
0000
0000
0000
,  // measure 50
1000
0001
1000
0001
,  // measure 51
0000
0000
0000
0200
0000
0000
0000
0000
0302
0000
0000
0000
,  // measure 52
1003
0000
0000
0100
0000
0000
0000
0000
0100
0000
0000
0000
,  // measure 53
0100
0000
0000
0010
0000
0000
0000
0000
0020
0000
0000
0000
,  // measure 54
0030
0001
1000
0001
,  // measure 55
0000
0000
0000
0200
0000
0000
0000
0000
0320
0000
0000
0000
,  // measure 56
1030
0000
0000
0001
0000
0000
0000
0000
0001
0000
0000
0000
,  // measure 57
0001
0000
0000
1000
0000
0000
0000
0000
2000
0000
0000
0000
,  // measure 58
3000
0001
0100
0002
,  // measure 59
0000
0000
2003
0000
0000
0000
3010
0000
0000
0020
0000
0000
,  // measure 60
0030
0000
0000
0200
0000
0000
0000
0000
0302
0000
0000
0000
,  // measure 61
0003
0000
0000
2000
0000
0000
0000
0000
3400
0000
0000
0000
,  // measure 62
0310
0001
1000
0001
,  // measure 63
0000
0000
0200
0000
0000
0000
0310
0000
0000
0020
0000
0000
,  // measure 64
0030
0000
0000
1000
0000
0000
0000
0000
0002
0000
0000
0000
,  // measure 65
1003
0000
0000
0100
0000
0000
0000
0000
0200
0000
0000
0000
,  // measure 66
0300
2000
0000
0000
,  // measure 67
0000
0000
3002
0000
0000
0000
0000
0000
0000
0000
0000
0000
,  // measure 68
1003
0100
0100
0100
,  // measure 69
0000
0000
0000
2000
0000
0000
3001
0000
0020
0000
0000
0000
,  // measure 70
0030
0001
0010
0001
,  // measure 71
1000
0000
0000
0002
0000
0000
0000
0000
1003
0000
0000
0020
,  // measure 72
0000
0130
0100
0100
,  // measure 73
0000
0000
0000
0002
0000
0000
1003
0000
0200
0000
0000
0000
,  // measure 74
0300
0000
0000
0020
0000
0000
0000
0000
0230
0000
0000
1300
,  // measure 75
0000
0000
0002
0000
0000
0000
1003
0000
0000
0200
0000
0000
,  // measure 76
0310
0001
0001
0001
,  // measure 77
0000
0000
0000
2000
0000
0000
3001
0000
0200
0000
0000
0000
,  // measure 78
0300
0010
1000
0010
,  // measure 79
1000
0000
0000
0002
0000
0000
0000
0000
2003
0000
0000
0000
,  // measure 80
3100
0010
0010
0010
,  // measure 81
0000
0000
0000
0200
0000
0000
0000
0000
2300
0000
0000
0000
,  // measure 82
3000
0000
0000
0002
0000
0000
0000
0000
0103
0000
0000
0010
,  // measure 83
0000
0000
0200
0000
0000
0000
0301
0000
0000
0002
0000
0000
,  // measure 84
0003
0000
0000
1000
0000
0000
0000
0000
1000
0000
0000
0000
,  // measure 85
1000
0000
0000
0100
0000
0000
0000
0000
0200
0000
0000
0000
,  // measure 86
0300
0010
0010
0010
,  // measure 87
0000
0000
0400
0000
0000
0000
0000
0000
0000
0000
0000
0000
,  // measure 88
0300
0000
0000
1000
0000
0000
0000
0000
1000
0000
0000
0000
,  // measure 89
1000
0000
0000
0001
0000
0000
0000
0000
0002
0000
0000
0000
,  // measure 90
0003
1000
1000
1000
,  // measure 91
0000
0000
0200
0000
0000
0000
0000
0300
0000
0000
0000
0000
;

//---------------dance-single - AceOfArrows (2018)----------------
#NOTES:
     dance-single:
     AceOfArrows (2018):
     Easy:
     4:
     0.201,0.000,0.000,0.228,0.000: // measure 1
0000
0000
0000
0000
,  // measure 2
0000
0000
0000
0000
,  // measure 3
0000
0000
0000
0000
,  // measure 4
0001
0001
0001
0000
,  // measure 5
1000
0000
1000
0000
,  // measure 6
1000
2000
0000
0000
,  // measure 7
0000
0000
0000
3000
,  // measure 8
0000
0001
0000
0001
,  // measure 9
0000
0010
0000
0010
,  // measure 10
0000
0100
0100
0100
,  // measure 11
0000
2000
0000
3000
,  // measure 12
0000
0001
0000
0001
,  // measure 13
0000
1000
0000
1000
,  // measure 14
0000
0010
0000
0010
,  // measure 15
0000
0020
0000
0030
,  // measure 16
0000
0100
0000
0100
,  // measure 17
0000
0200
0000
0300
,  // measure 18
0000
0001
0000
0001
,  // measure 19
0000
1000
0000
1000
,  // measure 20
0000
0010
0000
0010
,  // measure 21
0000
0100
0000
0100
,  // measure 22
0000
0001
0001
0001
,  // measure 23
0000
2000
0000
3000
,  // measure 24
0000
0001
0001
0001
,  // measure 25
0000
0010
0000
0010
,  // measure 26
0000
0100
0000
0100
,  // measure 27
0000
0200
0000
0300
,  // measure 28
0000
1000
1000
1000
,  // measure 29
0000
0001
0000
0001
,  // measure 30
0000
0100
0000
0100
,  // measure 31
0000
0200
0000
0300
,  // measure 32
0000
0002
0000
0000
,  // measure 33
0003
2000
0000
0000
,  // measure 34
3000
0001
0001
0001
,  // measure 35
0000
0020
0000
0030
,  // measure 36
0000
0100
0000
0100
,  // measure 37
0000
0200
0000
0300
,  // measure 38
0000
1000
1000
1000
,  // measure 39
0000
0002
0000
0003
,  // measure 40
0000
1000
0000
1000
,  // measure 41
0000
2000
0000
3000
,  // measure 42
0000
0010
0000
0010
,  // measure 43
0000
0020
0000
0030
,  // measure 44
0000
0100
0100
0100
,  // measure 45
0000
0200
0000
0300
,  // measure 46
0000
0001
0000
0001
,  // measure 47
0000
0002
0000
0003
,  // measure 48
0000
1000
1000
1000
,  // measure 49
0000
2000
0000
3000
,  // measure 50
0000
0100
0100
0100
,  // measure 51
0000
0010
0000
0010
,  // measure 52
0000
0001
0000
0001
,  // measure 53
0000
0002
0000
0003
,  // measure 54
0000
1000
1000
1000
,  // measure 55
0000
0010
0000
0010
,  // measure 56
0000
0100
0000
0100
,  // measure 57
0000
0200
0000
0300
,  // measure 58
0000
0001
0001
0001
,  // measure 59
0000
1000
0000
1000
,  // measure 60
0000
0200
0000
0300
,  // measure 61
0000
0010
0000
0010
,  // measure 62
0000
0001
0001
0001
,  // measure 63
0000
2000
0000
3000
,  // measure 64
0000
0010
0000
0010
,  // measure 65
0000
0100
0100
0100
,  // measure 66
0000
0002
0000
0000
,  // measure 67
0003
2000
0000
0000
,  // measure 68
3000
0100
0100
0100
,  // measure 69
0000
0020
0000
0030
,  // measure 70
0000
0001
0000
0001
,  // measure 71
0000
0002
0000
0003
,  // measure 72
0000
1000
1000
1000
,  // measure 73
0000
0020
0000
0030
,  // measure 74
0000
0100
0000
0100
,  // measure 75
0000
0001
0001
0001
,  // measure 76
0000
1000
1000
1000
,  // measure 77
0000
0200
0000
0300
,  // measure 78
0000
0010
0010
0010
,  // measure 79
0000
0002
0000
0003
,  // measure 80
0000
1000
1000
1000
,  // measure 81
0000
0020
0000
0030
,  // measure 82
0000
0100
0000
0100
,  // measure 83
0000
0001
0001
0001
,  // measure 84
0000
1000
0000
1000
,  // measure 85
0000
2000
0000
3000
,  // measure 86
0000
0100
0100
0100
,  // measure 87
0000
0400
0000
0300
,  // measure 88
0000
0010
0000
0010
,  // measure 89
0000
0020
0000
0030
,  // measure 90
0000
0001
0001
0001
,  // measure 91
0000
0002
0003
0000
;

//---------------dance-single - AceOfArrows (2018)----------------
#NOTES:
     dance-single:
     AceOfArrows (2018):
     Beginner:
     2:
     0.163,0.000,0.000,0.307,0.000: // measure 1
0000
0000
0000
0000
,  // measure 2
0000
0000
0000
0000
,  // measure 3
0000
0000
0000
0000
,  // measure 4
1000
0000
1000
0000
,  // measure 5
2000
0000
3000
0000
,  // measure 6
0002
0000
0000
0000
,  // measure 7
0000
0000
0000
0003
,  // measure 8
0000
1000
0000
0000
,  // measure 9
0000
1000
0000
0000
,  // measure 10
0000
2000
0000
0000
,  // measure 11
0000
3000
0000
0000
,  // measure 12
0000
0010
0000
0000
,  // measure 13
0000
0010
0000
0000
,  // measure 14
0000
0020
0000
0000
,  // measure 15
0000
0030
0000
0000
,  // measure 16
0000
0100
0000
0100
,  // measure 17
0000
0200
0000
0300
,  // measure 18
0000
0001
0000
0001
,  // measure 19
0000
0002
0000
0003
,  // measure 20
0000
1000
0000
1000
,  // measure 21
0000
2000
0000
3000
,  // measure 22
0000
0200
0000
0000
,  // measure 23
0000
0300
0000
0000
,  // measure 24
0000
0010
0000
0010
,  // measure 25
0000
0020
0000
0030
,  // measure 26
0000
0001
0000
0001
,  // measure 27
0000
0002
0000
0003
,  // measure 28
0000
1000
0000
1000
,  // measure 29
0000
2000
0000
3000
,  // measure 30
0000
0020
0000
0030
,  // measure 31
0000
0020
0000
0030
,  // measure 32
0000
0200
0000
0000
,  // measure 33
0000
0000
0000
0000
,  // measure 34
0300
0001
0000
0001
,  // measure 35
0000
0002
0000
0003
,  // measure 36
0000
1000
0000
1000
,  // measure 37
0000
2000
0000
3000
,  // measure 38
0000
0100
0000
0100
,  // measure 39
0000
0200
0000
0300
,  // measure 40
0000
0010
0000
0010
,  // measure 41
0000
0020
0000
0030
,  // measure 42
0000
0001
0000
0001
,  // measure 43
0000
0002
0000
0003
,  // measure 44
0000
1000
0000
1000
,  // measure 45
0000
2000
0000
3000
,  // measure 46
0000
0010
0000
0010
,  // measure 47
0000
0020
0000
0030
,  // measure 48
0000
0100
0000
0100
,  // measure 49
0000
0200
0000
0300
,  // measure 50
0000
0001
0000
0001
,  // measure 51
0000
0002
0000
0003
,  // measure 52
0000
1000
0000
1000
,  // measure 53
0000
2000
0000
3000
,  // measure 54
0000
0100
0000
0100
,  // measure 55
0000
0200
0000
0300
,  // measure 56
0000
0010
0000
0010
,  // measure 57
0000
0020
0000
0030
,  // measure 58
0000
0001
0000
0001
,  // measure 59
0000
0002
0000
0003
,  // measure 60
0000
1000
0000
1000
,  // measure 61
0000
2000
0000
3000
,  // measure 62
0000
0010
0000
0010
,  // measure 63
0000
0020
0000
0030
,  // measure 64
0000
0100
0000
0100
,  // measure 65
0000
0200
0000
0300
,  // measure 66
0000
0002
0000
0000
,  // measure 67
0000
0000
0000
0003
,  // measure 68
0000
1000
0000
1000
,  // measure 69
0000
2000
0000
3000
,  // measure 70
0000
0100
0000
0100
,  // measure 71
0000
0200
0000
0300
,  // measure 72
0000
0010
0000
0010
,  // measure 73
0000
0020
0000
0030
,  // measure 74
0000
0001
0000
0001
,  // measure 75
0000
0002
0000
0003
,  // measure 76
0000
1000
0000
1000
,  // measure 77
0000
2000
0000
3000
,  // measure 78
0000
0100
0000
0100
,  // measure 79
0000
0200
0000
0300
,  // measure 80
0000
0010
0000
0010
,  // measure 81
0000
0020
0000
0030
,  // measure 82
0000
0001
0000
0001
,  // measure 83
0000
0002
0000
0003
,  // measure 84
0000
1000
0000
1000
,  // measure 85
0000
2000
0000
3000
,  // measure 86
0000
0010
0000
0010
,  // measure 87
0000
0020
0000
0030
,  // measure 88
0000
0100
0000
0100
,  // measure 89
0000
0200
0000
0300
,  // measure 90
0000
0001
0000
0001
,  // measure 91
0000
0002
0003
0000
;
