#TITLE:Brand-New World;
#SUBTITLE:;
#ARTIST:U-Ske;
#TITLETRANSLIT:;
#SUBTITLETRANSLIT:;
#ARTISTTRANSLIT:;
#GENRE:;
#CREDIT:Ace Of Arrows;
#BANNER:Brand-New World - Bn.png;
#BACKGROUND:Brand-New World - Bg.jpg;
#LYRICSPATH:;
#CDTITLE:Ace Of Arrows.png;
#MUSIC:Brand-New World.ogg;
#OFFSET:-0.080;
#SAMPLESTART:54.800;
#SAMPLELENGTH:12.000;
#SELECTABLE:YES;
#BPMS:0.000=160.000,279.000=80.000,285.000=160.000;
#STOPS:;
#BGCHANGES:;
#KEYSOUNDS:;

//---------------dance-single - Ace Of Arrows (2018)----------------
#NOTES:
     dance-single:
     Ace Of Arrows (2018):
     Challenge:
     10:
     0.910,0.295,0.853,1.000,0.147: // measure 1
0000
0000
0000
0000
0000
0000
0000
0001
,  // measure 2
0010
0001
2000
0000
3010
0100
0002
0000
,  // measure 3
1003
0100
0020
0000
0130
1000
0001
0200
,  // measure 4
0000
0000
0000
0000
0000
0000
0000
0302
,  // measure 5
0000
0003
1000
0100
0010
0001
2001
0000
,  // measure 6
3100
0010
0001
1000
0010
0100
0102
0000
,  // measure 7
1003
0100
0010
0100
1000
0001
0201
0000
,  // measure 8
0310
1000
0001
1000
0001
0000
0021
0000
,  // measure 9
0130
2000
3002
0203
0320
1030
1002
0000
,  // measure 10
0013
0100
1000
0001
0100
0010
2010
0000
,  // measure 11
3001
0010
0011
0000
0110
0000
2100
0000
,  // measure 12
3001
0100
0002
0000
1003
0000
0100
0000
0010
0000
0001
0000
2002
0000
0000
0000
,  // measure 13
0000
0003
3400
0000
0000
0310
0000
0012
,  // measure 14
0000
1003
0010
0100
0010
1000
0002
0000
,  // measure 15
0000
2003
0000
3200
0000
0320
0030
0012
,  // measure 16
0000
1003
0020
0000
0130
0001
2000
0000
,  // measure 17
3001
0010
0100
0000
2000
0000
3001
0020
,  // measure 18
0000
0230
0000
2300
0000
3001
0200
0000
,  // measure 19
0310
0100
0004
0000
2003
0000
3200
0000
,  // measure 20
0310
0100
1000
0001
0100
0010
1010
0000
,  // measure 21
2000
3001
0021
0030
0010
0100
1000
2002
,  // measure 22
3000
0103
0010
1010
1000
0001
0021
0000
,  // measure 23
0130
2000
0000
3002
0000
0203
0300
0120
,  // measure 24
1030
0001
0201
0000
0310
1000
0002
0000
,  // measure 25
1003
0100
0020
0000
0130
1000
0001
0021
,  // measure 26
0000
0230
0300
2100
0000
3001
0201
0000
,  // measure 27
0310
1000
1002
0003
0010
0001
1000
1020
,  // measure 28
0000
0230
0300
0102
1003
0100
0220
0300
,  // measure 29
0031
0000
1000
0000
1020
0000
0000
0000
0130
0001
1000
0001
0100
0001
2000
0000
,  // measure 30
0000
3200
0300
0120
0000
0031
2001
0000
,  // measure 31
3020
0030
0410
0000
0301
1000
1200
0000
,  // measure 32
0310
0001
1000
1020
0130
0001
2001
0000
,  // measure 33
3020
0030
0410
0000
0301
1000
1200
0000
,  // measure 34
0320
0230
2300
3002
0103
0010
2010
0000
,  // measure 35
3002
0000
0023
0000
0230
0000
1300
0001
1000
0000
0001
0000
0202
0000
0003
0000
,  // measure 36
0310
1000
2002
3000
0013
0100
2200
0300
,  // measure 37
3001
0101
0100
0000
0010
1000
1002
0000
,  // measure 38
0013
0100
0010
0000
0001
0000
1000
0000
0010
0000
0100
0000
0202
0000
0000
0000
,  // measure 39
0010
0000
1000
0303
0001
1000
1200
0000
,  // measure 40
0310
0001
1000
0010
0100
0001
2002
3003
,  // measure 41
2400
0000
3000
0000
0020
0000
0300
0000
0031
1000
0001
0000
0201
0000
0000
0000
,  // measure 42
0000
0310
2010
0000
3001
0010
0210
0000
,  // measure 43
1300
0001
0101
0000
0100
0010
2000
0000
,  // measure 44
3001
0010
0100
1000
0001
0100
0220
0300
,  // measure 45
1030
0001
1000
0000
2200
0000
3000
0000
0310
0001
0010
0000
0210
0000
0000
0000
,  // measure 46
1300
0000
0001
0100
0001
0000
1000
0000
0001
0000
1000
0000
2200
0000
0000
0000
,  // measure 47
0010
0000
0000
0000
0004
0000
3303
0000
1000
0001
1000
0000
1020
0000
0000
0000
,  // measure 48
0130
0001
0100
0000
0010
0000
1000
0000
0001
0000
0010
0000
0210
0000
0000
0000
,  // measure 49
4300
0000
0002
3000
0103
0010
2010
0000
,  // measure 50
3001
0010
0100
1100
1000
0001
0201
0000
,  // measure 51
0310
0000
1000
0000
0004
0000
0003
0000
1000
0100
1000
0000
1002
0000
0000
0000
,  // measure 52
0013
0000
0200
0000
1300
0000
0001
0000
0100
0010
0100
0000
0001
0000
1001
0000
,  // measure 53
1000
0000
0100
0010
0001
0010
0100
0000
1000
0000
0004
0000
0000
0003
0101
0000
,  // measure 54
0100
0010
2010
0000
3001
0010
0210
0000
,  // measure 55
1300
0002
0000
0203
0310
2000
3000
1001
,  // measure 56
0001
0010
0100
1000
0002
0003
0201
0000
,  // measure 57
0310
1000
1002
0003
0020
0130
1000
1001
,  // measure 58
0001
0100
0010
1000
0001
0010
0210
0300
,  // measure 59
1100
0000
4000
3000
0001
0100
0120
0000
,  // measure 60
2030
3000
1002
0000
0023
0030
0210
0000
,  // measure 61
1300
0001
1000
0000
1020
0000
0000
0000
0130
0010
0100
0000
0202
0000
0300
0000
,  // measure 62
1003
0100
1000
0000
0001
0100
0002
0000
1003
0000
0000
0000
2200
0000
3000
0000
,  // measure 63
0310
0000
0011
0000
0001
1000
0002
0000
0103
0000
0000
0000
0220
0000
0300
0000
,  // measure 64
1030
0000
1001
0000
0001
0010
0002
0000
1003
0000
0100
0000
0110
0000
0000
0000
,  // measure 65
0011
0000
0000
0000
1001
0000
0000
0000
1000
0001
1000
0000
2200
0000
3000
0000
,  // measure 66
0310
0001
0010
0000
0100
1000
0100
0000
1000
0000
0001
0000
0202
0000
0003
0000
,  // measure 67
0310
0000
2000
0000
3001
0100
0001
0000
1000
0000
0100
0000
0220
0000
0300
0000
,  // measure 68
0031
0000
1000
0000
1020
0000
0130
0001
1000
0001
0100
0000
0220
0000
0300
0000
,  // measure 69
4030
0004
0000
0000
0000
0000
0000
0000
0000
0000
3003
0000
0201
0000
0000
0000
,  // measure 70
0310
0000
1000
0000
0001
0000
0011
0000
0010
0000
0100
0000
2100
0000
0000
3001
,  // measure 71
0100
0001
1000
0001
0020
0000
0230
0000
4300
3000
0001
0010
0002
0000
1003
0100
,  // measure 72
0010
0100
1000
0001
2002
0000
3003
0000
2020
0000
3030
0000
0202
0000
0303
0000
,  // measure 73
2002
3003
0021
0000
0130
1000
1002
0000
,  // measure 74
0103
0010
2010
0000
3002
0003
0202
0303
,  // measure 75
0100
0010
2010
0000
3001
0010
0100
0010
,  // measure 76
0001
0000
2002
0003
3100
0010
0001
1001
,  // measure 77
1000
0000
0010
0000
0210
0000
0000
0000
0301
1000
0001
0000
0010
0000
0001
0000
,  // measure 78
1000
0010
0220
0000
0001
0000
4000
3330
,  // measure 79
0100
0000
0001
0000
2001
0000
0000
0000
3100
0000
0010
0001
1000
0100
1000
0000
,  // measure 80
0001
0100
0120
0000
2030
3000
1002
0000
,  // measure 81
0013
0100
1000
0000
1100
0000
0000
0000
0000
0000
1000
0000
0001
0000
0101
0000
,  // measure 82
0100
0010
2010
0000
3001
0100
0020
0000
,  // measure 83
1030
0001
0010
0000
0210
0000
0000
0000
1300
0000
0002
0000
0103
0000
0010
0000
,  // measure 84
1000
0001
0010
0220
0000
0030
1300
0001
,  // measure 85
0100
0010
2020
0000
0030
3001
0010
0100
,  // measure 86
0010
0001
2002
0003
3010
0100
0001
1000
,  // measure 87
0100
0010
0022
0030
1003
0010
0100
0001
,  // measure 88
1000
0000
1200
0000
0320
0032
2003
3020
,  // measure 89
0130
0001
2002
0003
3100
0010
0100
1000
,  // measure 90
0001
0100
0220
0300
1030
0001
0011
0000
,  // measure 91
0110
0000
0000
0000
2200
0000
0300
0000
3001
0100
0001
0000
1000
0000
1010
0000
,  // measure 92
0010
0100
0102
0000
1003
0100
0110
0020
,  // measure 93
0230
2300
3002
0000
0000
0000
0000
0000
,  // measure 94
0000
0000
0000
0003
;

//---------------dance-single - Ace Of Arrows (2018)----------------
#NOTES:
     dance-single:
     Ace Of Arrows (2018):
     Hard:
     7:
     0.672,0.295,0.084,1.000,0.024:
0000
0000
0000
0000
0000
0000
0000
1000
,
0100
0010
0002
0000
1003
0001
2000
0000
,
3001
0010
0002
0000
0013
0100
1000
0200
,
0000
0000
0000
0000
0000
0000
0000
0310
,
0000
0000
0001
0010
0100
0010
0002
0000
,
0000
0000
1003
0100
0010
0100
2000
0000
,
0000
0000
3001
0100
0010
0100
0002
0000
,
1003
0100
0010
0100
1000
0000
0002
0000
,
0103
0000
0001
1000
0100
1000
0002
0000
,
0000
0000
1003
0100
0010
0100
2000
0000
,
3001
0100
0001
0000
1000
0000
1200
0000
,
0310
0002
0000
1003
0010
0100
0002
0000
,
0000
0000
0000
0000
0000
0003
0000
2000
,
0000
3001
0010
0100
1000
0100
0020
0000
,
0000
0230
0000
2300
0000
3002
0000
2003
,
0000
3010
0200
0000
0000
0000
0302
0000
,
1003
0010
1000
0000
0002
0000
0013
0200
,
0000
2300
0000
3002
0000
0013
0200
0000
,
1300
0001
4000
0000
3010
0000
0200
0000
,
0301
0100
0010
1000
0020
0000
0130
0000
,
0002
0000
2003
0000
3001
0010
0400
0300
,
0000
1000
0100
0010
0001
0010
0200
0000
,
0000
2300
0000
3002
0000
0203
0000
0320
,
0000
1030
0002
0000
0000
0000
2003
0000
,
3100
0010
0200
0000
1300
0100
0010
0002
,
0000
2003
0000
3020
0000
0130
0002
0000
,
1003
0010
2000
0000
3001
0010
0100
2000
,
0000
3002
0000
0203
0000
0310
2000
0000
,
3001
1000
0002
0000
0013
0100
1000
0200
,
0000
0320
0000
0032
0000
1003
0020
0000
,
2030
0000
3004
0000
1003
0100
2000
0000
,
3001
0010
0100
0020
0000
0031
2000
0000
,
3002
0000
0403
0000
0310
1000
0020
0000
,
2030
3002
2003
3200
0300
1000
0002
0000
,
2003
3020
2030
3002
0013
0000
0210
0000
,
1300
0001
2000
0000
3001
0100
0002
0000
,
1003
0010
1000
0000
0001
1000
0002
0000
,
1003
0100
0010
0100
1000
0001
0200
0000
,
0010
0000
0302
0000
1003
0100
2000
0000
,
3001
0100
0010
1000
0010
0100
0002
0000
,
2003
3200
0320
0230
,
0000
1300
0002
0000
1003
0010
2000
0000
,
3001
0010
0002
0003
1000
0001
2000
0000
,
3001
0010
0100
0010
0001
0000
2001
0000
,
3100
0010
0200
0000
1300
0001
2000
0000
,
3001
0010
0100
1000
0100
0010
0002
0000
,
1000
0000
0403
0000
0310
1000
0020
0000
,
1030
0001
0010
0001
1000
0001
0200
0000
,
0320
0000
2030
0000
3001
0010
0002
0000
,
0003
1000
0100
0010
0001
0010
0200
0000
,
1300
0001
4000
3000
0001
0000
0200
0000
,
0310
2000
0000
0000
0000
0000
0000
3001
,
0010
0002
0000
2003
0000
3020
0000
1030
,
0001
1000
0200
0000
0310
0001
0020
0000
,
0000
0230
0000
2300
0000
3002
0000
0103
,
0010
1000
0001
0100
0020
0000
2030
0000
,
3001
0010
0200
0000
2300
0000
3001
0100
,
0010
1000
0001
1000
0100
0010
0002
0000
,
2003
0000
3400
0300
1000
0001
0200
0000
,
0320
2030
3002
0023
,
0230
0000
2300
0000
3002
0003
0202
0000
,
0003
0000
0310
1000
0001
0000
0201
0000
,
0310
1000
0001
0010
0100
0000
2000
0000
,
3001
0100
0010
1000
0001
0010
0100
0000
,
1000
1001
0001
0201
,
0310
1000
0001
0010
0100
1000
0002
0000
,
0000
0000
0203
0000
0310
1000
0002
0000
,
1003
0100
0020
0000
0130
1000
0002
0000
,
0043
0000
0000
0000
0000
0030
0200
0000
,
1300
0000
0001
0000
1000
0000
0100
0000
0010
0000
0001
0000
2000
0000
0000
3001
,
0010
0100
0010
0001
0020
0000
0230
0000
2300
0000
3001
1000
0002
0000
1003
0100
,
0010
0001
0010
0100
2000
0000
0000
0000
3001
0000
0000
0000
0200
0000
0000
0000
,
0310
0000
2010
0000
3001
0010
0200
0000
,
0310
0001
2000
0000
3020
0030
0210
0000
,
0301
1000
0200
0000
0310
0100
1000
0001
,
1000
0000
1020
0000
0130
0001
1000
0100
,
0010
0100
2000
0000
3001
0100
0010
1000
,
0001
0010
0200
0000
0010
0000
4300
0000
,
3001
0100
0020
0000
1030
0001
0010
0100
,
1000
0001
0200
0000
0320
0000
2030
0000
,
3001
0010
0100
0000
0000
1000
0001
0100
,
0010
0100
0002
0000
1003
0100
0020
0000
,
0130
1000
0001
0000
1000
0200
0000
0000
,
0000
0000
0000
2300
0000
0000
3001
0100
,
0010
1000
0002
0000
0000
2003
3010
0100
,
0001
1000
0200
0000
0000
0000
0310
0100
,
1000
0001
0200
0000
0310
0100
0001
1000
,
0100
0000
0120
0000
0031
0000
1000
0010
,
0100
0001
2000
0000
0000
0000
3001
0010
,
0100
1000
0002
0000
0103
0010
1000
0000
,
0001
0000
0021
0000
0130
2000
0000
3001
,
0010
0100
2000
0000
3001
0100
0001
1000
,
0100
0010
0200
0000
0000
0000
0000
0000
,
0000
0000
0000
0300
;

//---------------dance-single - Ace Of Arrows (2018)----------------
#NOTES:
     dance-single:
     Ace Of Arrows (2018):
     Medium:
     5:
     0.502,0.229,0.000,1.000,0.014:
0000
0000
0000
0000
0000
0000
0000
0001
,
0000
0010
0200
0000
0000
1300
0002
0000
,
0000
1003
0020
0000
1030
0002
0000
0203
,
0000
0000
0000
0000
0000
0000
0000
0300
,
0000
0000
0001
1000
0000
0001
0020
0000
,
0000
0000
0031
1000
0000
0010
2000
0000
,
0000
0000
3001
0200
0000
0310
2000
0000
,
3001
0020
0000
0031
1000
0000
0020
0000
,
1030
0000
0001
0020
0000
0031
2000
0000
,
0000
0000
3001
0200
0000
0301
2000
0000
,
3200
0310
0001
2000
,
0000
3002
0000
0023
0000
0130
2000
0000
,
0000
0000
0000
0000
0000
3000
0000
0000
,
0000
0001
0000
1000
0000
0001
0020
0000
,
0000
0230
0000
2300
0000
3002
0000
2003
,
0000
3010
0200
0000
0000
0000
0000
0300
,
0000
0000
0000
0000
0000
0000
0001
2000
,
0000
3020
0000
2030
0000
3001
0200
0000
,
0000
0310
4000
0000
3002
0000
0023
0000
,
0031
2000
0000
3001
0020
0000
0032
0000
,
2003
0000
3020
0000
0000
0130
0001
0000
,
0000
1000
0000
0100
0000
1000
0002
0000
,
0000
2003
0000
3020
0000
0230
0000
0302
,
0000
1003
0200
0000
0000
0000
0300
0000
,
0000
0000
0020
0000
0031
2000
0000
3010
,
0000
2000
0000
3002
0000
0103
0020
0000
,
0000
0030
2000
0000
3001
0020
0000
0230
,
0000
0320
0000
0032
0000
1003
0200
0000
,
0000
0000
0300
0000
0010
0002
0000
2003
,
0000
3020
0000
2030
0000
3001
0020
0000
,
0230
0000
4300
0000
3000
0001
0200
0000
,
0301
2000
0000
3002
0000
0013
0200
0000
,
2300
0000
3004
0000
0003
1000
0020
0000
,
0000
1030
0000
0001
0000
0010
0200
0000
,
0000
1300
0000
0001
0010
0000
0200
0000
,
0000
0000
0000
0000
0000
0000
0000
0300
,
0000
1000
0001
0000
1000
0000
0020
0000
,
0130
0001
0000
2000
0000
3001
0020
0000
,
0130
2000
3001
0200
,
0310
1000
0000
0002
0000
0013
0200
0000
,
1300
0002
2003
3020
,
0000
0130
0002
0000
0000
1003
0200
0000
,
0000
0310
0001
0000
1000
0000
0020
0000
,
0000
1030
0000
0001
0010
0000
0200
0000
,
0000
0000
0000
0300
1000
0000
0002
0000
,
0000
1003
0020
0000
0230
0000
0302
0000
,
2003
3400
0310
0002
,
1003
0010
0000
1000
0000
0001
0020
0000
,
0230
0000
2300
0000
0000
3001
0200
0000
,
0300
0010
0000
2000
0000
3001
2000
0000
,
0000
3100
0040
0000
0032
0000
1003
0000
,
0001
0200
0000
0000
0000
0000
0000
0300
,
0000
0020
0000
2030
0000
3002
0000
0003
,
0000
1000
0200
0000
0000
1300
0002
0000
,
0000
2003
0000
3020
0000
0230
0000
0300
,
0000
0001
0000
1000
0200
0000
0320
0000
,
0000
0031
1000
0000
0002
0000
0203
0000
,
0300
0010
0000
2000
0000
3001
0020
0000
,
0230
4300
3001
0200
,
0301
2000
3001
0020
,
0031
2000
3001
0020
,
0000
0000
0000
0130
1000
0000
0002
0000
,
0000
0003
0000
1000
0010
0000
0200
0000
,
0000
0302
0000
1003
0100
0000
0010
0000
,
0010
0100
0100
2000
,
0000
0000
0000
3001
0100
0000
0020
0000
,
0000
0000
2030
0000
0000
3000
0002
0000
,
0000
0000
0023
0000
0000
0030
0400
0000
,
0000
0000
0000
0000
0000
0300
2000
0000
,
0000
0000
0000
0000
3000
0000
0001
0000
0000
0000
0000
0000
2000
0000
0000
3010
,
0000
0010
0000
0000
0100
0000
0100
0000
0400
0000
0300
0000
0002
0000
0000
1003
,
0000
1000
0000
0000
0100
0000
0000
0000
0100
0000
0000
0000
0100
0000
0000
0000
,
0010
0000
0002
0000
0000
1003
0200
0000
,
0000
1300
0002
0000
0023
0000
0130
0000
,
1000
0000
0002
0000
1003
0020
0000
0130
,
0001
0000
2000
0000
0000
0000
0000
3000
,
0001
0000
0020
0000
0130
2000
0000
3002
,
0000
1003
0020
0000
0230
0000
0304
0000
,
1003
0000
0200
0000
0310
0002
0000
1003
,
0020
0230
0302
2003
,
0000
3001
0010
0000
0000
0200
0000
2300
,
0000
3001
0200
0000
0310
0000
2000
0000
,
3002
0000
0013
0000
0100
2000
0000
0000
,
0000
0000
0000
3000
0000
0000
0001
1000
,
0000
0001
0020
0000
0000
0000
0130
1000
,
0000
0001
0200
0000
0000
0000
0310
1000
,
0000
0001
0020
0000
0130
1000
0000
0001
,
1000
0000
0020
0000
0130
0000
0001
1000
,
0000
0001
0020
0000
0000
0000
0130
1000
,
0000
0001
2000
0000
0000
3100
0010
0000
,
0001
0000
2000
0000
3001
0200
0000
0320
,
0000
1030
0002
0000
0000
0000
0000
0003
,
0000
1000
0200
0000
0000
0000
0000
0000
,
0000
0000
0000
0300
;

//---------------dance-single - Ace Of Arrows (2018)----------------
#NOTES:
     dance-single:
     Ace Of Arrows (2018):
     Easy:
     4:
     0.267,0.098,0.000,0.350,0.000:
0000
0000
0000
0000
0000
0000
0000
1000
,
0000
1000
0000
1000
,
0000
0000
1000
0000
0000
0000
0000
0200
,
0000
0000
0000
0000
0000
0000
0000
0300
,
0000
0000
0000
0010
0000
0000
0020
0000
,
0000
0030
0000
0001
0000
0000
0002
0000
,
0000
0003
0000
1000
0000
0000
2000
0000
,
0000
3000
0000
0010
0000
0000
0100
0000
,
0100
0000
0000
0001
0000
0000
0002
0000
,
0003
0000
0000
1000
0000
0000
2000
0000
,
3000
0010
0010
0020
,
0030
0000
0000
0100
0000
0000
0200
0000
,
0000
0000
0000
0000
0000
0300
0000
0000
,
0000
0001
0000
0001
0000
0000
1000
0000
,
0000
1000
0000
1000
0000
0000
0000
0100
,
0000
0000
0200
0000
0000
0000
0000
0300
,
0000
0000
0000
0000
0000
0000
0000
0010
,
0000
0010
0000
0010
0000
0000
0001
0000
,
0001
0000
0004
0000
0003
0000
0000
1000
,
0000
1000
0000
1000
0000
0000
0010
0000
,
0010
0020
0000
0030
,
0000
0100
0000
0100
0000
0000
0001
0000
,
0000
0001
0000
0001
0000
0000
0000
1000
,
0000
2000
0000
3000
,
0000
0000
0001
0000
0001
0000
0000
0001
,
0000
0000
0000
0040
0000
0000
0030
0000
,
0000
0000
0100
0000
0000
0100
0000
0100
,
0000
0000
0000
1000
0000
0000
2000
0000
,
0000
0000
3000
0000
0000
0001
0000
0001
,
0000
0001
0000
0001
0000
0000
0100
0000
,
0100
0000
0100
0000
0000
0010
0000
0010
,
0000
0010
0000
0010
0000
0000
1000
0000
,
1000
4000
3000
0001
,
0000
0001
0000
0001
0000
0000
0100
0000
,
0000
0100
0000
0100
0000
0000
0020
0000
,
0000
0000
0000
0030
,
0000
0000
1000
1000
,
0000
0001
0000
0001
0000
0000
0100
0000
,
0100
0100
0000
0010
,
0000
0010
0000
0010
0000
0000
1000
0000
,
1000
2000
3000
0002
,
0003
0002
0003
2000
,
3000
1000
0000
0010
,
0000
0010
0000
0010
0000
0000
0200
0000
,
0000
0300
0000
0001
,
0000
0001
0000
0001
0000
0000
1000
0000
,
1000
4000
3000
0100
,
0000
0100
0000
0100
0000
0000
0010
0000
,
0010
0010
0000
0001
,
0000
1000
0000
1000
0000
0000
0010
0000
,
0010
0040
0030
0100
,
0000
0200
0000
0000
0000
0000
0000
0300
,
0000
0001
0000
0001
0000
0002
0000
0003
,
0000
2000
3000
0100
,
0000
0100
0000
0100
0000
0200
0000
0300
,
0000
1000
0000
1000
0000
0000
0002
0000
,
0003
0100
0100
0100
,
0000
0010
0000
0010
0000
0000
0100
0000
,
0100
0400
0300
0001
,
0001
0002
0003
1000
,
1000
2000
3000
0020
,
0000
0030
0000
0100
0000
0000
0200
0000
,
0000
0300
0000
0001
0000
0000
0002
0000
,
0000
0003
0000
1000
0000
0000
1000
0000
,
1000
2000
3000
0200
,
0000
0300
0000
0010
0000
0000
0010
0000
,
0000
0001
0000
0001
,
0000
1000
0000
4000
,
0000
0000
3000
0002
,
0000
0003
0000
2000
,
0000
3000
0000
0000
0100
0000
0100
0000
0100
0000
0000
0000
0020
0000
0000
0000
,
0000
0030
0000
0000
0001
0000
0000
0000
0001
0000
0000
0000
0002
0000
0000
0000
,
0003
2000
3000
2000
,
3000
0200
0300
0200
,
0300
0000
0010
0000
0000
0010
0000
0010
,
0000
0002
0000
0003
,
0000
0000
1000
0000
0000
1000
0000
1000
,
0000
0001
0001
0004
,
0003
0000
0100
0000
0100
0000
0000
0100
,
0000
0010
0010
0020
,
0000
0000
0030
0000
0000
1000
0000
1000
,
0000
0001
0001
0002
,
0003
0000
1000
0000
0000
2000
0000
0000
,
0000
0000
0000
3000
0000
0000
0000
0010
,
0000
0000
0020
0000
0000
0030
0000
0100
,
0000
0000
0200
0000
0000
0300
0000
0001
,
0000
0000
0002
0000
0000
0003
0000
1000
,
0000
0000
0100
0000
0100
0000
0000
0010
,
0000
0000
0020
0000
0000
0030
0000
0001
,
0000
0002
0003
1000
,
1000
0000
2000
0000
0000
3000
0000
0100
,
0000
0000
0200
0000
0000
0000
0300
0010
,
0000
0020
0000
0000
,
0000
0000
0000
0030
;

//---------------dance-single - Ace Of Arrows (2018)----------------
#NOTES:
     dance-single:
     Ace Of Arrows (2018):
     Beginner:
     3:
     0.176,0.098,0.000,0.343,0.000:
0000
0000
0000
0000
0000
0000
0000
0002
,
0000
0003
0000
0001
,
0000
0000
0001
0000
0000
0000
0000
0002
,
0000
0000
0000
0000
0000
0000
0000
0003
,
0000
0000
0000
2000
0000
0000
3000
0000
,
0000
0000
0000
2000
0000
0000
3000
0000
,
0000
0000
0000
0020
0000
0000
0030
0000
,
0000
0000
0000
1000
0000
0000
0000
1000
,
0000
0000
0000
2000
0000
0000
3000
0000
,
0000
0000
0000
2000
0000
0000
3000
0000
,
0000
0010
0000
0010
,
0000
0000
0000
0020
0000
0000
0030
0000
,
0000
0000
0000
0000
,
0000
0000
0000
0100
0000
0000
0000
0100
,
0000
0000
0000
0100
0000
0000
0000
0200
,
0000
0000
0000
0300
,
0000
0000
0000
0000
0000
0000
0000
0001
,
0000
0000
0000
0001
0000
0000
0000
0002
,
0000
0000
0003
0000
0000
0000
0000
2000
,
0000
0000
0000
3000
0000
0000
0100
0000
,
0000
0100
0000
0100
,
0000
0000
0000
1000
0000
0000
0000
1000
,
0000
0000
0000
1000
0000
0000
0000
2000
,
0000
0000
0000
3000
,
0000
0000
0000
0001
0000
0000
0000
0001
,
0000
0000
0000
0001
0000
0000
0002
0000
,
0000
0003
1000
0000
0000
0000
0000
1000
,
0000
0000
0000
1000
0000
0000
2000
0000
,
0000
0000
3000
0000
0000
0000
0000
0010
,
0000
0000
0000
0010
0000
0000
0020
0000
,
0000
0030
0000
0100
,
0000
0000
0000
0100
0000
0000
0200
0000
,
0000
0300
0000
0002
,
0000
0000
0000
0003
0000
0000
2000
0000
,
0000
0000
0000
3000
0000
0000
0020
0000
,
0000
0000
0000
0030
,
0000
0000
0000
0100
,
0000
0000
0000
0100
0000
0000
0200
0000
,
0000
0300
0000
0001
,
0000
0000
0000
0001
0000
0000
0002
0000
,
0000
0003
0000
1000
,
0000
1000
0000
2000
,
0000
3000
0000
0100
,
0000
0000
0000
0100
0000
0000
0200
0000
,
0000
0300
0000
0010
,
0000
0000
0000
0010
0000
0000
0020
0000
,
0000
0030
0000
0001
,
0000
0000
0000
0001
0000
0000
0002
0000
,
0000
0003
0000
1000
,
0000
0000
0000
1000
0000
0000
2000
0000
,
0000
3000
0000
0020
,
0000
0000
0000
0000
0000
0000
0000
0030
,
0000
0000
0000
0100
0000
0000
0000
0000
,
0000
0100
0000
0000
0000
0000
0001
0000
,
0000
0000
0000
0001
0000
0000
0000
0000
,
0000
0002
0000
0003
0000
0000
1000
0000
,
0000
1000
0000
1000
,
0000
0000
0000
0010
0000
0000
0010
0000
,
0000
0010
0000
0100
,
0000
0100
0000
0200
,
0000
0300
0000
0002
,
0000
0000
0000
0003
0000
0000
2000
0000
,
0000
0000
0000
3000
0000
0000
0020
0000
,
0000
0000
0000
0030
0000
0000
0100
0000
,
0000
0100
0000
0200
,
0000
0000
0000
0300
0000
0000
0001
0000
,
0000
0001
0000
0001
,
0000
0001
0000
0004
,
0000
0000
0003
2000
,
0000
3000
0000
0020
,
0030
0100
0100
0200
,
0300
0001
0000
0001
,
0000
0001
0000
0001
,
0000
0002
0000
0003
,
0000
0000
1000
0000
0000
0000
0000
1000
,
0000
2000
0000
3000
,
0000
0000
0010
0000
0000
0000
0000
0010
,
0000
0020
0000
0030
,
0000
0000
0100
0000
0000
0000
0000
0100
,
0000
0100
0000
0200
,
0000
0000
0300
0000
0000
0000
0000
0001
,
0000
0001
0000
0001
,
0000
0002
0000
0000
,
0000
0000
0000
0003
0000
0000
0000
2000
,
0000
0000
0000
3000
0000
0000
0000
2000
,
0000
0000
0000
3000
0000
0000
0000
0002
,
0000
0000
0000
0003
0000
0000
0000
0002
,
0000
0000
0003
0000
0000
0000
0000
0020
,
0000
0000
0000
0030
0000
0000
0000
0020
,
0000
0000
0000
0030
0000
0000
0100
0000
,
0000
0000
0100
0000
0000
0000
0000
0200
,
0000
0000
0000
0300
0000
0000
0000
2000
,
0000
0000
0000
0000
,
0000
0000
0000
3000
;
