#TITLE:Answer;
#SUBTITLE:;
#ARTIST:Lizz Robinett;
#TITLETRANSLIT:;
#SUBTITLETRANSLIT:;
#ARTISTTRANSLIT:;
#GENRE:;
#CREDIT:Ace Of Arrows;
#BANNER:Answer - Bn.png;
#BACKGROUND:Answer - Bg.png;
#LYRICSPATH:;
#CDTITLE:Ace Of Arrows.png;
#MUSIC:Answer.ogg;
#OFFSET:1.900;
#SAMPLESTART:47.700;
#SAMPLELENGTH:12.000;
#SELECTABLE:YES;
#BPMS:0.000=115.000,438.000=80.000;
#STOPS:;
#BGCHANGES:3.500=Answer Video.avi=1.000=1=0=1===CrossFade==,
99999=-nosongbg-=1.000=0=0=0 // don't automatically add -songbackground-
;
#KEYSOUNDS:;

//---------------dance-single - AceOfArrows (2018)----------------
#NOTES:
     dance-single:
     AceOfArrows (2018):
     Hard:
     7:
     0.477,0.263,0.000,0.625,0.021: // measure 1
0000
0000
0000
0000
,  // measure 2
0000
0000
0000
0000
,  // measure 3
0001
0000
0010
0100
0000
0010
0000
0001
,  // measure 4
0000
1000
0010
1000
0001
0000
1000
0010
,  // measure 5
1000
0000
0010
0100
0000
0010
0000
1000
,  // measure 6
0000
0001
0010
0001
1000
0000
0001
0100
,  // measure 7
0001
0000
1000
0001
2000
0000
3100
0020
,  // measure 8
0000
0000
0130
1000
0002
0000
2003
0000
,  // measure 9
3000
0000
0001
0100
0001
1000
0001
0020
,  // measure 10
0000
0031
1000
0001
0100
0010
0100
0001
,  // measure 11
1000
0200
0000
0320
0000
0130
0000
2000
,  // measure 12
0000
0000
0000
3000
0000
0000
0000
0001
,  // measure 13
0100
0002
0000
1003
0000
0020
0000
0130
,  // measure 14
0002
0000
0000
0003
2000
0000
3200
0000
,  // measure 15
0320
0000
0130
1000
0200
0000
0310
0002
,  // measure 16
0000
1003
0010
1000
0002
0000
0023
0000
,  // measure 17
0030
0000
0100
0010
0200
0000
1300
0002
,  // measure 18
0000
1003
0010
1000
0002
0000
0023
0031
,  // measure 19
1000
0001
0000
0200
0000
0320
0000
2030
,  // measure 20
0000
0000
0000
3000
0000
0000
0000
0001
,  // measure 21
0010
0200
0000
1300
0000
0002
0000
2003
,  // measure 22
0000
0000
0000
0000
0000
0000
3001
0010
0002
0000
0000
0000
0003
0000
1000
0000
,  // measure 23
0020
0000
1030
0010
0100
0010
1000
0002
,  // measure 24
0000
0013
0100
1000
0100
0010
0001
1000
,  // measure 25
0001
1000
0010
0100
0010
1000
0002
0000
,  // measure 26
1003
0100
0010
0200
0000
1300
0001
1000
,  // measure 27
0010
0100
0010
1000
0001
0010
0100
2000
,  // measure 28
0000
3001
0100
0010
0100
0001
1000
0001
,  // measure 29
0020
0230
2300
3002
,  // measure 30
0203
0000
0300
0010
0100
0001
0000
1000
,  // measure 31
0010
1000
0001
0200
0000
0301
1000
0020
,  // measure 32
0000
0000
1030
0000
0001
0000
0010
0000
0100
1000
0100
0000
0000
0000
0010
0000
,  // measure 33
0001
1000
0001
0100
0010
1000
0001
0020
,  // measure 34
0000
0130
1000
0001
0200
0000
0300
0010
,  // measure 35
0100
0001
1000
0002
0000
0013
0001
2000
,  // measure 36
0000
0000
3100
0000
0010
0000
0100
0000
1000
0001
2000
0000
3000
0000
0010
0000
,  // measure 37
0100
0010
1000
0001
0010
0100
0010
0002
,  // measure 38
0000
1003
0010
0100
0002
0000
0003
1000
,  // measure 39
0100
0010
0100
2000
0000
3001
0100
0002
,  // measure 40
0000
0000
1003
0000
0100
0000
0010
0000
0001
0010
0001
0000
0000
0000
1000
0000
,  // measure 41
0100
0010
0001
0010
0100
1000
0001
2000
,  // measure 42
0000
3010
0100
0001
0200
0000
0300
0010
,  // measure 43
1000
0001
0010
0002
0000
1003
0010
0200
,  // measure 44
0000
0000
0301
0000
1000
0000
0001
0000
0010
0100
0010
0000
0000
0000
0002
0000
,  // measure 45
0000
1003
0010
0100
0010
1000
0001
0020
,  // measure 46
0000
0130
1000
0001
0200
0000
0300
0000
,  // measure 47
0020
0000
1030
0000
0000
0001
0010
0001
,  // measure 48
1000
0010
0100
0002
0000
1003
0100
0020
,  // measure 49
0000
0032
1000
0003
0000
1000
0010
0100
,  // measure 50
0010
1000
0001
0020
0000
0130
1000
0002
,  // measure 51
0000
0203
0010
0300
0000
0010
1000
0010
,  // measure 52
0100
0001
1000
0001
0010
0100
1000
0002
,  // measure 53
0000
1003
0200
0000
0010
0000
0300
0000
0000
0000
0010
0000
0001
0000
1000
0000
,  // measure 54
0002
0003
0000
1000
0020
1030
0001
0000
,  // measure 55
0010
0000
0001
1000
0001
0100
0010
0200
,  // measure 56
0000
0301
0100
0010
2000
0000
3002
0000
,  // measure 57
0003
0000
0010
0100
2000
0000
3001
0200
,  // measure 58
0000
0310
1000
0001
0020
0000
0130
1000
,  // measure 59
0001
0100
0000
0020
0000
1030
0000
0002
,  // measure 60
0000
0000
0000
0003
0000
0000
0000
1000
,  // measure 61
0100
0010
0000
0200
0000
2300
0000
3001
,  // measure 62
0200
0000
0310
1000
,  // measure 63
0001
0000
1000
0100
0020
0000
0130
2000
,  // measure 64
0000
3001
1000
0100
0020
0000
0032
0000
,  // measure 65
0003
0000
1000
0010
0200
0000
0301
2000
,  // measure 66
0000
3100
0010
0100
2000
0000
3001
0100
,  // measure 67
0010
0200
0000
0302
0000
1003
0000
0020
,  // measure 68
0000
0000
0000
0030
0000
0000
0000
1000
,  // measure 69
0001
0020
0000
0130
0000
0010
0000
0002
,  // measure 70
0000
0000
0000
1003
0200
0000
0300
0010
,  // measure 71
0001
1000
0010
0100
0010
1000
0001
0020
,  // measure 72
0000
0130
1000
0001
0100
0010
1000
0001
,  // measure 73
0010
0100
1000
0001
0100
0010
1000
0002
,  // measure 74
0003
0010
0100
2000
0000
3001
0100
0010
,  // measure 75
1000
0001
0010
0100
0010
0001
1000
0020
,  // measure 76
0000
0130
0001
1000
0100
0010
0100
1000
,  // measure 77
0002
0203
0320
2030
,  // measure 78
3002
0000
0003
0010
0100
1000
0000
0001
,  // measure 79
0100
0010
1000
0002
0000
1003
0100
0020
,  // measure 80
0000
0000
0130
0000
1000
0000
0001
0000
1000
0010
1000
0000
0000
0000
0001
0000
,  // measure 81
0100
0010
1000
0001
0010
0100
1000
0002
,  // measure 82
0000
1003
0100
0010
0200
0000
0300
1000
,  // measure 83
0001
0100
0010
2000
0000
3001
0010
0002
,  // measure 84
0000
0000
1003
0000
0010
0000
0100
0000
0001
1000
0001
0000
0000
0000
0010
0000
,  // measure 85
0100
1000
0001
0100
0010
0100
0001
2000
,  // measure 86
0000
3001
0100
0010
0200
0000
0300
0001
,  // measure 87
1000
0100
0010
0200
0000
1300
0001
2000
,  // measure 88
0000
0000
3010
0000
0100
0000
0001
0000
1000
0100
1000
0000
0000
0000
0002
0000
,  // measure 89
0000
0103
0010
1000
0001
0010
0100
2000
,  // measure 90
0000
3001
0100
0010
0200
0000
0300
0001
,  // measure 91
1000
0100
0010
0200
0000
1300
0001
2000
,  // measure 92
0000
0000
3010
0000
1000
0000
0001
0000
0010
0100
0020
0000
0030
0000
0002
0000
,  // measure 93
0000
1003
0010
0100
0001
0100
0010
2000
,  // measure 94
0000
3001
0010
0100
2000
0000
3001
0100
,  // measure 95
0200
0000
0310
0000
0000
1000
0001
2000
,  // measure 96
0000
3100
0010
0001
0010
0100
1000
0001
,  // measure 97
0002
0000
0103
0000
0000
0010
0100
0020
,  // measure 98
0000
1030
0001
0100
0200
0000
0301
1000
,  // measure 99
2000
0000
3100
0000
0000
0010
0001
0020
,  // measure 100
0000
0130
1000
0001
0100
0010
0100
0001
,  // measure 101
0002
0000
1003
0100
0200
0000
0310
0001
,  // measure 102
0002
0000
0003
0000
2000
0000
3010
0100
,  // measure 103
0100
0000
0001
2000
0000
3001
0010
0200
,  // measure 104
0000
1300
0001
0010
0001
1000
0010
0100
,  // measure 105
0200
0000
0301
2000
0000
3001
0100
0020
,  // measure 106
0000
0130
0001
1000
2000
0000
3100
0010
,  // measure 107
0020
0000
0031
2000
0000
3010
0100
0002
,  // measure 108
0000
1003
0100
0010
0100
1000
0001
0100
,  // measure 109
0200
0000
0310
1000
2000
0000
3001
0020
,  // measure 110
0030
0020
0130
1000
0001
0100
0010
2000
,  // measure 111
0000
0000
3001
0020
0000
0000
0000
0000
,  // measure 112
0000
0000
0000
0030
;

//---------------dance-single - AceOfArrows (2018)----------------
#NOTES:
     dance-single:
     AceOfArrows (2018):
     Challenge:
     9:
     0.648,0.383,0.857,0.805,0.032: // measure 1
0000
0000
0000
0000
,  // measure 2
0000
0000
0000
0000
,  // measure 3
1001
0000
0001
0101
0000
1010
0000
1001
,  // measure 4
0000
0001
0010
0100
1000
0001
0100
0010
,  // measure 5
1010
0000
1000
1001
0000
0011
0000
0110
,  // measure 6
0000
0100
2000
0001
0100
0001
0001
3100
,  // measure 7
0120
0000
0031
1000
1020
0000
0130
0102
,  // measure 8
0000
0000
1003
0100
0120
0000
0032
1003
,  // measure 9
1020
0000
0130
0001
1001
1000
0100
0120
,  // measure 10
0000
0031
1000
0010
0100
0001
1000
0100
,  // measure 11
0110
0000
0020
0000
0000
0030
0012
0000
0000
0000
1003
0000
0000
0000
2020
0000
,  // measure 12
0000
0000
0000
3030
0000
0000
0000
0010
,  // measure 13
0110
0000
0200
0000
0000
0300
0101
0000
0000
0000
0002
0000
0000
0003
2001
0000
,  // measure 14
0200
0000
0000
3300
0220
0330
0022
0033
,  // measure 15
2001
0000
3010
0100
0102
0000
1003
1200
,  // measure 16
0000
0310
0001
1000
1020
0000
0230
0300
,  // measure 17
0102
0003
1001
1000
0100
0000
0010
0012
,  // measure 18
0000
1003
0010
0100
0102
0000
2003
3100
,  // measure 19
0110
0010
0000
0012
0000
2003
0000
0020
,  // measure 20
0000
0000
0000
3030
0000
0000
0000
0010
,  // measure 21
0110
0200
0000
0302
0000
2003
3000
1200
,  // measure 22
0000
0000
0000
0000
0000
0000
0310
0001
2000
0000
3010
0000
0110
0000
0100
0000
,  // measure 23
0102
0000
1003
0100
0110
0010
0001
2001
,  // measure 24
0000
3010
0100
0001
1001
1000
0100
0010
,  // measure 25
0011
0001
1000
0010
0110
0100
0102
1003
,  // measure 26
1200
0310
0001
1000
0020
0130
0001
1000
,  // measure 27
1010
0010
0100
0001
1001
1000
0100
0120
,  // measure 28
0000
0031
1000
0010
0110
0100
0001
1000
,  // measure 29
2200
3000
0020
0300
0002
0030
2000
3003
,  // measure 30
2020
0000
0000
0000
3000
0000
0230
0000
0301
1000
0001
0000
0010
0000
0100
0000
,  // measure 31
2100
3001
0100
0120
0000
1030
0001
2001
,  // measure 32
0000
0000
3010
0000
1000
0000
0001
0000
0010
0100
1000
0000
0000
0000
0001
0000
,  // measure 33
0101
0100
0010
1000
1001
0001
0010
0210
,  // measure 34
0000
1300
0001
0100
0220
0000
0330
0100
,  // measure 35
0101
0001
1000
1200
0000
0310
0001
2001
,  // measure 36
0000
0000
3010
0000
1000
0000
0001
0000
1000
0100
0020
0000
0030
0000
0001
0000
,  // measure 37
1001
1000
0010
0100
0101
0001
1000
1200
,  // measure 38
0000
0310
0011
0001
2001
3010
0110
0100
,  // measure 39
0101
0001
1000
1020
0000
0130
0001
2001
,  // measure 40
0000
0000
3100
0000
0010
0000
0100
0000
1000
0001
0100
0000
0000
0000
0010
0000
,  // measure 41
1010
1000
0001
0010
0100
1000
0001
0201
,  // measure 42
0000
0310
1000
0001
0021
0130
1100
1000
,  // measure 43
1001
0001
0100
0120
0000
1030
0001
0201
,  // measure 44
0000
0000
0310
0000
1000
0000
0001
0000
1000
0100
0020
0000
0030
0000
0210
0000
,  // measure 45
0000
1300
0001
0100
0110
0010
1000
1002
,  // measure 46
0000
0013
0100
1000
1002
0000
0103
0010
,  // measure 47
2010
0000
3001
0010
0000
0110
0100
1000
,  // measure 48
1001
0001
0100
0120
0000
1030
0001
0021
,  // measure 49
0000
0230
1000
0300
0000
1000
0001
0100
,  // measure 50
0110
0010
1000
2002
3003
0001
0100
0120
,  // measure 51
0000
2030
0001
3000
0000
0001
0010
0100
,  // measure 52
1100
1000
0001
0100
0110
0010
1000
1002
,  // measure 53
0000
0013
0200
0000
1000
0000
0300
0000
0000
0000
1000
0000
0001
0000
0100
0000
,  // measure 54
0220
0000
0330
0010
2010
3001
0101
0000
,  // measure 55
0120
0000
1030
0001
0011
0010
0100
2100
,  // measure 56
0000
3001
0100
0010
2010
0000
0002
3003
,  // measure 57
0021
0000
0130
1000
0002
0000
0103
0120
,  // measure 58
0000
1030
0001
0010
0210
0000
1300
0001
,  // measure 59
0101
0200
0000
0320
0000
2030
3000
2002
,  // measure 60
0000
0000
0000
3003
0000
0001
0101
0100
,  // measure 61
0110
0020
0000
2030
0000
3002
0003
0021
,  // measure 62
0200
0000
0000
0330
2200
3300
2002
3003
,  // measure 63
0201
0000
0310
1000
1002
0000
0013
0210
,  // measure 64
0000
1300
0001
0100
0120
0000
2030
3000
,  // measure 65
1002
0000
0013
0100
2100
0000
3001
0201
,  // measure 66
0000
0310
1000
0001
0021
0000
0130
1000
,  // measure 67
1001
0002
0000
0203
0000
0320
0030
2020
,  // measure 68
0000
0000
0000
3030
0000
1000
1001
0001
,  // measure 69
0011
0020
0000
0230
0000
1300
0000
1002
,  // measure 70
0000
0000
0000
0103
0010
1000
1001
0001
,  // measure 71
0011
0010
0100
1000
1001
0001
0100
0120
,  // measure 72
0000
1030
0001
0010
0110
0100
1000
0001
,  // measure 73
0101
0100
0010
1000
1001
0001
0010
0210
,  // measure 74
1300
0001
0100
0010
2000
3001
0010
0100
,  // measure 75
1100
1000
0001
0100
0110
0010
1000
1002
,  // measure 76
0000
0013
0100
1000
1001
0001
0100
0010
,  // measure 77
2010
0000
0002
3000
0200
0003
0020
0300
,  // measure 78
2000
0000
0000
0000
3030
0000
0010
0000
1000
0001
1000
0000
0100
0000
0010
0000
,  // measure 79
0011
0001
1000
0020
0000
0130
0001
2001
,  // measure 80
0000
0000
3100
0000
0010
0000
0100
0000
1000
0001
0100
0000
0000
0000
0010
0000
,  // measure 81
0110
0100
0001
1000
1100
0100
0010
0012
,  // measure 82
0000
1003
0010
0100
0202
0000
0303
0001
,  // measure 83
1001
1000
0100
0120
0000
0031
1000
1020
,  // measure 84
0000
0000
0130
0000
0001
0000
1000
0000
0100
0010
0001
0000
0000
0000
1000
0000
,  // measure 85
1010
0010
0100
0001
1000
0100
0010
0012
,  // measure 86
0000
1003
0010
0100
0102
1003
1100
0100
,  // measure 87
0110
0010
0001
2001
0000
3010
0100
0102
,  // measure 88
0000
0000
1003
0000
0100
0000
0010
0000
0100
1000
0001
0000
0000
0000
0201
0000
,  // measure 89
0000
0310
1000
0001
0101
0100
0010
2010
,  // measure 90
0000
3001
0010
0100
2100
3001
0101
0100
,  // measure 91
0110
0010
1000
1002
0000
0013
0100
2100
,  // measure 92
0000
0000
3001
0000
0100
0000
0010
0000
0100
0001
2000
0000
3000
0000
1200
0000
,  // measure 93
0000
0310
0001
1000
1010
0010
0100
0102
,  // measure 94
0000
0000
1003
0000
1100
0000
0100
0000
0120
0000
0000
0030
0011
0000
0001
0000
,  // measure 95
2001
0000
3010
0100
0000
0001
1000
1200
,  // measure 96
0000
0310
0001
1000
1010
0010
0110
0100
,  // measure 97
0102
0000
1003
0100
0000
0010
0100
2100
,  // measure 98
0000
0000
3001
0000
0100
0000
0010
0000
2010
0000
0000
3000
1001
0000
0001
0000
,  // measure 99
0201
0000
0310
1000
0000
0001
0010
0210
,  // measure 100
0000
1300
0001
1000
1010
0010
0110
0100
,  // measure 101
0102
0000
0000
0003
1001
0000
1000
0000
1200
0000
0000
0300
0110
0000
0010
0000
,  // measure 102
0022
0000
0033
0000
2002
3003
1010
0010
,  // measure 103
0210
0000
0301
2000
0000
3002
0003
0021
,  // measure 104
0000
0130
1000
0001
0101
0100
0110
0010
,  // measure 105
2010
0000
3001
0200
0000
0310
1000
1002
,  // measure 106
0000
0000
0013
0000
0110
0000
0100
0000
2100
0000
0000
3000
1001
0000
0001
0000
,  // measure 107
0201
0000
0000
0000
0310
0000
2000
0000
0000
0000
3002
0000
0000
0003
0021
0000
,  // measure 108
0000
0130
1000
0001
1001
1000
1010
0010
,  // measure 109
0210
0000
0000
0300
0101
0000
0001
0000
2001
0000
0000
3000
1100
0000
0200
0000
,  // measure 110
0000
0320
0031
1000
0020
0230
0302
2003
,  // measure 111
0000
0000
0000
3000
0000
0000
0002
0000
1003
0100
0010
0002
0000
0000
0000
0000
0000
0000
0000
0000
0000
0000
0000
0000
,  // measure 112
0000
0000
0000
0003
;

//---------------dance-single - AceOfArrows (2018)----------------
#NOTES:
     dance-single:
     AceOfArrows (2018):
     Medium:
     5:
     0.370,0.120,0.000,0.608,0.000: // measure 1
0000
0000
0000
0000
,  // measure 2
0000
0000
0000
0000
,  // measure 3
1000
0000
0001
0010
0000
0001
0000
1000
,  // measure 4
0000
0000
0000
0000
,  // measure 5
0001
0000
1000
0100
0000
0010
0000
0100
,  // measure 6
0000
2000
0000
0000
,  // measure 7
3000
0000
0001
0100
0002
0000
1003
0200
,  // measure 8
0000
0000
0000
0310
0002
0000
2003
0000
,  // measure 9
3000
0000
0001
0100
0001
0000
1000
0020
,  // measure 10
0000
0130
0001
0000
1000
0000
0001
0000
,  // measure 11
1000
0100
0000
0020
0000
0130
0000
2000
,  // measure 12
0000
0000
0000
3000
0000
0000
0000
0001
,  // measure 13
1000
0001
0000
0100
0000
0010
0000
0200
,  // measure 14
0000
0000
0000
0300
0000
0000
0000
0000
,  // measure 15
0000
0000
0001
1000
0002
0000
0013
0200
,  // measure 16
0000
0000
1300
0001
2000
0000
3200
0000
,  // measure 17
0300
0000
0010
0001
0020
0000
0130
2000
,  // measure 18
0000
0000
3001
0100
0002
0000
2003
0000
,  // measure 19
3001
0010
0000
0200
0000
0310
0000
0002
,  // measure 20
0000
0000
0000
0003
0000
0000
0000
1000
,  // measure 21
0010
2000
0000
3001
0000
0010
0000
0200
,  // measure 22
0000
0000
0000
1300
0002
0000
0003
1000
,  // measure 23
0020
0000
1030
0001
1000
0000
0001
0020
,  // measure 24
0000
0000
0031
1000
0001
0000
1000
0000
,  // measure 25
0010
0100
0010
0000
1000
0001
2000
0000
,  // measure 26
3000
0000
0000
0000
0000
0000
0000
0001
,  // measure 27
0010
0000
0001
1000
0001
0000
1000
0020
,  // measure 28
0000
0000
1030
0001
1000
0000
0001
0010
,  // measure 29
0002
2003
3200
0320
,  // measure 30
0032
0000
0000
1003
0010
1000
0000
0001
,  // measure 31
0020
0000
0031
2000
0000
0000
3001
0020
,  // measure 32
0000
0031
1000
0000
0001
0100
0000
0010
,  // measure 33
0100
0000
0010
0000
1000
0000
0001
0020
,  // measure 34
0000
0000
0031
1000
0002
0000
0003
1000
,  // measure 35
0100
0000
0010
0200
0000
0000
1300
0002
,  // measure 36
0000
1003
0010
0000
0100
0001
0000
1000
,  // measure 37
0002
0000
0013
0000
0100
0000
0010
0002
,  // measure 38
0000
0000
1003
0100
2000
0000
3000
0001
,  // measure 39
0010
0000
0001
2000
0000
0000
3001
0200
,  // measure 40
0000
0310
1000
0000
0001
0010
0000
0001
,  // measure 41
1000
0000
0001
0010
0001
0000
1000
0020
,  // measure 42
0000
0000
0130
0010
0200
0000
0300
0001
,  // measure 43
1000
0000
0001
0020
0000
0000
0031
2000
,  // measure 44
0000
3001
0010
0000
0001
1000
0000
0020
,  // measure 45
0000
1030
0001
0000
0010
0000
0100
2000
,  // measure 46
0000
0000
3001
0100
0002
0000
0003
0000
,  // measure 47
0000
0000
1000
0000
0000
2000
0000
3001
,  // measure 48
0100
0000
0001
2000
0000
0000
3001
0020
,  // measure 49
0000
0030
0100
0000
0000
0100
0000
1000
,  // measure 50
0002
0000
1003
0010
0000
1000
0001
2000
,  // measure 51
0000
3000
0010
0000
0000
0010
0000
1000
,  // measure 52
0001
0000
0010
0100
0020
0000
0031
2000
,  // measure 53
0000
3200
0000
0300
0000
0000
0000
0010
,  // measure 54
0002
0000
0003
0000
1000
0001
2000
0000
,  // measure 55
3000
0000
0010
0100
0020
0000
1030
0002
,  // measure 56
0000
1003
0100
0000
0020
0000
0032
0000
,  // measure 57
0003
0000
1000
0100
2000
0000
3001
0200
,  // measure 58
0000
0301
1000
0000
0002
0000
0013
0000
,  // measure 59
0100
2000
0000
3001
0000
0100
0000
0020
,  // measure 60
0000
0000
0000
0030
0000
0000
0000
1000
,  // measure 61
0001
1000
0000
0002
0000
0013
0000
0200
,  // measure 62
0000
0000
0300
0000
,  // measure 63
0000
0000
1000
0001
2000
0000
3100
0020
,  // measure 64
0000
0031
1000
0000
0002
0000
0203
0000
,  // measure 65
0300
0000
0010
0100
0020
0000
1030
0002
,  // measure 66
0000
1003
0100
0000
0020
0000
0130
0000
,  // measure 67
1000
0001
0000
0020
0000
0130
0000
2000
,  // measure 68
0000
0000
0000
3000
0000
0000
0000
0001
,  // measure 69
0100
0002
0000
1003
0000
0100
0000
0020
,  // measure 70
0000
0000
0000
0130
2000
0000
3000
0001
,  // measure 71
0020
0000
0031
1000
0001
0000
1000
0020
,  // measure 72
0000
0000
0130
0001
0100
0000
0010
0000
,  // measure 73
1000
0001
1000
0000
0001
0000
0010
0200
,  // measure 74
0300
0000
0000
0000
0000
0000
0000
1000
,  // measure 75
0002
0000
0013
0100
0010
0000
0001
2000
,  // measure 76
0000
0000
3001
0100
0001
0000
1000
0001
,  // measure 77
2000
3200
0320
0032
,  // measure 78
2003
0000
0000
3001
0100
0002
0000
1003
,  // measure 79
0200
0000
0310
0002
0000
1003
0010
2000
,  // measure 80
0000
3001
0010
0000
0001
1000
0000
0010
,  // measure 81
0200
0000
0301
1000
0001
0000
1000
0200
,  // measure 82
0000
0000
0310
0001
0020
0000
0030
0001
,  // measure 83
1000
0000
0010
0200
0000
0301
0000
2000
,  // measure 84
0000
3001
0010
0000
0001
1000
0000
0001
,  // measure 85
0010
0000
0001
0000
1000
0000
0010
0200
,  // measure 86
0000
0000
0301
1000
0002
0000
0003
1000
,  // measure 87
0200
0000
0310
0002
0000
1003
0010
2000
,  // measure 88
0000
3001
0020
0000
0031
1000
0000
0020
,  // measure 89
0000
1030
0001
0000
1000
0000
0100
0020
,  // measure 90
0000
0000
0031
1000
0002
0000
0003
1000
,  // measure 91
0010
0000
1000
0002
0000
1003
0100
2000
,  // measure 92
0000
0000
3001
0000
0010
0100
0000
2000
,  // measure 93
0000
3001
0100
0000
0001
0000
1000
0200
,  // measure 94
0000
0000
1300
0001
2000
0000
3001
0010
,  // measure 95
0001
0000
1000
0000
0000
1000
0000
0020
,  // measure 96
0000
0000
1030
0001
2000
0000
3001
0100
,  // measure 97
0001
0000
1000
0000
0000
1000
0000
0002
,  // measure 98
0000
0000
0013
0100
0020
0000
0031
1000
,  // measure 99
0002
0000
0103
0000
0000
0100
0000
0020
,  // measure 100
0000
0000
1030
0010
2000
0000
3001
1000
,  // measure 101
0002
0000
1003
0001
2000
0000
3001
1000
,  // measure 102
0002
0000
0003
0000
0000
0000
1000
0100
,  // measure 103
2000
0000
3000
0000
0000
0000
0000
0002
,  // measure 104
0000
0000
1003
0010
2000
0000
3001
0010
,  // measure 105
0002
0000
0003
0000
0000
0000
0000
2000
,  // measure 106
0000
0000
3100
0010
0200
0000
1300
0100
,  // measure 107
2000
0000
3000
0000
0000
0000
0000
0002
,  // measure 108
0000
0000
1003
0010
2000
0000
3001
0100
,  // measure 109
0002
0000
1003
0010
2000
0000
3001
0200
,  // measure 110
0000
0301
2000
0000
3002
0000
0013
0200
,  // measure 111
0000
0300
2000
0000
0000
0000
0000
0000
,  // measure 112
0000
0000
0000
3000
;

//---------------dance-single - AceOfArrows (2018)----------------
#NOTES:
     dance-single:
     AceOfArrows (2018):
     Easy:
     3:
     0.176,0.120,0.000,0.158,0.000: // measure 1
0000
0000
0000
0000
,  // measure 2
0000
0000
0000
0000
,  // measure 3
0001
0001
0001
0000
,  // measure 4
0200
0000
0300
0000
,  // measure 5
0010
0010
0010
0000
,  // measure 6
2000
0000
3000
0000
,  // measure 7
0000
0001
0001
0000
,  // measure 8
0010
0010
0020
0030
,  // measure 9
0000
0100
0100
0000
,  // measure 10
1000
1000
2000
3000
,  // measure 11
0001
0000
0000
1000
0000
1000
0000
2000
,  // measure 12
0000
0000
0000
3000
0000
0000
0000
0000
,  // measure 13
0010
0000
0000
0100
0000
0100
0000
0200
,  // measure 14
0000
0000
0000
0300
0000
0000
0000
0000
,  // measure 15
0000
0001
0001
0000
,  // measure 16
1000
1000
2000
3000
,  // measure 17
0000
0100
0100
0000
,  // measure 18
0010
0010
0020
0030
,  // measure 19
0001
0000
0000
1000
0000
1000
0000
2000
,  // measure 20
0000
0000
0000
3000
0000
0000
0000
0000
,  // measure 21
0010
0000
0000
0100
0000
0100
0000
0200
,  // measure 22
0000
0000
0300
0000
,  // measure 23
0001
0001
0001
0000
,  // measure 24
1000
1000
1000
0000
,  // measure 25
0100
0100
0200
0300
,  // measure 26
0000
0000
0000
0000
,  // measure 27
0010
0010
0010
0000
,  // measure 28
0100
0100
0100
0000
,  // measure 29
1000
1000
2000
0000
,  // measure 30
3000
0000
0001
0000
,  // measure 31
0100
0100
0200
0000
,  // measure 32
0300
0010
0010
0000
,  // measure 33
1000
1000
1000
0000
,  // measure 34
0001
0001
0001
0000
,  // measure 35
0010
0010
0010
0000
,  // measure 36
0100
0100
0100
0000
,  // measure 37
1000
1000
1000
0000
,  // measure 38
0001
0001
0001
0000
,  // measure 39
0200
0000
0300
0000
,  // measure 40
0010
0010
0010
0000
,  // measure 41
1000
1000
1000
0000
,  // measure 42
0001
0001
0001
0000
,  // measure 43
0020
0000
0030
0000
,  // measure 44
0100
0100
0100
0000
,  // measure 45
1000
1000
1000
0000
,  // measure 46
0001
0001
0001
0000
,  // measure 47
2000
0000
3000
0000
,  // measure 48
0010
0000
0010
0000
,  // measure 49
0020
0030
0000
0000
,  // measure 50
1000
0000
1000
0000
,  // measure 51
2000
3000
0000
0000
,  // measure 52
0001
0000
1000
1000
,  // measure 53
2000
0000
0000
3000
0000
0000
0000
0000
,  // measure 54
0001
0000
0100
0100
,  // measure 55
0000
0010
0010
0000
,  // measure 56
0100
0100
0200
0300
,  // measure 57
0000
0001
0001
0000
,  // measure 58
1000
1000
2000
3000
,  // measure 59
0001
0000
0000
0010
0000
0010
0000
0020
,  // measure 60
0000
0000
0000
0030
0000
0000
0000
0000
,  // measure 61
0100
0000
0000
1000
0000
1000
0000
2000
,  // measure 62
0000
0000
3000
0000
,  // measure 63
0000
0001
0001
0000
,  // measure 64
0100
0100
0200
0300
,  // measure 65
0000
0010
0010
0000
,  // measure 66
1000
1000
2000
3000
,  // measure 67
0001
0000
0000
0010
0000
0010
0000
0020
,  // measure 68
0000
0000
0000
0030
0000
0000
0000
0000
,  // measure 69
0100
0000
0100
0000
,  // measure 70
0200
0000
0300
0000
,  // measure 71
1000
1000
1000
0000
,  // measure 72
0001
0001
0001
0000
,  // measure 73
0100
0100
0200
0000
,  // measure 74
0300
0000
0000
0000
,  // measure 75
0010
0010
0010
0000
,  // measure 76
1000
1000
1000
0000
,  // measure 77
0001
0001
0002
0000
,  // measure 78
0003
0000
0010
0000
,  // measure 79
0200
0000
0300
0000
,  // measure 80
1000
1000
1000
0000
,  // measure 81
0001
0001
0001
0000
,  // measure 82
0100
0100
0100
0000
,  // measure 83
0020
0000
0030
0000
,  // measure 84
1000
1000
1000
0000
,  // measure 85
0001
0001
0001
0000
,  // measure 86
0010
0010
0010
0000
,  // measure 87
0100
0100
0100
0000
,  // measure 88
1000
1000
1000
0000
,  // measure 89
0002
0000
0003
0000
,  // measure 90
0100
0100
0100
0000
,  // measure 91
0020
0000
0030
0000
,  // measure 92
1000
1000
1000
0000
,  // measure 93
0001
0001
0001
0000
,  // measure 94
0010
0010
0010
0000
,  // measure 95
0000
0000
0000
0000
,  // measure 96
0001
0000
1000
1000
,  // measure 97
1000
0000
0000
0000
,  // measure 98
0010
0000
0100
0100
,  // measure 99
0100
0000
0000
0000
,  // measure 100
0001
0000
1000
1000
,  // measure 101
1000
0001
0001
1000
,  // measure 102
1000
0000
0000
0100
,  // measure 103
0100
0000
0000
0000
,  // measure 104
0010
0000
0100
0100
,  // measure 105
0100
0000
0000
0000
,  // measure 106
1000
0000
0001
0001
,  // measure 107
0001
0000
0000
0000
,  // measure 108
1000
0000
0010
0010
,  // measure 109
0010
0100
0100
0010
,  // measure 110
0000
0020
0000
0000
2030
0000
0000
3002
,  // measure 111
0000
0003
0200
0000
0000
0000
0000
0000
,  // measure 112
0000
0000
0000
0300
;

//---------------dance-single - AceOfArrows (2018)----------------
#NOTES:
     dance-single:
     AceOfArrows (2018):
     Beginner:
     1:
     0.121,0.048,0.000,0.214,0.000: // measure 1
0000
0000
0000
0000
,  // measure 2
0000
0000
0000
0000
,  // measure 3
2000
0000
0000
0000
,  // measure 4
3000
0000
0000
0000
,  // measure 5
0002
0000
0000
0000
,  // measure 6
0003
0000
0000
0000
,  // measure 7
0000
0000
0100
0000
,  // measure 8
0200
0000
0300
0000
,  // measure 9
0000
0000
0010
0000
,  // measure 10
0020
0000
0030
0000
,  // measure 11
1000
0000
1000
0000
,  // measure 12
2000
0000
3000
0000
,  // measure 13
0001
0000
0001
0000
,  // measure 14
0002
0000
0003
0000
,  // measure 15
0000
0000
0010
0000
,  // measure 16
0020
0000
0030
0000
,  // measure 17
0000
0000
0001
0000
,  // measure 18
0002
0000
0003
0000
,  // measure 19
0010
0000
0010
0000
,  // measure 20
0020
0000
0030
0000
,  // measure 21
0100
0000
0100
0000
,  // measure 22
0200
0000
0300
0000
,  // measure 23
1000
0000
1000
0000
,  // measure 24
2000
0000
3000
0000
,  // measure 25
0001
0000
0002
0000
,  // measure 26
0003
0000
0000
0000
,  // measure 27
0100
0000
0100
0000
,  // measure 28
0200
0000
0300
0000
,  // measure 29
0010
0000
0010
0000
,  // measure 30
0020
0000
0030
0000
,  // measure 31
2000
0000
3000
0000
,  // measure 32
0001
0000
0001
0000
,  // measure 33
0002
0000
0003
0000
,  // measure 34
0020
0000
0030
0000
,  // measure 35
0100
0000
0100
0000
,  // measure 36
0200
0000
0300
0000
,  // measure 37
1000
0000
1000
0000
,  // measure 38
2000
0000
3000
0000
,  // measure 39
0001
0000
0001
0000
,  // measure 40
0002
0000
0003
0000
,  // measure 41
0100
0000
0100
0000
,  // measure 42
0200
0000
0300
0000
,  // measure 43
0001
0000
0001
0000
,  // measure 44
0002
0000
0003
0000
,  // measure 45
1000
0000
1000
0000
,  // measure 46
2000
0000
3000
0000
,  // measure 47
0000
0000
0000
0000
,  // measure 48
0001
0000
0001
0000
,  // measure 49
0002
0000
0003
0000
,  // measure 50
0100
0000
0100
0000
,  // measure 51
0200
0000
0300
0000
,  // measure 52
0010
0000
0010
0000
,  // measure 53
0020
0030
0000
0000
,  // measure 54
0100
0000
0200
0300
,  // measure 55
0000
0000
0001
0000
,  // measure 56
0002
0000
0003
0000
,  // measure 57
0000
0000
1000
0000
,  // measure 58
2000
0000
3000
0000
,  // measure 59
0010
0000
0010
0000
,  // measure 60
0020
0000
0030
0000
,  // measure 61
0100
0000
0100
0000
,  // measure 62
0200
0000
0300
0000
,  // measure 63
0000
0000
0001
0000
,  // measure 64
0002
0000
0003
0000
,  // measure 65
0000
0000
1000
0000
,  // measure 66
2000
0000
3000
0000
,  // measure 67
0010
0000
0010
0000
,  // measure 68
0020
0000
0030
0000
,  // measure 69
0100
0000
0100
0000
,  // measure 70
0200
0000
0300
0000
,  // measure 71
0001
0000
0001
0000
,  // measure 72
0002
0000
0003
0000
,  // measure 73
1000
0000
2000
0000
,  // measure 74
3000
0000
0000
0000
,  // measure 75
0100
0000
0100
0000
,  // measure 76
0200
0000
0300
0000
,  // measure 77
0010
0000
0010
0000
,  // measure 78
0020
0000
0030
0000
,  // measure 79
0002
0000
0003
0000
,  // measure 80
1000
0000
1000
0000
,  // measure 81
2000
0000
3000
0000
,  // measure 82
0010
0000
0010
0000
,  // measure 83
0020
0000
0030
0000
,  // measure 84
0100
0000
0100
0000
,  // measure 85
0200
0000
0300
0000
,  // measure 86
0001
0000
0001
0000
,  // measure 87
0002
0000
0003
0000
,  // measure 88
1000
0000
1000
0000
,  // measure 89
2000
0000
3000
0000
,  // measure 90
0100
0000
0100
0000
,  // measure 91
0200
0000
0300
0000
,  // measure 92
0010
0000
0010
0000
,  // measure 93
0020
0000
0030
0000
,  // measure 94
0001
0000
0001
0000
,  // measure 95
0001
0000
0000
0000
,  // measure 96
1000
0000
1000
0000
,  // measure 97
1000
0000
0000
0000
,  // measure 98
0010
0000
0010
0000
,  // measure 99
0010
0000
0000
0000
,  // measure 100
0100
0000
0100
0000
,  // measure 101
0100
0000
0100
0000
,  // measure 102
0100
0000
0000
0000
,  // measure 103
0001
0000
0000
0000
,  // measure 104
1000
0000
1000
0000
,  // measure 105
1000
0000
0000
0000
,  // measure 106
0001
0000
0001
0000
,  // measure 107
0001
0000
0000
0000
,  // measure 108
0010
0000
0010
0000
,  // measure 109
0010
0000
0010
0000
,  // measure 110
0200
0000
0000
0300
0200
0000
0000
0300
,  // measure 111
0000
2000
0000
0000
,  // measure 112
0000
0000
0000
3000
;
