#TITLE:Ageage Again;
#SUBTITLE:;
#ARTIST:Miku Hatsune;
#TITLETRANSLIT:;
#SUBTITLETRANSLIT:;
#ARTISTTRANSLIT:;
#GENRE:;
#CREDIT:Ace Of Arrows;
#BANNER:Ageage Again - Bn.png;
#BACKGROUND:Ageage Again - Bg.jpg;
#LYRICSPATH:;
#CDTITLE:Ace Of Arrows.png;
#MUSIC:Ageage Again.ogg;
#OFFSET:0.940;
#SAMPLESTART:48.200;
#SAMPLELENGTH:12.000;
#SELECTABLE:YES;
#BPMS:0.000=175.000,209.000=350.000,223.000=175.000,240.000=350.000,241.000=175.000,538.000=350.000,538.500=175.000,539.000=350.000,539.500=175.000,540.000=350.000,540.500=175.000,541.000=350.000,541.500=175.000,553.000=350.000,553.500=175.000,571.000=350.000,585.000=175.000;
#DISPLAYBPM:175.000;
#STOPS:209.000=0.171
,210.000=0.171
,211.000=0.171
,212.000=0.171
,213.000=0.171
,214.000=0.171
,215.000=0.171
,216.000=0.086
,216.500=0.086
,217.000=0.086
,217.500=0.086
,218.000=0.086
,218.500=0.086
,219.000=0.086
,219.500=0.086
,220.000=0.043
,220.250=0.043
,220.500=0.043
,220.750=0.043
,221.000=0.043
,221.250=0.043
,221.500=0.043
,221.750=0.043
,222.000=0.043
,222.250=0.043
,222.500=0.043
,222.750=0.043
,240.000=0.043
,240.250=0.043
,240.500=0.043
,240.750=0.043
,504.000=4.800
,538.000=0.086
,539.000=0.086
,540.000=0.086
,541.000=0.086
,553.000=0.086
,571.000=0.171
,572.000=0.171
,573.000=0.171
,574.000=0.171
,575.000=0.171
,576.000=0.171
,577.000=0.171
,578.000=0.086
,578.500=0.086
,579.000=0.086
,579.500=0.086
,580.000=0.086
,580.500=0.086
,581.000=0.086
,581.500=0.086
,582.000=0.043
,582.250=0.043
,582.500=0.043
,582.750=0.043
,583.000=0.043
,583.250=0.043
,583.500=0.043
,583.750=0.043
,584.000=0.043
,584.250=0.043
,584.500=0.043
,584.750=0.043
;
#BGCHANGES:0.000=Ageage Again - Bg.jpg=1.000=0=0=1=Centered====,
2.500=Ageage Again Video.avi=1.000=1=0=1===CrossFade==,
99999=-nosongbg-=1.000=0=0=0 // don't automatically add -songbackground-
;
#KEYSOUNDS:;

//---------------dance-single - AceOfArrows (2018)----------------
#NOTES:
     dance-single:
     AceOfArrows (2018):
     Hard:
     8:
     0.587,0.276,0.022,0.865,0.029:
0000
0000
0000
0000
,
0000
0000
0000
0000
,
0001
0000
1000
0000
0001
0010
0000
0100
,
0000
0000
0010
0000
0001
1000
0000
0000
,
0010
0000
0100
0000
0001
1000
0000
0100
,
0000
0000
0010
0000
0100
4000
0000
0000
,
3001
0000
0100
0000
0010
1000
0000
0001
,
0000
0000
0010
0000
0100
2000
0000
0000
,
3002
0203
0320
0000
,
4030
0004
0000
0000
0000
0000
0000
0000
0000
0000
0000
0000
0000
0000
0000
0000
,
3003
0000
0002
0000
0203
0000
0000
0320
,
0000
0230
0000
0301
1000
0100
1000
0002
,
0000
1003
0010
0000
0100
0001
0000
1000
,
0000
0000
0100
0000
0010
0004
0000
0000
,
0003
0000
1000
0000
0040
0000
0030
0100
,
0000
0002
0000
1003
0100
0010
0100
2000
,
0000
3001
0100
0000
0010
0100
0000
0002
,
0000
0003
2000
3200
,
0320
0000
0031
2000
0000
3020
0000
0130
,
0000
0001
2000
0000
3400
0000
0300
0000
,
0020
0000
0130
2000
0000
3002
0000
0203
,
0000
0310
2000
0000
3002
0000
0003
1000
,
0200
0000
0310
0002
0000
0000
0003
1000
,
0020
0000
0130
0002
0000
0000
0003
0000
,
2000
0000
0000
3200
0000
0000
0310
0000
0002
0000
0000
2003
0000
0000
3010
0000
,
0200
0000
0000
0300
,
0000
0001
1000
0100
0010
0100
1000
0001
,
0000
1000
0001
0100
0010
0100
0001
1000
,
0000
0100
0010
0001
1000
0001
0010
0200
,
0000
1300
0001
0010
0000
0200
0000
0000
,
0300
1000
0001
0010
0001
1000
0010
0200
,
0300
0001
1000
0100
0010
0100
1000
0001
,
0000
1000
0010
0100
0001
0100
0010
2000
,
0000
3000
0000
0001
0010
0001
1000
0020
,
0030
0000
0000
0000
,
0000
0000
0000
0000
0000
0000
0000
0200
,
0000
0301
1000
1000
0001
0001
0100
0100
,
0020
0000
1030
0002
0000
0003
0000
2000
,
0000
3100
0010
0100
1000
0001
0100
0010
,
1000
0001
0010
0100
0010
0002
0000
2003
,
0000
3001
0010
0010
0001
0001
1000
1000
,
0020
0000
0130
0002
0000
0003
0000
0000
,
2000
3200
0320
0230
,
2300
0000
0000
3001
0400
0000
0300
0020
,
0000
1030
0001
0001
0010
0010
0100
0100
,
2000
0000
3001
0200
0000
0300
0000
0020
,
0000
1030
0001
0010
0001
1000
0010
0100
,
0010
1000
0001
0010
0100
2000
0000
3002
,
0000
0103
0010
0010
1000
1000
0001
0001
,
0010
0100
1000
0002
0000
1003
0100
0020
,
0000
0031
1000
0020
0000
0030
0000
0000
,
0000
0100
0001
1000
0100
0010
0100
2000
,
0000
3000
0001
0000
0010
0000
0010
0000
,
0100
0100
1000
1000
,
0001
0001
0100
0100
0010
0010
1000
1000
,
0004
0400
0000
0000
0000
0000
0000
0000
0000
0000
0000
0000
0303
0000
0000
0000
,
0210
0000
0301
0000
1000
0100
0000
0010
,
0000
0000
0100
0000
1000
0001
0000
0000
,
1000
0000
0010
0000
0100
0001
0000
1000
,
0000
0000
0100
0000
0010
0001
0000
0000
,
4000
0000
3010
0000
0100
0001
0000
1000
,
0000
0000
0100
0000
0010
0002
0000
0003
,
2000
3020
0230
0000
,
0304
4000
0000
0000
0000
0000
0000
0000
0000
0000
0000
0000
0000
0000
0000
0000
,
3003
0000
0002
0000
0043
0000
0030
0200
,
0000
2300
0000
3001
0100
0010
1000
0002
,
0000
1003
0100
0000
0010
0100
0000
1000
,
0000
0000
0001
0000
0100
0010
0000
0000
,
2000
0000
3001
0010
0200
0000
0300
2000
,
0000
3002
0000
1003
0010
0100
0010
2000
,
0000
3001
0010
0000
0100
1000
0000
0004
,
0000
0000
2003
3020
,
0230
0000
0301
2000
0000
3200
0000
0320
,
0000
0031
2000
0000
3040
0000
0030
0000
,
0200
0000
0301
2000
0000
3200
0000
0320
,
0000
0031
2000
0000
3040
0000
0030
0100
,
0002
0000
1003
0200
0000
0000
0300
0010
,
0002
0000
1003
0020
0000
0000
0030
0000
,
0200
0000
0000
0000
0000
0000
0000
0000
0000
0302
0000
0000
0000
0000
0000
0000
0000
0000
1003
0000
0000
0000
0000
0000
0001
0000
0000
0000
0000
0000
0000
0000
0010
0000
0000
0000
0000
0000
0000
0000
0100
0000
0000
0000
0000
0000
0000
0000
,
4000
0000
3001
0004
,
0003
1000
0100
0010
0100
1000
0001
2000
,
3000
0001
0100
0010
1000
0010
0100
0002
,
0003
1000
0100
0010
0001
0010
0100
2000
,
0000
3001
0100
0020
0000
2030
0000
0000
,
3000
0001
0100
0001
1000
0100
1000
0002
,
0003
1000
0010
1000
0001
0010
0001
2000
,
3000
0001
0100
0010
1000
0010
0100
0002
,
0000
0003
0000
1000
0100
0010
0100
2000
,
3000
0000
0000
0000
,
0000
0000
0000
0000
0000
0000
0000
0002
,
0000
0103
0010
0010
1000
1000
0001
0001
,
0020
0000
0130
2000
0000
3000
0000
0002
,
0000
0103
0010
1000
0001
0010
0100
1000
,
0001
0100
0010
0100
0001
2000
0000
3002
,
0000
0013
0100
0100
1000
1000
0001
0001
,
0200
0000
0310
2000
0000
3000
0000
0000
,
0002
0023
0230
2300
,
3002
0000
0000
1003
0040
0000
0030
0200
,
0000
0310
1000
1000
0001
0001
0010
0010
,
0200
0000
1300
0002
0000
0003
0000
2000
,
0000
3010
0100
0001
2000
0000
3100
0010
,
0100
1000
0001
0100
0010
2000
0000
3002
,
0000
0103
0010
0010
1000
1000
0001
0001
,
0010
0100
1000
0002
0000
1003
0010
0200
,
0000
0301
1000
0020
0000
0000
0030
0000
,
0000
1000
0001
0010
0100
0010
0001
2000
,
0000
3010
0100
0002
0000
1003
0100
0020
,
0000
0130
2000
0000
3000
0000
0004
0000
,
0000
0000
0000
0000
,
0003
0000
2000
0000
3010
0200
0000
0000
,
0302
0000
0000
2003
0000
3100
0020
0000
,
0230
2300
3002
0203
,
0320
0000
0000
1030
0002
0000
0000
0000
,
0023
0000
0000
0130
2000
0000
0000
0000
,
3000
0000
0002
0000
0103
0020
0000
2030
,
0000
0000
3002
0000
0023
0000
0130
2000
,
0000
0000
3002
0000
0103
0020
0000
0030
,
2020
0000
3030
0202
0000
0000
0000
0000
,
0303
0001
1000
0100
0010
0100
1000
0001
,
0100
0010
0100
0010
1000
0001
0020
0000
,
0030
0100
1000
0001
0100
0001
1000
0100
,
1000
0001
1000
0001
0200
0000
0300
0000
,
0000
0000
0010
0100
0010
0000
1000
0000
0001
0000
0100
0000
0020
0000
0000
0000
,
0030
0000
1000
0001
1000
0000
0100
0000
0010
0000
0001
0000
2000
0000
0000
0000
,
3020
0000
0130
0002
0000
1003
0200
0000
,
0310
0000
0002
0000
0000
0000
1003
0000
0010
0100
0020
0000
0000
0000
0000
0000
,
0030
0000
0000
2000
0000
3010
0100
0100
,
0001
0001
1000
1000
0200
0000
0310
0002
,
0000
0003
0000
2000
0000
3010
0100
0001
,
1000
0100
0010
0100
1000
0001
0100
0010
,
1000
0002
0003
0020
0000
0031
1000
1000
,
0010
0010
0100
0100
0002
0000
1003
0200
,
0000
0300
0000
0000
0020
0000
0230
0000
,
2300
0000
3002
0000
0203
0000
0000
0310
,
2000
0000
0000
3002
0000
0013
0100
0100
,
1000
1000
0001
0001
0200
0000
0310
2000
,
0000
3000
0000
0002
0000
0013
0100
1000
,
0002
0000
0103
0010
1000
0001
0010
0100
,
1000
0002
0000
2003
0000
3010
0100
0100
,
0001
0001
1000
1000
0100
0010
0100
2000
,
3000
0001
0100
0020
0000
1030
0001
0200
,
0000
0300
0000
0000
0000
0001
1000
0100
,
0010
0001
1000
0002
0000
0003
0010
0000
,
0100
0100
1000
1000
,
0001
0000
0001
0000
0100
0100
0010
0010
,
1000
0000
1000
0000
0001
0000
0001
0000
0040
0400
0000
0000
0000
0000
0000
0000
,
0000
0330
2100
3001
,
0100
0010
0000
1000
0000
0000
0001
0000
,
0010
0100
0000
0000
1000
0000
0001
0000
,
0100
0010
0000
1000
0000
0000
0001
0000
,
0010
0100
0000
0000
1000
0000
0001
0000
,
0100
0010
0000
1000
0000
0000
0001
0000
,
0010
0100
0000
0000
2000
0000
3002
0000
,
0203
0000
0000
0000
0000
0000
0000
0000
0340
4000
0000
0000
0000
0000
0000
0000
,
0000
0000
0000
3030
2002
0000
0000
0000
,
3003
0000
0000
0000
;

//---------------dance-single - Ace Of Arrows (2018)----------------
#NOTES:
     dance-single:
     Ace Of Arrows (2018):
     Challenge:
     11:
     0.976,0.691,0.611,0.825,0.524: // measure 1
0000
0000
0000
0000
,  // measure 2
0000
0000
0000
0004
0000
0000
0000
0000
,  // measure 3
1003
0000
0001
0010
0001
0000
1000
0000
0010
0100
0010
0000
1000
0000
0001
0000
,  // measure 4
0010
0000
0100
1000
0100
0000
1000
0000
0001
0100
0001
0000
1000
0000
0100
0000
,  // measure 5
0010
0000
0001
1000
0001
0000
0100
0000
0010
1000
0010
0000
0100
0000
0001
0000
,  // measure 6
1000
0000
0100
0010
0100
0000
1000
0000
0001
0100
0010
1000
0001
1000
0010
0100
,  // measure 7
0001
0000
1000
0100
1000
0000
0001
0000
0010
0100
0010
0000
0001
0000
1000
0000
,  // measure 8
0010
0000
1000
0001
1000
0000
0100
0000
0010
0100
0010
0000
0001
0000
1000
0000
,  // measure 9
0010
0000
1000
0001
1000
0000
0100
0000
0010
0001
0010
0000
0100
0000
1000
0000
,  // measure 10
0004
0400
0000
0000
0000
0000
0000
0000
0000
0000
0000
0000
0000
0000
0303
0000
,  // measure 11
0120
0000
1030
0001
1000
0000
0100
0000
0010
0100
0010
0000
0001
0000
2000
0000
,  // measure 12
0000
0000
3020
0000
0000
0000
0130
0000
0001
1000
0001
0000
0010
0000
0210
0000
,  // measure 13
0000
0000
1300
0001
1000
0000
0010
0000
0100
0001
0100
0000
0010
0000
1000
0000
,  // measure 14
0001
0000
0010
0100
0010
0000
0001
0000
1000
0010
1000
0000
0001
0000
0010
0000
,  // measure 15
0210
0000
1300
0001
1000
0000
0010
0000
0100
0001
0100
0000
0010
0000
1000
0000
,  // measure 16
0000
0000
0002
0000
0000
0000
0013
0000
0100
1000
0100
0000
0010
0000
0012
0000
,  // measure 17
0000
0000
1003
0010
1000
0000
0001
0000
0010
0100
0010
0000
0001
0000
2000
0000
,  // measure 18
0000
0000
3010
0100
0010
0000
1000
0000
0001
0010
0001
0000
1000
0000
0100
0000
,  // measure 19
0120
0M00
0031
2001
000M
3010
0100
0102
,  // measure 20
0M00
1003
0100
0010
0012
10M3
0010
0100
,  // measure 21
0102
0000
1003
1200
M000
0310
0001
2001
,  // measure 22
000M
3010
0100
0001
2001
310M
0010
0012
,  // measure 23
10M3
0010
0100
0102
0M00
1003
0100
0010
,  // measure 24
0012
10M3
0010
0210
00M0
0301
1000
0100
,  // measure 25
0120
0000
0000
0002
0000
0003
0130
0000
2100
0000
0000
0020
0000
0030
3001
0000
,  // measure 26
0202
0000
0000
0000
1000
0000
0020
0030
,  // measure 27
0303
0000
0100
0000
0010
0000
1000
0000
0001
0000
1000
0010
1000
0000
1001
0000
,  // measure 28
0000
0000
0001
0010
0001
0000
1000
0000
0010
0100
0010
0000
1000
0000
1001
0000
,  // measure 29
0000
0000
0001
0010
0001
0000
1000
0000
0100
0010
0100
0000
1000
0000
1002
0000
,  // measure 30
0000
0000
0103
0000
0010
0000
2010
0000
0000
0000
3001
0000
0010
0000
0100
1000
,  // measure 31
0100
0000
0010
0001
0010
0000
0001
0000
1000
0010
1000
0000
0001
0000
0101
0000
,  // measure 32
0000
0000
0100
0010
0100
0000
0001
0000
1000
0100
1000
0000
0001
0000
0011
0000
,  // measure 33
0000
0000
0010
0100
0010
0000
0001
0000
1000
0010
1000
0000
0001
0000
0201
0000
,  // measure 34
0000
0000
0310
1000
0010
0000
0100
0000
0001
1000
0001
0000
0010
0000
0110
0000
,  // measure 35
0000
0000
0000
0000
,  // measure 36
0000
0000
0000
0000
0000
0000
0000
0000
1000
0000
1000
0000
2000
3000
1002
0000
,  // measure 37
0000
0000
0103
0000
0010
M00M
0010
0000
0100
M00M
0100
0000
0010
M00M
0010
0000
,  // measure 38
0012
0000
1003
1200
0000
0310
0001
2001
,  // measure 39
0000
0000
3010
0100
0010
0000
1000
0000
0001
0010
0001
0000
1000
0000
0010
0000
,  // measure 40
0200
0000
0301
1000
0001
0000
0010
0000
0100
0010
0100
0000
1000
0000
1002
0000
,  // measure 41
0000
0000
0013
0000
0100
M00M
0100
0000
0010
M00M
0010
0000
0100
M00M
0100
0000
,  // measure 42
0102
0000
0000
0000
1003
0100
1000
0000
0002
0000
0103
0000
0010
0000
1000
0001
,  // measure 43
2000
0000
3200
0000
0320
0030
0012
0003
,  // measure 44
2001
0000
0000
0000
0000
0000
3010
0000
0100
0001
1000
0100
1000
0001
0200
0000
,  // measure 45
0000
0000
0310
0000
0100
M00M
0100
0000
0010
M00M
0010
0000
0100
M00M
0100
0000
,  // measure 46
2100
0000
3001
0201
0000
0310
1000
1002
,  // measure 47
0000
0000
0013
0100
0010
0000
0001
0000
1000
0010
1000
0000
0001
0000
0010
0000
,  // measure 48
0200
0000
1300
0001
1000
0000
0010
0000
0100
0001
0100
0000
0010
0000
2010
0000
,  // measure 49
0000
0000
3001
0000
0010
M00M
0010
0000
0100
M00M
0100
0000
0010
M00M
0010
0000
,  // measure 50
2000
3001
0010
0110
0000
0100
1000
1002
,  // measure 51
0000
0103
0010
2010
0000
3001
0010
0100
,  // measure 52
2100
3001
0100
0010
1000
0001
0010
0100
,  // measure 53
2100
3001
0100
0010
,  // measure 54
1000
0001
0010
0100
,  // measure 55
1000
1000
0001
0001
0100
0100
0010
0010
,  // measure 56
1000
0010
0100
0001
0100
0010
1000
0001
0010
0100
1000
0001
0400
0000
0000
0300
,  // measure 57
0120
0000
1030
0001
0100
0000
0010
0000
1000
0001
0100
0000
0010
0000
1000
0000
,  // measure 58
0001
0000
0010
0100
1000
0000
0001
0000
1000
0010
0100
0000
0001
0000
1000
0000
,  // measure 59
0200
0000
0310
0100
1000
0000
0001
0000
0100
0010
1000
0000
0001
0000
0010
0000
,  // measure 60
0100
0000
1000
0001
0100
0000
0010
0000
0100
0001
1000
0000
0100
0010
0001
0010
,  // measure 61
0100
1000
0100
0010
0002
0000
1003
0010
0100
0000
0001
0000
1000
0100
0010
0000
,  // measure 62
0100
0000
1000
0001
0100
0000
0010
0000
0100
0010
1000
0000
0001
0000
0100
0000
,  // measure 63
0010
0000
1000
0001
0010
0000
0100
0000
1000
0001
0100
0000
0001
0000
0100
0000
,  // measure 64
0040
4000
0000
0000
0000
0000
0000
0000
0000
0000
0000
0000
0000
0000
3030
0000
,  // measure 65
1002
0000
0013
0100
1000
0000
0001
0000
0201
0000
0310
0000
1000
0000
1002
0000
,  // measure 66
0000
0000
0013
0100
1000
0000
0001
0000
1000
0010
0100
0000
0001
0000
2001
0000
,  // measure 67
0000
0000
3100
0010
0001
0000
1000
0000
0010
0100
0001
0000
1000
0000
0001
0000
,  // measure 68
0010
0000
0100
1000
0001
0000
1000
0000
0010
0100
0001
0000
1000
0000
0100
0000
,  // measure 69
0120
0000
0001
0001
0230
0000
0300
2100
,  // measure 70
0000
3002
0000
0103
0010
1000
0001
0201
,  // measure 71
0000
0000
0310
1000
0001
0000
0010
0000
0001
1000
0010
0000
0100
0000
0002
0000
,  // measure 72
0000
0000
0000
0000
1003
0100
0010
0001
1000
0001
0010
0100
1000
0001
0100
0001
,  // measure 73
2000
3001
0010
0210
00M0
2300
3000
1002
,  // measure 74
M000
0103
0010
1000
1002
M103
0110
0000
,  // measure 75
2010
30M1
0010
0210
00M0
1300
0001
0201
,  // measure 76
000M
0310
1000
0001
0010
0100
1100
1M00
,  // measure 77
1002
M103
0010
2010
00M0
3001
0011
001M
,  // measure 78
0210
13M0
0001
0201
000M
0310
1010
10M0
,  // measure 79
1002
0000
0000
0000
0000
0000
0000
0000
0000
0020
0000
0000
0000
0000
0000
0030
0000
0000
1003
0000
0000
0000
0000
0000
1020
0000
0000
0000
0000
0000
0000
0000
0200
0000
0000
0000
0000
0000
0000
0000
1300
0000
0030
0000
0000
0000
0000
0000
,  // measure 80
2200
0000
0000
0000
0010
0000
0002
0003
,  // measure 81
3300
0000
1000
0000
0001
0000
0100
0000
0010
0000
1000
0001
0010
0000
0110
0000
,  // measure 82
0000
0000
0100
1000
0001
0000
0100
0000
0010
1000
0001
0000
1000
0000
1010
0000
,  // measure 83
0000
0000
0010
0100
0001
0000
1000
0000
0100
0010
0001
0000
1000
0000
1200
0000
,  // measure 84
0000
0000
0310
0001
1000
0000
1020
0000
0130
0001
1000
0010
1000
0001
0010
0001
,  // measure 85
1000
0000
0010
0100
0001
0000
1000
0000
0100
0010
0001
0000
1000
0000
1010
0000
,  // measure 86
0000
0000
0010
0100
0001
0000
1000
0000
0100
0010
0001
0000
1000
0000
1010
0000
,  // measure 87
0000
0000
0010
0100
0001
0000
1000
0000
0001
0010
0100
0000
1000
0000
1002
0000
,  // measure 88
0000
0000
0103
0010
1000
0000
0001
0000
1000
0100
0010
0000
0001
0000
0101
0000
,  // measure 89
0000
0000
0000
0000
,  // measure 90
0000
0000
0000
0000
0000
0000
0000
0000
0001
0000
0001
0000
0002
0003
2001
0000
,  // measure 91
0000
0000
3010
0000
0100
M00M
0100
0000
0010
M00M
0010
0000
0100
M00M
0100
0000
,  // measure 92
2100
0000
0000
0000
3001
0000
0021
0000
0000
0000
0130
1000
0001
0000
0201
0000
,  // measure 93
0000
0000
0310
1000
0001
0000
0010
0000
0001
1000
0010
0000
0100
0000
0001
0000
,  // measure 94
2001
0000
3100
0010
0001
0000
1000
0000
0010
0100
0001
0000
1000
0000
1200
0000
,  // measure 95
0000
0000
0310
0000
0100
M00M
0100
0000
0010
M00M
0010
0000
0100
M00M
0100
0000
,  // measure 96
0102
0000
0000
0000
1003
0100
1000
0000
1001
0000
0001
0000
0201
0000
0300
0000
,  // measure 97
0120
0000
1030
0001
0010
0000
0100
0000
0010
0001
1000
0000
0010
0000
0100
0000
,  // measure 98
0002
0000
1003
0100
0010
0000
0001
0000
1000
0010
0100
0001
0100
0010
2000
0000
,  // measure 99
0000
0000
3001
0000
0010
M00M
0010
0000
0100
M00M
0100
0000
0010
M00M
0010
0000
,  // measure 100
2010
0000
0000
0000
3001
0000
0201
0000
0310
1000
0010
0000
0210
0000
0302
0000
,  // measure 101
0000
0000
1003
0100
0010
0000
0100
0000
1000
0001
0100
0000
0010
0000
1000
0000
,  // measure 102
0002
0000
0103
0010
1000
0000
0001
0000
0010
0100
1000
0000
0001
0000
0021
0000
,  // measure 103
0000
0000
0130
0000
0010
M00M
0010
0000
0100
M00M
0100
0000
0010
M00M
0010
0000
,  // measure 104
1010
0000
1000
0000
0001
0000
0021
0000
0000
0000
0130
1000
0001
0000
0201
0000
,  // measure 105
0000
0000
0310
1000
0001
0000
0010
0000
0100
1000
0001
0000
0100
0000
0010
0000
,  // measure 106
2010
3001
0010
0100
1100
1000
0001
0201
,  // measure 107
0000
0310
1000
0001
0011
0010
0110
0100
,  // measure 108
1100
0000
1000
0001
2000
0000
3000
0000
1010
0000
0000
0000
0104
0000
0000
0000
,  // measure 109
1000
0010
1000
0100
,  // measure 110
2003
0000
3200
0000
0310
0002
0000
0000
,  // measure 111
2003
3010
0100
0002
1003
0200
0320
0031
,  // measure 112
2000
3010
0200
0301
2000
3100
0020
0130
,  // measure 113
2000
3001
0100
0020
2030
3001
0010
0100
,  // measure 114
2000
3001
0100
0020
0230
0301
1000
0001
,  // measure 115
0010
0100
2000
3001
0200
0320
1030
0002
,  // measure 116
0013
0100
2000
3001
0200
0310
2000
3002
,  // measure 117
0013
0100
2000
0000
3001
0200
0000
0300
,  // measure 118
0120
0000
0000
2200
0000
0000
0000
3330
,  // measure 119
0120
0000
1030
0001
1000
0000
0100
0000
0010
0000
0100
0000
1000
0000
0001
0000
,  // measure 120
0101
0100
0110
0100
0101
0100
0220
0300
,  // measure 121
1030
0000
0001
0010
0001
0000
1000
0000
0100
0000
0010
0000
0001
0000
1000
0000
,  // measure 122
1100
0000
0100
0000
0110
0000
0100
0000
2200
0000
0300
0000
3001
0000
0100
0010
,  // measure 123
0200
0000
0301
1000
0001
0000
0010
0000
0110
0000
0100
0000
2200
0000
0300
0000
,  // measure 124
3001
0000
0100
0010
0100
0000
0001
0000
1001
0000
1000
0000
2020
0000
3030
0000
,  // measure 125
0210
00M0
0301
2001
000M
3100
0120
0M00
,  // measure 126
0031
0000
2001
0000
000M
0000
3010
0000
1000
0001
2000
0000
3100
0000
0010
0000
,  // measure 127
0000
0000
0000
0000
0000
0000
0012
0000
0000
0000
1003
0000
0010
M00M
0010
0000
,  // measure 128
0100
M00M
0100
0000
0010
M00M
0010
0000
0012
0000
0000
0000
1003
0000
1200
0000
,  // measure 129
0000
0000
0310
0001
1000
0000
1020
0000
0000
0000
0130
0001
1000
0000
0100
0000
,  // measure 130
0010
0100
1000
0000
0001
0000
0100
0000
0120
0000
1030
0001
0010
0000
0100
0000
,  // measure 131
0010
0001
1000
0000
0010
0000
0210
0000
0000
0000
0310
0000
0100
M00M
0100
0000
,  // measure 132
0010
M00M
0010
0000
0100
M00M
0100
0000
2100
0000
0000
0000
3001
0010
0001
0000
,  // measure 133
1000
0000
0010
0000
0200
0000
0300
0000
0102
0000
1003
0100
0010
0000
0001
0000
,  // measure 134
1000
0010
0100
0000
0001
0000
1000
0000
0001
0010
0100
1000
0001
1000
0100
0010
,  // measure 135
0001
1000
0010
0100
0001
1000
0200
0000
0000
0000
0310
0000
0100
M00M
0100
0000
,  // measure 136
0010
M00M
0010
0000
0100
M00M
0100
0000
0001
1000
0001
0000
0010
0000
0200
0000
,  // measure 137
0000
0000
1300
0001
1000
0000
1020
0000
0000
0000
0130
0001
1000
0000
0100
0000
,  // measure 138
0010
0100
1000
0000
0001
0000
0100
0000
0120
0000
1030
0001
0010
0000
0100
0000
,  // measure 139
1000
0001
0100
0000
0000
0000
0220
0000
0300
0000
1030
0000
0100
M00M
0100
0000
,  // measure 140
0010
M00M
0010
0000
0100
M00M
0100
0000
0102
0000
1003
0000
0100
0000
0110
0000
,  // measure 141
0000
0000
0010
0001
1000
0000
1020
0000
0000
0000
0130
0000
0001
0000
1000
0000
,  // measure 142
0100
0010
0001
0000
1000
0000
0010
0000
0210
0000
0302
0000
0000
0000
1003
0000
,  // measure 143
0100
0010
0001
2000
0000
3000
0010
0000
,  // measure 144
0100
0001
1000
0100
,  // measure 145
0010
0000
0001
0000
1000
1000
0010
0010
,  // measure 146
0100
0000
0100
0000
0001
0000
0001
0000
1000
0100
0010
0001
1000
0001
0010
0100
,  // measure 147
1000
0100
0010
0001
4000
0000
0000
3000
1020
0000
0130
0001
0100
0000
0010
0000
,  // measure 148
1000
0001
1000
0000
0100
0000
0010
0000
0100
0000
1000
0001
1000
0000
0010
0000
,  // measure 149
0100
0001
0100
0000
0010
0000
1000
0000
0002
0000
0013
0100
0010
0000
0001
0000
,  // measure 150
1000
0010
1000
0000
0001
0000
0100
0000
0010
0000
1000
0001
1000
0000
0100
0000
,  // measure 151
1000
0100
0010
0001
1000
0001
0010
0100
2000
0000
3001
0100
0001
0000
1000
0000
,  // measure 152
0100
0010
0100
0000
1000
0000
0001
0000
0100
0000
0010
1000
0010
0000
0100
0000
,  // measure 153
0001
0100
0010
1000
0001
1000
0010
0100
0002
0000
1003
0100
1000
0000
0001
0000
,  // measure 154
0010
0100
0010
0000
0001
0000
1000
0000
0040
0400
0000
0000
0000
0000
0000
0000
,  // measure 155
0000
0000
0000
0330
2202
0000
0000
0000
,  // measure 156
3303
0000
0000
0000
;

//---------------dance-single - Ace Of Arrows (2018)----------------
#NOTES:
     dance-single:
     Ace Of Arrows (2018):
     Medium:
     6:
     0.510,0.346,0.009,0.923,0.007:
0000
0000
0000
0000
,
0000
0000
0000
0000
,
1000
0000
0001
0000
0020
0130
0000
1000
,
0000
0000
0001
0000
2000
3100
0000
0000
,
0010
0000
0100
0000
2000
3001
0000
0100
,
0000
0000
0001
0000
2000
3010
0000
0000
,
0100
0000
0001
0000
2000
3001
0000
0010
,
0000
0000
0100
0000
2000
3001
0000
0000
,
2000
0000
3020
0000
,
0430
0000
0000
0000
,
0300
0000
0001
0000
2000
0000
0000
3020
,
0000
0230
0000
0301
1000
0000
0001
2000
,
0000
0000
3100
0000
0020
0031
0000
1000
,
0000
0000
0010
0000
2000
3001
0000
0000
,
0000
0000
0010
0000
0400
0000
0000
1300
,
0000
0002
0000
1003
0010
0000
1000
0020
,
0000
0000
0130
0000
0002
1003
0000
0002
,
0000
0003
1000
0010
,
2000
0000
3001
0020
0000
0230
0000
0320
,
0000
0031
2000
0000
3400
0000
0300
0000
,
2000
0000
3001
0200
0000
0302
0000
2003
,
0000
3001
0020
0000
0230
0000
0300
1000
,
0001
0000
1000
0002
0000
0003
0000
1000
,
0100
0000
1000
0200
0000
0000
0300
0000
,
0020
0000
0000
0031
0000
0000
1000
0000
0002
0000
0000
0103
0000
0000
0001
0000
,
2000
0000
0000
3000
,
0000
0001
0010
0000
0200
0000
0310
0001
,
0000
1000
0100
0000
0020
0000
0130
1000
,
0000
0001
0100
0000
0020
0000
0130
0002
,
0000
1003
0100
1000
0000
0002
0000
0000
,
0003
0010
0100
0000
2000
0000
3100
0010
,
0000
0001
1000
0000
0020
0000
1030
0001
,
0000
1000
0010
0000
0100
0000
0010
2000
,
0000
0000
0000
3002
0000
1003
0100
1000
,
0000
0000
0000
0000
,
0000
0000
0000
0000
0000
0000
0000
0002
,
0000
1003
0100
0000
0010
0100
0010
0000
,
0002
0000
1003
0200
0000
0300
0000
0020
,
0000
0031
1000
0000
0010
0000
1000
0000
,
0001
0010
0001
0000
1000
0020
0000
0230
,
0000
0301
1000
0000
0001
0010
0001
0000
,
2000
0000
3010
0200
0000
0300
0000
0000
,
0020
0230
0302
2003
,
3200
0000
0000
0310
0002
0000
0000
2003
,
0000
3100
0010
0000
0001
1000
0001
0000
,
0200
0000
0310
2000
0000
3000
0000
0002
,
0000
0013
0100
0000
1000
0000
0001
0000
,
0100
0010
0100
0000
0001
2000
0000
3200
,
0000
0310
0001
0000
1000
0010
1000
0000
,
0002
0000
0013
0100
0000
1000
0001
1000
,
0000
0010
1000
0010
0000
0000
0000
0000
,
0000
1000
0002
0000
0023
0000
0130
2000
,
0000
3001
0010
0000
,
0001
1000
1000
0000
,
0010
0100
0010
0000
1000
0001
1000
0000
,
0040
0000
0000
0030
,
0000
0000
1000
0000
0002
0013
0000
0001
,
0000
0000
1000
0000
0002
0103
0000
0000
,
0010
0000
1000
0000
0002
0013
0000
0100
,
0000
0000
1000
0000
0002
0103
0000
0000
,
0004
0000
1003
0000
0200
0310
0000
0001
,
0000
0000
1000
0000
0002
0203
0000
0000
,
0320
0000
2030
0000
,
3004
0000
0000
0000
,
0003
0000
2000
0000
3400
0000
0300
0020
,
0000
0230
0000
1300
0002
0000
1003
0020
,
0000
0000
0130
0000
0002
1003
0000
0001
,
0000
0000
0010
0000
0200
1300
0000
0000
,
0000
0000
0001
0100
0002
0000
0000
2003
,
0000
3200
0000
0310
0002
0000
0013
0200
,
0000
0000
1300
0000
0002
0013
0000
0002
,
0000
0000
2003
3020
,
0230
0000
0301
2000
0000
3002
0000
0023
,
0000
0130
2000
0000
3004
0000
0003
0000
,
2000
0000
3100
0020
0000
0032
0000
2003
,
0000
3001
0020
0000
0430
0000
0300
1000
,
0001
0000
1000
0020
0000
0000
0030
0100
,
0001
0000
0100
0020
0000
0000
0030
0000
,
2000
0000
0000
3002
0000
0000
0013
0000
0200
0000
0000
0000
0000
0000
1300
0000
,
0002
0000
4003
0000
,
3000
0001
0100
0000
0020
0000
0130
0001
,
0000
1000
0100
0000
0020
0000
0130
1000
,
0000
0001
1000
0000
0200
0000
1300
0002
,
0000
1003
0010
1000
0000
0002
0000
0000
,
0003
1000
0001
0000
0200
0000
0301
1000
,
0000
0001
1000
0000
0020
0000
1030
0001
,
0000
0010
0100
0000
1000
0000
0100
0020
,
0000
0000
0030
0001
1000
0000
0001
0010
,
0000
0000
0000
0000
,
0000
0000
0000
0000
0000
0000
0000
0200
,
0000
1300
0001
0000
0010
0100
0010
0000
,
0002
0000
1003
0020
0000
0030
0000
0200
,
0000
0301
1000
0000
0001
0010
0001
0000
,
1000
0000
0100
0000
0010
0002
0000
2003
,
0000
3010
0100
0000
0001
0100
0001
0000
,
2000
0000
3100
0020
0000
0030
0000
0000
,
0002
2003
3020
2030
,
3002
0000
0000
0013
0200
0000
0000
2300
,
0000
3001
0100
0000
0001
1000
0001
0000
,
0020
0000
0130
2000
0000
3000
0000
0002
,
0000
0103
0010
0000
0100
0000
0001
0000
,
1000
0100
1000
0000
0001
0010
0000
0200
,
0000
1300
0001
0000
1000
0010
1000
0000
,
0002
0000
0013
0100
0000
1000
0100
1000
,
0000
0001
0010
0002
0000
0003
0000
0000
,
0000
1000
0020
0000
0230
0000
0301
2000
,
0000
3001
0000
0020
0000
0130
0000
2000
,
0000
3001
0000
0000
0000
0000
0040
0000
,
0000
0000
0000
0000
,
0030
0000
0200
0000
1300
0002
0000
0000
,
0203
0000
0000
0000
0000
0000
0000
0300
,
0000
0020
2030
3002
,
0023
0000
0000
0130
2000
0000
0000
0000
,
0000
0000
3000
0000
,
0000
0000
0002
0000
0103
0020
0000
2030
,
0000
0000
3002
0000
0023
0000
0130
2000
,
0000
0000
0000
3000
,
2002
0000
3003
0202
0000
0000
0000
0303
,
0000
0001
1000
0000
0001
0010
0001
0000
,
1000
0001
1000
0000
0010
0100
0020
0000
,
0000
1030
0001
0000
1000
0100
2000
0000
,
3001
1000
0001
0000
0200
0000
0300
0000
,
0000
0010
1000
0000
0001
0010
0002
0000
,
0003
1000
0010
0000
1000
0001
2000
0000
,
3002
0000
0013
0200
0000
0310
0002
0000
,
1003
0020
0000
0130
0001
0200
0000
0000
,
0300
0000
0000
0002
0000
1003
0100
0000
,
1000
0001
1000
0000
0020
0000
0130
0002
,
0000
0003
0000
2000
0000
3100
0010
0000
,
0001
0000
1000
0001
1000
0000
0010
0000
,
0100
0002
0000
2003
0000
3010
0100
0000
,
0001
0100
0001
0000
2000
0000
3100
0020
,
0000
0030
0002
2003
,
3020
0000
0230
0000
0302
0000
0000
1003
,
0200
0000
0000
0320
0000
0031
1000
0000
,
0010
0100
0010
0000
2000
0000
3001
0200
,
0000
0300
0000
0002
0000
1003
0100
0000
,
0010
0000
0001
0000
1000
0010
2000
0000
,
3001
0020
0000
0230
0000
1300
0001
0000
,
1000
0010
1000
0000
0002
0000
0013
0200
,
0000
1300
0001
2000
0000
3100
0010
0200
,
0000
0300
0000
0000
0000
1000
0002
0000
,
0023
0000
0130
2000
0000
0000
3001
0000
,
0010
0000
0100
0010
,
0010
0000
0001
1000
,
1000
0000
0000
0000
0001
0100
0001
0000
,
1000
0001
4000
0000
0000
0000
3001
0000
,
0020
0130
0000
1000
0000
0000
0001
0000
,
2000
3010
0000
0000
1000
0000
0001
0000
,
0200
0310
0000
1000
0000
0000
0001
0000
,
0020
0130
0000
0000
1000
0000
0001
0000
,
0200
0310
0000
1000
0000
0000
0001
0000
,
0020
0130
0000
0000
2000
0000
0000
0000
,
3002
0000
4003
0000
,
0000
0000
3200
0000
,
0300
0000
0000
0000
;

//---------------dance-single - Ace Of Arrows (2018)----------------
#NOTES:
     dance-single:
     Ace Of Arrows (2018):
     Easy:
     4:
     0.279,0.207,0.000,0.263,0.000:
0000
0000
0000
0000
,
0000
0000
0000
0000
,
1000
0000
1000
0000
1000
0000
0000
0001
,
0000
0001
0001
0000
,
0010
0000
0010
0000
0010
0000
0000
0100
,
0000
0100
0100
0000
,
1000
0000
1000
0000
1000
0000
0000
0001
,
0000
0001
0001
0000
,
2000
0000
3020
0000
,
0430
0000
0000
0300
,
0000
0000
0001
0000
0002
0000
0000
1003
,
0000
2000
0000
0000
3010
0000
0000
0020
,
0000
0000
0130
0000
0100
0000
0000
0001
,
0000
0001
0001
0000
,
0000
0000
1000
0000
2000
0000
0000
3100
,
0000
0200
0000
0000
0310
0000
0000
0020
,
0000
0000
0031
0000
0001
0000
0000
0002
,
0000
0003
1000
1000
,
1000
0000
0000
1000
0000
0000
0000
0100
,
0000
0100
0200
0300
,
0010
0000
0000
0010
0000
0000
0000
0001
,
0000
0001
0002
0000
,
1003
0000
0000
2000
0000
0000
3000
0000
,
0010
0000
0000
0020
0000
0000
0030
0000
,
0100
0000
0001
0001
,
0002
0000
0003
0000
,
0000
0000
1000
0000
1000
0000
0000
1000
,
0000
0000
0010
0000
0010
0000
0000
0010
,
0000
0000
0100
0000
0100
0000
0000
0100
,
0000
0000
0000
0001
0000
0002
0000
0000
,
0003
0000
1000
0000
1000
0000
0000
1000
,
0000
0000
0100
0000
0100
0000
0000
0100
,
0000
0000
0010
0000
0010
0000
0000
0020
,
0000
0000
0000
0000
0031
0000
0000
0001
,
0000
0000
0000
0000
,
0000
0000
0000
0000
0000
0000
0000
2000
,
0000
3001
0001
0001
,
0001
0000
0000
0002
0000
0003
0000
0100
,
0000
0100
0100
0000
,
0010
0000
0010
0000
0010
0000
0000
0200
,
0000
0310
0010
0010
,
0010
0000
0000
0020
0000
0030
0000
0000
,
1000
1000
1000
0000
,
0001
0000
0000
0000
0001
0000
0000
2000
,
0000
3100
0100
0100
,
0100
0000
0000
0200
0000
0300
0000
0010
,
0000
0010
0010
0000
,
0001
0000
0001
0000
0001
0000
0000
2000
,
0000
3010
0010
0010
,
0010
0000
0000
0010
0000
0000
0000
0100
,
0000
0000
0000
0100
0000
0000
0000
0000
,
0000
0000
0001
0000
0001
0000
0000
0001
,
0000
1000
1000
0000
,
0010
0010
0010
0000
,
0100
0100
0100
0000
,
0004
0000
0000
0003
,
1000
0000
1000
0000
1000
0000
0000
0100
,
0000
0100
0100
0000
,
1000
0000
1000
0000
1000
0000
0000
0001
,
0000
0001
0001
0000
,
0040
0000
0000
0000
0030
0000
0000
0100
,
0000
0100
0100
0000
,
2000
0000
3002
0000
,
0043
0000
0000
0030
,
0000
0000
0001
0000
0002
0000
0003
1000
,
0000
1000
0000
0000
1000
0000
0000
0000
,
0001
0000
0001
0000
0001
0000
0000
0010
,
0000
0010
0010
0000
,
0000
0000
0100
0000
0200
0000
0300
1000
,
0000
1000
0000
0000
1000
0000
0000
0001
,
0000
0000
0001
0000
0001
0000
0000
0200
,
0000
0300
0010
0010
,
0010
0000
0000
0010
0000
0000
0000
1000
,
0000
1000
2000
3000
,
0001
0000
0000
0001
0000
0000
0000
0010
,
0000
0010
0020
0030
,
0100
0000
0000
0200
0000
0000
0300
0000
,
1000
0000
0000
2000
0000
0000
3000
0000
,
0001
0000
0100
0100
,
0200
0000
0300
0000
,
0000
0000
0010
0000
0010
0000
0000
0010
,
0000
0000
1000
0000
1000
0000
0000
1000
,
0000
0000
0001
0000
0001
0000
0000
0001
,
0000
0000
0000
0100
0000
0200
0000
0000
,
0300
0000
0010
0000
0010
0000
0000
0010
,
0000
0000
1000
0000
1000
0000
0000
1000
,
0000
0000
0001
0000
0001
0000
0000
0002
,
0000
0000
0003
0000
0010
0000
0000
0010
,
0000
0000
0000
0000
,
0000
0000
0000
0000
0000
0000
0000
0002
,
0000
1003
1000
1000
,
1000
0000
0000
2000
0000
0000
3000
0010
,
0000
0010
0010
0000
,
0100
0000
0100
0000
0100
0000
0000
0002
,
0000
0103
0100
0100
,
0100
0000
0000
0200
0000
0000
0300
0000
,
0010
0010
0010
0000
,
1000
0000
0000
0000
1000
0000
0000
0002
,
0000
0013
0010
0010
,
0010
0000
0000
0020
0000
0000
0030
0100
,
0000
0100
0100
0000
,
1000
0000
1000
0000
1000
0000
0000
0002
,
0000
1003
1000
1000
,
1000
0000
0000
1000
0000
0000
0000
0010
,
0000
0000
0000
0010
0000
0000
0000
0000
,
0000
0000
0100
0000
0100
0000
0000
0100
,
0000
0000
0000
0001
0000
0000
0000
0001
,
0000
0000
0000
4000
,
0000
0000
0000
0000
,
3000
0001
0001
0000
,
0002
0000
0000
0000
,
0003
0100
0100
0100
,
0100
0000
0200
0000
,
0000
0000
0300
0000
,
0000
0000
0001
0000
0001
0000
0000
0002
,
0000
0000
0003
0000
1000
0000
0000
2000
,
0000
0000
3000
0000
,
0010
0000
0000
0020
0000
0000
0000
0030
,
0000
1000
1000
1000
,
4000
0000
0000
3000
,
0000
0001
0001
0001
,
0004
0000
0003
0000
,
0000
0100
0100
0100
,
0000
0010
0010
0010
,
1000
0000
0000
1000
0000
0000
0001
0000
,
0000
0001
0000
0000
0020
0000
0000
0000
,
0030
0000
0000
0200
0000
0000
1300
0000
,
1000
0000
1000
0000
1000
0000
0000
2000
,
0000
3000
0000
0001
0000
0000
0001
0000
,
0001
0000
1000
1000
,
1000
0000
0000
0200
0000
0000
0310
0000
,
0010
0000
0010
0000
0010
0000
0000
0020
,
0000
0030
0001
0001
,
0001
0000
1000
0000
,
2000
0000
3000
0020
0000
0000
0130
0000
,
0100
0000
0100
0000
0100
0000
0000
0200
,
0000
0000
0300
0001
0000
0000
0001
0000
,
0001
0000
1000
1000
,
1000
0000
0000
0002
0000
0000
0013
0000
,
0010
0000
0010
0000
0010
0000
0000
0010
,
0000
0000
0000
0100
0000
0000
0000
0100
,
0000
0000
0000
1000
,
1000
0000
0000
1000
0000
0000
0001
0000
,
0001
0000
1000
1000
,
1000
0000
0010
0010
,
0010
0000
0400
0000
,
0000
0300
0001
0001
,
0001
0000
0000
1000
0000
0000
1000
0000
,
1000
0000
0100
0100
,
0100
0000
0000
0010
0000
0000
0010
0000
,
0010
0000
0001
0001
,
0001
0000
0000
1000
0000
0000
1000
0000
,
1000
0000
0002
0000
,
2003
0000
3040
0000
,
0000
0000
0230
0000
,
0300
0000
0000
0000
;

//---------------dance-single - Ace Of Arrows (2018)----------------
#NOTES:
     dance-single:
     Ace Of Arrows (2018):
     Beginner:
     2:
     0.148,0.138,0.000,0.254,0.000:
0000
0000
0000
0000
,
0000
0000
0000
0000
,
0001
0000
0001
0000
,
0002
0000
0003
0000
,
1000
0000
1000
0000
,
2000
0000
3000
0000
,
0100
0000
0100
0000
,
0200
0000
0300
0000
,
0020
0000
0000
0000
,
0030
0000
0000
0000
,
0000
0000
0001
0000
,
0001
0000
0001
0000
,
0002
0000
0003
0000
,
0002
0000
0003
0000
,
0000
0000
1000
0000
,
1000
0000
1000
0000
,
2000
0000
3000
0000
,
2000
0000
3000
0000
,
0010
0000
0010
0000
,
0020
0000
0030
0000
,
0100
0000
0100
0000
,
0200
0000
0300
0000
,
0002
0000
0003
0000
,
0002
0000
0003
0000
,
1000
0000
1000
0000
,
2000
0000
3000
0000
,
0000
0000
0001
0000
,
0001
0000
0002
0000
,
0003
0000
0010
0000
,
0010
0000
0020
0000
,
0030
0000
0100
0000
,
0100
0000
0200
0000
,
0300
0000
1000
0000
,
1000
0000
2000
0000
,
3000
0000
0000
0000
,
0000
0000
0000
0000
,
0004
0000
0000
0000
,
0003
0000
0000
0000
,
0010
0000
0010
0000
,
0020
0000
0030
0000
,
0400
0000
0000
0000
,
0300
0000
0000
0000
,
1000
0000
1000
0000
,
2000
0000
3000
0000
,
0004
0000
0000
0000
,
0003
0000
0000
0000
,
0100
0000
0100
0000
,
0200
0000
0300
0000
,
0040
0000
0000
0000
,
0030
0000
0000
0000
,
1000
0000
1000
0000
,
0000
0000
0001
0000
,
0002
0000
0003
0000
,
1000
0000
1000
0000
,
1000
0000
0000
0000
,
0040
0000
0000
0030
,
0100
0000
0100
0000
,
0200
0000
0300
0000
,
0001
0000
0001
0000
,
0002
0000
0003
0000
,
4000
0000
3000
0000
,
2000
0000
3000
0000
,
0020
0000
0000
0000
,
0030
0000
0000
0000
,
0000
0000
0100
0000
,
0200
0000
0300
0000
,
0001
0000
0001
0000
,
0002
0000
0003
0000
,
0000
0000
1000
0000
,
2000
0000
3000
0000
,
0010
0000
0010
0000
,
0020
0000
0030
0000
,
0100
0000
0100
0000
,
0200
0000
0300
0000
,
0001
0000
0001
0000
,
0002
0000
0003
0000
,
2000
0000
3000
0000
,
2000
0000
3000
0000
,
0100
0000
0100
0000
,
0200
0000
0300
0000
,
0000
0000
0010
0000
,
0010
0000
0020
0000
,
0030
0000
0001
0000
,
0001
0000
0002
0000
,
0003
0000
1000
0000
,
1000
0000
2000
0000
,
3000
0000
0010
0000
,
0010
0000
0020
0000
,
0030
0000
0000
0000
,
0000
0000
0000
0000
,
0400
0000
0000
0000
,
0300
0000
0000
0000
,
0001
0000
0001
0000
,
0002
0000
0003
0000
,
4000
0000
0000
0000
,
3000
0000
0000
0000
,
0001
0000
0001
0000
,
0002
0000
0003
0000
,
0400
0000
0000
0000
,
0300
0000
0000
0000
,
0010
0000
0010
0000
,
0020
0000
0030
0000
,
4000
0000
0000
0000
,
3000
0000
0000
0000
,
0001
0000
0001
0000
,
0000
0000
0100
0000
,
0200
0000
0300
0000
,
0200
0000
0300
0000
,
0040
0000
0000
0000
,
0030
0000
1000
0000
,
2000
0000
0000
0000
,
3000
0000
0001
0000
,
0001
0000
0002
0000
,
0000
0000
0003
0000
,
0000
0000
0010
0000
,
0010
0000
0020
0000
,
0000
0000
0030
0000
,
0200
0000
0300
0000
,
1000
0000
1000
0000
,
4000
0000
3000
0000
,
0001
0000
0001
0000
,
0004
0000
0003
0000
,
0000
0000
0100
0000
,
0000
0000
0100
0000
,
0002
0000
0003
0002
,
0000
0000
0003
0000
,
0000
0000
4000
0000
,
0000
0000
3000
0000
,
0000
0000
0010
0000
,
0010
0000
0020
0000
,
0030
0000
0400
0000
,
0000
0000
0300
0000
,
0000
0000
0001
0000
,
0001
0000
0002
0000
,
0003
0000
4000
0000
,
0000
0000
3000
0000
,
0000
0000
0100
0000
,
0100
0000
0200
0000
,
0300
0000
0040
0000
,
0000
0000
0030
0000
,
0000
0000
0001
0000
,
0001
0000
0000
0000
,
1000
0000
1000
0000
,
0000
0000
0010
0000
,
0010
0000
0010
0000
,
0000
0000
0400
0000
,
0000
0300
0001
0000
,
0001
0000
0002
0000
,
0003
0000
1000
0000
,
1000
0000
2000
0000
,
3000
0000
0100
0000
,
0100
0000
0200
0000
,
0300
0000
2000
0000
,
0000
0000
3000
0000
,
0000
0000
0002
0000
,
0003
0000
0000
0000
;
