#TITLE:Worldly Spirits;
#SUBTITLE:;
#ARTIST:Odyssey;
#TITLETRANSLIT:;
#SUBTITLETRANSLIT:;
#ARTISTTRANSLIT:;
#GENRE:Eurobeat;
#CREDIT:Ace Of Arrows;
#BANNER:Worldly Spirits - Bn.png;
#BACKGROUND:Worldly Spirits - Bg.png;
#LYRICSPATH:;
#CDTITLE:Ace Of Arrows.png;
#MUSIC:Worldly Spirits.ogg;
#OFFSET:1.140;
#SAMPLESTART:83.700;
#SAMPLELENGTH:12.000;
#SELECTABLE:YES;
#BPMS:0.000=161.000,452.000=80.500,500.000=161.000;
#STOPS:500.000=1.118
;
#BGCHANGES:0.000=Worldly Spirits - Bg.png=1.000=0=0=0=StretchNoLoop====,
2.875=Worldly Spirits Subs.avi=1.000=1=0=0=StretchNoLoop==CrossFade==,
99999=-nosongbg-=1.000=0=0=0 // don't automatically add -songbackground-
;
#KEYSOUNDS:;

//---------------dance-single - Ace Of Hearts (2014)----------------
#NOTES:
     dance-single:
     Ace Of Hearts (2014):
     Challenge:
     11:
     1.000,0.000,0.664,1.000,0.889:
0000
0000
0000
0000
,
0000
0000
0000
0000
,
0000
0000
0000
0000
,
0000
0000
0000
0000
,
0000
0000
0000
0000
,
0000
0000
0000
0000
,
0000
0000
0000
0000
,
0000
0000
0000
0000
,
0000
0000
0000
0000
,
0002
0000
0000
2003
0000
0000
3100
0000
0020
0000
0000
0230
0000
0000
1300
0000
,
0002
0000
0000
0203
0000
0000
0310
0000
2000
0000
0000
3002
0000
0000
0013
0000
,
0200
0000
0000
2300
0000
0000
3001
0000
0200
0000
0000
0320
0000
0000
1030
0000
,
0002
0000
0000
0000
0000
0103
0001
1000
0100
0010
0001
0010
0100
1000
0100
0010
,
0002
0010
0000
0010
0000
0010
0000
0013
,
0200
1000
0000
1300
0002
0100
0000
0103
,
0020
1000
0000
1000
0000
1000
0000
1030
,
0002
0000
0013
0000
0100
0000
1000
0100
1000
0000
0001
0000
0100
0010
1000
0010
,
0200
0000
0301
1000
0000
1000
0100
0000
0010
0000
0100
0000
1000
0000
0001
0000
,
0200
0000
0310
1000
0000
1000
0001
0000
0022
0000
0000
0033
2200
0000
0000
3300
,
1002
0000
0013
0100
0000
0100
1000
0000
0001
0000
0100
0000
0010
0000
1000
0000
,
0002
0000
0013
0100
0000
0100
1000
0000
2002
0000
0000
3003
0202
0000
0000
0303
,
0120
0000
1030
0001
0000
0001
0010
0000
0100
0000
0010
0000
0001
0000
1000
0000
,
0020
0000
0130
0001
0000
0001
1000
0000
2200
0000
0000
3300
0022
0000
0000
0033
,
2001
0000
3010
0100
0000
0100
0001
0000
1000
0000
0100
0000
0010
0000
0100
0000
,
2000
0000
3001
0100
0000
0100
0010
0000
2020
0000
0000
3030
2002
0000
0000
3003
,
0042
0000
0000
0000
0000
0000
0003
0000
0130
1000
0100
1000
0001
0100
0001
0100
,
0020
0000
1030
0002
0000
0000
0203
0300
0220
0000
0000
0330
2020
0000
0000
3030
,
2004
0000
0000
0000
0000
0000
3000
0000
0013
0100
0010
0100
1000
0001
1000
0001
,
0200
0000
0310
2000
0000
0000
3001
0000
0022
0000
0000
0033
0220
0000
0000
0330
,
4200
0000
0000
0000
0000
0000
0300
0000
3001
0100
0001
0100
0010
1000
0010
1000
,
0002
0000
0000
0023
0000
0000
0230
0300
2200
0000
0000
3300
2002
0000
0000
3003
,
0402
0000
0000
0000
0000
0000
0003
0000
0310
1000
0010
1000
0001
0010
0100
1000
,
0001
0010
0100
0010
0001
0000
1000
0010
0000
0010
0200
0000
0022
0000
0033
0000
,
0301
0100
0001
0100
0010
1000
0010
0400
0000
0301
1000
0001
0100
0010
0100
0010
,
2000
0000
0001
0000
0000
3001
0010
0001
0020
0000
0000
0030
0420
0000
0030
0000
,
1300
0100
1000
0100
0010
0001
0010
0200
0000
1300
0001
1000
0001
0100
0001
0100
,
0010
1000
0010
0100
0001
0100
0010
1000
0020
0000
0000
0030
0420
0000
0030
0000
,
0301
1000
0001
1000
0100
0010
0100
4000
0000
3001
0100
0001
1000
0100
1000
0001
,
0020
0000
0100
0000
0000
0130
1000
0100
0020
0000
0000
0030
0024
0000
0030
0000
,
1003
0010
1000
0001
0010
0001
0010
0100
0010
0001
0010
0100
1000
0100
1000
0001
,
1000
0010
1000
0001
0100
0001
2000
0000
3000
0000
2400
0000
0000
0000
3300
0000
,
0110
0000
0010
0001
0010
0000
0100
0000
1000
0001
1000
0000
0010
0000
0100
0000
,
0001
0100
0001
0000
1000
0000
1200
0000
0000
0000
0340
0000
0000
0030
0012
0000
,
0000
0000
1003
0010
1000
0000
0001
0000
0010
0100
0010
0000
0001
0000
1000
0000
,
0010
0100
0010
0000
1000
0000
0002
0000
0000
0003
0202
0000
0303
0000
0120
0000
,
0000
0000
1030
0001
1000
0000
0001
0000
4000
0000
0000
3000
2200
0000
0000
0000
,
0010
0001
0010
0011
3300
1000
0001
1000
,
1010
0010
0100
0202
0003
0002
0000
0010
,
0000
1000
0010
1000
0000
1010
0303
0001
,
1000
0000
0100
0000
0010
0100
0010
0000
0001
1000
0001
0000
0010
0000
0210
0000
,
0000
0000
1300
0001
1000
0000
1001
0000
0001
0010
0001
0000
2001
0000
0000
0000
,
3100
0000
0010
0001
0010
0000
0100
1000
0100
0000
0010
0000
0004
0000
0000
0003
,
1001
1000
0010
0100
0101
0001
1001
1000
,
1100
0000
0100
0010
0100
0000
1100
0000
1000
0001
1000
0000
1010
0000
0020
0000
,
0000
0000
0130
0000
0101
0000
0001
0000
1000
0100
1000
0000
1002
0000
0000
0000
,
0013
0100
0010
0000
0001
0010
0001
0000
1000
0100
1000
0000
0002
0000
0000
0003
,
1001
1000
1010
0102
0000
0000
2200
3303
,
0101
0100
0101
0100
0101
0000
0001
1000
,
1200
0000
0310
0001
1000
0010
1000
0001
0200
0000
0301
0000
4000
0000
0000
3000
,
1002
0000
0013
0001
0010
0000
0100
0010
0200
0000
1300
0000
0001
0000
1000
0000
,
0002
0000
0023
0000
0230
0000
2300
0000
3002
0000
0023
0000
0230
0000
2300
3000
,
1001
1000
1001
1000
1001
0001
1000
0010
,
0210
0000
0301
1000
0100
0010
0100
1000
0002
0000
1003
0000
0010
0000
0100
0000
,
0101
0000
0001
1000
0100
1000
0001
0000
1000
0010
1000
0010
0100
0001
0100
0000
,
0110
1010
1001
0011
0220
0030
2020
3330
,
0010
0001
0010
0001
1000
0010
1000
0002
0000
0013
0100
0010
0001
1000
0001
1000
,
0020
0000
0100
0000
0000
0130
0001
0100
0002
0000
0000
0003
4002
0000
0003
0000
,
3100
0010
0100
0010
0001
0010
0001
2000
0000
3010
0100
0010
1000
0001
1000
0001
,
0010
0100
0010
0001
1000
0001
0100
0010
0200
0000
0000
0300
0204
0000
0300
0000
,
1003
0100
1000
0100
0010
0001
0010
0004
0000
1003
0010
1000
0010
0100
0010
0100
,
0002
0000
1000
0000
0000
1003
0100
1000
0200
0000
0300
0000
0240
0000
0300
0000
,
0031
1000
0001
0100
0010
0100
0010
1000
0010
1000
0001
1000
0001
0010
0001
1000
,
0001
0100
0001
1000
0100
0010
0002
0000
0003
0000
4002
0000
0003
0000
3000
0000
,
1010
0000
0010
0100
0010
0000
1000
0000
0001
0010
0001
0000
1000
0000
0100
0000
,
0010
0100
0010
0000
0001
0000
2001
0000
0000
0000
3010
0100
0010
0000
1000
0010
,
1000
0000
0001
0000
0010
0000
0100
0000
1000
0001
1000
0000
0010
0000
0100
0000
,
0001
1000
0001
0000
0100
0000
0020
0000
0000
0000
0130
0001
0100
0001
0200
0000
,
0000
0000
0310
0000
1010
0000
1000
0000
2002
0000
3000
0000
0023
0000
0000
0030
,
0110
0100
1000
2002
3000
0103
0010
1000
,
0001
0010
0100
1200
0000
2000
0000
0010
,
0000
0001
0010
0001
0000
0011
3300
0000
,
1000
0000
0001
0010
0001
0000
1000
0010
1000
0000
0001
0000
0010
0000
0200
0000
,
1300
0001
1000
0000
1010
0000
0010
0000
0100
0001
0100
0000
0120
0000
0000
0000
,
1030
0000
0001
0010
0001
0000
1000
0000
0100
0010
0100
0000
4000
0000
0000
3000
,
1001
0000
0002
0000
0000
0000
0103
0010
0100
0000
0001
0000
1001
0000
1000
0000
,
0100
0000
0010
0001
1000
0001
0010
0000
0100
1000
0100
0000
0110
0000
0010
0001
,
0010
0000
0001
1000
0001
0000
0101
0000
0100
0010
0100
0000
0102
0000
0000
0003
,
2001
0000
3100
0010
0001
0010
0100
0000
1000
0001
1000
0000
1020
0000
0000
0030
,
0110
1001
1010
0202
0003
0000
0022
0333
,
1010
1000
1010
1000
1010
0000
0010
0100
,
0102
0000
1003
0100
1000
0000
0001
0100
0010
0100
0010
0100
0004
0000
0000
0003
,
1001
0000
1000
0000
0100
0010
0100
0000
1000
0000
0001
0000
0100
0000
0110
0000
,
0020
0000
0230
0000
0302
0000
2003
0000
3020
0000
0230
0000
0302
0000
2003
3000
,
1001
0000
0001
0010
0001
0000
1000
0000
0020
0000
0130
0001
0100
0000
0010
0000
,
2010
0000
3001
0010
0100
1000
0100
0010
0001
0000
1000
0000
1400
0000
0000
0300
,
0110
0000
0010
0001
0010
0001
0010
0000
0100
1000
0100
1000
0001
0100
0001
0000
,
1001
1100
0011
1001
2020
3000
2200
3330
,
0010
0100
0010
0100
0001
0100
0001
4000
0000
3001
0010
0001
0010
0100
1000
0100
,
2000
0000
0001
0000
0000
3001
0100
0001
0200
0000
0000
0300
0240
0000
0300
0000
,
1030
0001
1000
0001
0010
0100
0010
0200
0000
0310
0001
0010
0100
1000
0100
0010
,
0001
1000
0001
0100
0010
0100
0001
1000
0002
0000
0000
0003
0402
0000
0003
0000
,
0310
0100
0010
0100
0001
1000
0001
4000
0000
3001
0010
0001
0010
0100
1000
0100
,
2000
0000
0001
0000
0000
3001
0010
0001
0020
0000
0000
0030
0420
0000
0030
0000
,
1300
0100
1000
0001
0100
0001
1000
0010
1000
0001
0010
0001
0010
0100
0010
0001
,
1000
0010
1000
0001
1000
0001
0020
0000
0030
0000
0420
0000
0000
0000
0330
0000
,
0100
1000
0001
0200
0000
0000
0320
0000
,
0000
0000
0000
0000
0000
1030
0001
0200
,
0300
0002
0000
1003
0200
0020
0000
0300
,
0031
0010
0001
0010
0100
1000
0100
1000
0001
0000
0100
0000
0010
0000
0100
0001
,
0100
0001
0000
1000
0000
1100
0000
0100
0020
0000
0031
1000
0010
0100
0010
0100
,
0001
1000
0001
0000
0010
0100
0000
2100
0000
3001
0010
0001
0020
0000
0230
0300
,
4100
0000
0000
3001
0100
0010
0100
0010
0400
0000
0000
0301
1000
0100
1000
0100
,
0010
0001
0010
0001
4000
0000
0000
3000
1040
0000
0000
0000
0000
0000
0030
0000
,
2000
3002
0023
0032
2003
3020
2030
3002
0023
0032
2003
3020
,
0230
0000
0320
0000
2030
0000
3002
0000
0023
0000
0230
0000
2300
0000
3001
0010
0100
1000
0100
0010
0001
0010
0100
1000
,
0002
2003
3020
0230
0302
0203
0320
2030
3002
0023
0230
2300
,
3002
0023
0032
2003
3020
0230
0302
0000
0000
2003
0000
3100
,
0020
0000
0032
0000
0023
0000
0130
0010
0200
0000
2300
0000
3200
0000
0320
0000
0032
0000
2003
0000
3002
0000
2003
0000
,
3020
0000
0230
0000
0320
0000
1030
0001
2000
0000
3002
0000
0023
0000
0031
1000
0002
0000
0103
0010
0100
0010
1000
0010
,
1000
0001
0000
0001
0000
0001
0400
0000
0310
0000
0000
0000
0010
1000
0000
1000
0000
1000
0004
0000
0103
0000
0000
0000
,
0100
0010
0000
0010
0000
0010
4000
0000
3001
0000
0000
0000
0001
1000
0000
1000
0000
1000
0100
0010
0001
0010
0100
1000
,
0200
0000
0000
0000
0000
0000
0310
0000
0002
0000
0000
0000
2003
0000
0000
3001
0020
0000
0230
0000
0000
0000
0000
0000
,
2300
0000
0000
0000
0000
0000
3002
0000
0000
0000
0000
0000
2003
0000
0000
3010
0200
0000
0301
1000
0100
1000
0001
1000
,
0001
0010
0001
0010
0001
0010
0100
1000
0100
1000
0100
1000
0001
0100
0001
0100
0001
0100
0010
1000
0010
1000
0010
1000
,
0002
0000
0000
0023
0000
0000
0130
1000
0001
0200
0000
0000
,
0301
0000
2001
0010
0000
0000
3020
0000
,
0130
0002
2003
0100
0000
0100
0000
3100
,
0010
0001
1000
0010
0210
0000
0301
1000
,
1200
0000
0310
0001
0010
0001
1000
0010
,
1000
0000
0010
0000
0210
0000
0301
1000
0000
1000
0100
0000
0010
0001
0010
0000
,
0210
0000
1300
0000
1001
0000
0001
0100
0000
0100
0010
0000
1000
0001
1000
0000
,
1200
0000
0310
0000
0012
0000
1003
0010
0000
0010
0100
0000
0001
1000
0001
0000
,
0201
0310
1010
1001
1100
0022
0030
0000
,
2200
3303
1001
0001
1001
0001
1001
0000
,
1000
0000
0010
0000
0110
0000
0100
0000
0002
0000
0000
0003
2001
0000
3100
0000
,
0000
0000
0110
0010
0001
2001
0000
3010
,
0100
0202
0000
0000
0010
0000
1010
0000
,
1000
0303
0101
0100
0101
0100
0101
0001
,
1000
0000
0001
0000
0020
0000
0130
1000
0001
1000
0001
1000
0200
0000
0000
0300
,
0140
0000
0000
0030
0011
0000
0001
1000
0000
1000
0010
0000
0110
0000
0100
0000
,
0001
1000
1100
0011
1001
1010
0202
0300
,
2020
3033
1001
1000
1001
1000
1001
0000
,
0001
0000
0010
0000
0110
0000
0100
1000
0100
0010
0001
0010
0200
0300
2100
0000
,
3002
0000
0000
0003
0101
0000
0100
0000
0010
0100
0010
0000
2000
0000
3001
0000
,
0010
0200
2300
3002
0023
0230
2300
3002
,
0023
0000
0230
0300
1100
0000
1000
0000
1100
0000
1000
0000
1100
0000
0100
0000
,
0010
0000
0001
0000
2001
0000
3010
0100
0001
0100
0010
1000
0020
0000
0130
0000
,
0204
0000
0300
0003
1001
0000
1000
0100
0010
0100
1000
0000
0001
0010
0100
1000
,
0100
0010
0001
0000
1001
0000
0101
0000
1010
0000
1001
0000
0022
0000
0003
0000
,
0202
0000
0333
0000
0010
0100
0010
0100
1000
0001
1000
0004
0000
1003
0010
1000
,
0001
0100
0001
0100
0020
0000
1000
0000
0000
1030
0001
1000
0002
0000
0000
0003
,
0402
0000
0003
0000
0310
1000
0010
1000
0001
0010
0001
0020
0000
0130
1000
0100
,
0010
0001
0010
0001
1000
0001
0100
0010
0100
0001
1000
0001
0200
0000
0000
0300
,
0240
0000
0300
0000
1030
0010
1000
0010
0100
0001
0100
0004
0000
1003
0100
1000
,
0001
0010
0001
1000
0002
0000
0100
0000
0000
0103
0010
0100
0020
0000
0000
0030
,
4020
0000
0030
0000
3001
0010
0001
1000
0010
1000
0001
1000
0001
0010
0100
0010
,
0001
1000
0001
0010
0001
1000
0001
0010
0100
0010
0002
0000
0000
0003
4002
0000
,
0000
0000
0003
0000
3010
0100
0010
0100
0001
1000
0001
4000
0000
3001
0010
0001
,
1000
0100
1000
0100
0020
0000
0100
0000
0000
0130
1000
0100
0020
0000
0000
0030
,
0024
0000
0030
0000
1003
0010
1000
0010
0100
0001
0100
0002
0000
1003
0100
1000
,
0001
0100
0001
0100
0010
1000
0010
0100
0001
0100
0001
1000
0002
0000
0000
0003
,
4002
0000
0003
0000
3100
0010
0100
0010
0001
0010
0001
4000
0000
3010
0100
0010
,
0100
0001
0100
0001
2000
0000
0001
0000
0000
3001
0010
0001
2000
0000
0000
3000
,
2400
0000
3000
0000
4300
0004
0000
0000
0000
0000
0000
0000
0000
0000
0000
0000
,
0000
0000
0000
3003
;

//---------------dance-single - Ace Of Hearts (2014)----------------
#NOTES:
     dance-single:
     Ace Of Hearts (2014):
     Hard:
     9:
     0.669,0.000,0.300,0.975,0.330:
0000
0000
0000
0000
,
0000
0000
0000
0000
,
0000
0000
0000
0000
,
0000
0000
0000
0000
,
0000
0000
0000
0000
,
0000
0000
0000
0000
,
0000
0000
0000
0000
,
0000
0000
0000
0000
,
0000
0000
0000
0000
,
2000
0000
0000
3200
0000
0000
0310
0000
0002
0000
0000
2003
0000
0000
3010
0000
,
0200
0000
0000
0320
0000
0000
1030
0000
0002
0000
0000
0023
0000
0000
0130
0000
,
2000
0000
0000
3002
0000
0000
0103
0000
0020
0000
0000
2030
0000
0000
3001
0000
,
0020
0000
0000
0000
0000
0430
4000
0000
0000
0000
0000
0000
0000
0000
3300
0000
,
2002
0000
0000
0000
0000
0000
0000
3003
,
0202
0000
0000
0303
0220
0000
0000
0330
,
2020
0000
0000
0000
0000
0000
0000
3030
,
2002
0000
0000
3003
0022
0000
0000
0033
,
0210
0000
0000
1300
0000
1000
0000
0000
0001
0000
0100
0000
0001
0000
0000
0000
,
2000
0000
3100
0010
0000
0010
0100
0000
2000
0000
0000
0000
3002
0000
0000
0000
,
0203
0000
0000
0310
0000
0010
0000
0000
1000
0000
0001
0000
1000
0000
0001
0000
,
0020
0000
0031
1000
0000
1000
0001
0000
0020
0000
0000
0000
0230
0000
0000
0300
,
2100
0000
0000
3001
0000
0001
0100
0000
0000
0000
0010
0000
0100
0000
0010
0000
,
1000
0000
0001
0010
0000
0010
0001
0000
2000
0000
0000
0000
3020
0000
0000
0030
,
0210
0000
0301
0100
0000
0100
0001
0000
0000
0000
1000
0000
0100
0000
1000
0000
,
0002
0000
1003
0010
0000
0010
1000
0000
0002
0000
0000
0000
0023
0000
0000
0030
,
0420
0000
0000
0000
0030
0000
0000
0000
1300
0000
0001
0100
0001
0000
1000
0000
,
0020
0000
0000
2030
0000
0000
3001
0000
0020
0000
0000
0000
0230
0000
0000
0300
,
4200
0000
0000
0000
0000
0000
0300
0000
3001
0000
0010
0100
0010
0000
0001
0000
,
2000
0000
0000
3020
0000
0000
0130
0000
0002
0000
0000
0000
2003
0000
0000
3000
,
2400
0000
0000
0000
0000
0000
3000
0000
0310
0000
0001
1000
0001
0000
0100
0000
,
0020
0000
0000
2030
0000
0000
3001
0000
0200
0000
0000
0000
0302
0000
0000
0003
,
4002
0000
0000
0000
0000
0000
0003
0000
3100
0000
0010
0001
0010
0000
0100
1000
,
0000
0000
0000
0000
0000
0000
2002
3003
,
0001
0000
0100
0000
0001
0000
1000
0010
0000
0010
1000
0000
0001
0000
0010
0000
,
0100
0000
0000
0100
0000
1000
0001
0000
0020
0000
0000
0030
0410
0000
0000
0000
,
4300
0004
0000
0000
0000
0000
3003
0000
0000
0000
0001
0100
0001
0000
1000
0000
,
0100
0000
0010
0001
0000
0001
0010
0000
0200
0000
0000
0300
4100
0000
0000
0000
,
3004
0400
0000
0000
0000
0000
0000
0000
0303
0000
0001
1000
0001
0000
0100
0000
,
0020
0000
1030
0000
0000
1000
0001
0000
0200
0000
0000
0300
0140
0000
0000
0000
,
4030
0004
0000
0000
0000
0000
0000
0000
0000
0000
0000
0000
0000
0000
3003
0000
,
0001
0010
0001
0010
0000
0010
0200
0000
0300
0000
4200
0000
0000
0000
3300
0000
,
1000
0001
0100
0001
1000
0100
1000
0001
,
0100
0000
0010
0000
1000
0000
0002
0000
0000
0000
0043
0000
0000
0030
0210
0000
,
0000
1300
0001
0010
0001
1000
0010
1000
,
0001
0010
0100
2000
0000
3002
0003
0201
,
0000
0310
1000
0001
0041
0000
0230
0000
,
1300
0001
0100
0120
0000
1030
0001
0010
,
0100
0000
1000
0000
0100
0000
0020
0000
0000
0000
0032
0000
0000
0003
2001
0000
,
0000
0000
3010
0000
0100
0000
0020
0000
0000
0030
2010
0000
0000
0000
0000
0000
,
3001
0100
0010
0200
0000
0301
1000
1200
,
0000
0000
0320
0000
0000
0030
0022
0000
0000
0000
0000
0000
0033
0000
0000
0000
,
0001
1000
0010
0100
0010
2000
0000
0000
,
3001
0000
0020
0000
0000
0030
0110
0000
0000
0000
0200
0000
0000
0000
0300
0000
,
1000
0000
0001
0000
0100
0000
0002
0000
0000
0000
2003
0000
0000
3000
1100
0000
,
0000
0100
0020
0000
0030
0000
0000
0000
,
0001
0010
0100
0010
0000
0002
0000
0003
,
2000
0000
3010
0200
0000
0300
0102
0000
,
1003
0001
0100
0001
2000
0000
3001
0010
,
0100
0010
0002
0000
2003
3010
0000
0000
,
1000
0001
0100
0002
0000
1003
0100
0010
,
0000
0000
0022
0030
2000
0003
0020
3000
,
0130
0010
1000
0001
1000
0010
0100
0001
,
2001
0000
0000
0000
3200
0000
0000
0300
0110
0000
0010
0000
0000
0000
0000
0000
,
0001
0010
0100
1000
0100
0010
0000
0022
,
0000
0000
0000
0000
0000
0033
2001
0000
,
3010
0000
0100
0000
0001
0000
1000
0100
0000
0100
1000
0000
0001
0000
0100
0000
,
0020
0000
1030
0000
0000
1000
0001
0000
0020
0000
0000
0030
0410
0000
0000
0000
,
4300
0004
0000
0000
0000
0000
0000
3003
0000
0000
0001
0010
0001
0000
1000
0000
,
0010
0000
0100
0001
0000
0001
0100
0000
0020
0000
0000
0030
4010
0000
0000
0000
,
3001
0000
0010
0100
0010
0000
0001
0010
0000
0010
0001
0000
1000
0000
0010
0000
,
2000
0000
3001
0000
0000
0001
0010
0000
0200
0000
0000
0300
4100
0000
0000
0000
,
3004
0400
0000
0000
0000
0000
0000
0000
0000
0000
0000
0000
0000
0000
0303
0000
,
0001
1000
0001
1000
0000
1000
0200
0000
0000
0300
0140
0000
0000
0000
0000
0000
,
0031
0010
0100
1000
0100
0010
0001
0010
,
0100
0000
1000
0000
0100
0000
0020
0000
0000
0000
0032
0000
0000
0003
2001
0000
,
0000
3001
0100
0010
1000
0010
0100
0001
,
0100
0000
0010
0000
1000
0000
0002
0000
0000
0000
0023
0000
0000
0030
0210
0000
,
0000
1300
0001
0100
0120
0000
2030
0000
,
3001
0010
0100
2100
0000
3001
0010
0100
,
1000
0000
0100
0000
0010
0000
0002
0000
0000
0000
2003
0000
0000
3000
1020
0000
,
0000
0000
0130
0000
0001
0000
2001
0000
0000
0000
3200
0000
0000
0300
0000
0000
,
0010
0001
1000
0020
0000
1030
0001
0021
,
0000
0230
0300
2200
0000
3300
0000
0000
,
1000
0100
1000
0001
0100
0002
0003
0000
,
1001
0000
2000
0000
0000
3000
1100
0000
0000
0000
0400
0000
0000
0000
0300
0000
,
0010
0000
0001
0000
1000
0000
0040
0000
0000
0000
2030
0000
0000
3000
1002
0000
,
0000
0013
0200
0000
0300
0000
0000
0000
,
1000
0001
0010
0001
0000
2000
0000
3000
,
1020
0000
0130
0202
0000
0303
2001
0000
,
3100
0010
0100
1000
0002
0000
1003
0010
,
0100
0010
2000
0000
3002
0103
0000
0000
,
0001
0100
0010
0200
0000
0301
1000
0100
,
0000
0000
0220
0300
0002
0030
2000
0003
,
3010
0100
0001
0100
0010
0100
0001
0100
,
0020
0000
0000
0000
2030
0000
0000
3000
1001
0000
0001
0000
0000
0000
0000
0000
,
1000
0000
0001
0000
0010
0000
0100
0000
0010
0000
0002
0000
0000
0003
2002
0000
,
0000
0000
3003
1200
,
0310
0000
0001
0000
1000
0000
0001
0100
0000
0100
0001
0000
1000
0000
0001
0000
,
0020
0000
0130
0000
0000
0100
1000
0000
0002
0000
0000
0003
0401
0000
0000
0000
,
0310
0000
1000
0001
1000
0000
0100
0010
0000
0010
0100
0000
1000
0000
0001
0000
,
1000
0000
0010
0100
0000
0100
0010
0000
2000
0000
0000
3000
1004
0000
0000
0000
,
0043
0400
0000
0000
0000
0000
0000
0000
0330
0000
0100
1000
0100
0000
0010
0000
,
0002
0000
1003
0000
0000
1000
0010
0000
0200
0000
0000
0300
0104
0000
0000
0000
,
4003
0400
0000
0000
0000
0000
0000
0000
0000
0000
0000
0000
0000
0000
3300
0000
,
1000
0001
1000
0001
0000
0001
0200
0000
0000
0300
0140
0000
0000
0000
0000
0000
,
1030
0001
1000
0200
0000
0000
0320
0000
,
0000
0000
0000
0000
0000
0130
1000
0002
,
0003
2000
0000
3001
1000
0020
0000
0000
,
0430
0004
0000
0000
0000
0000
0000
0303
0200
0000
0320
0000
0000
0000
0000
0000
,
1030
0001
1000
0000
0100
0010
0000
0010
0200
0000
4300
0000
0000
0000
0000
0000
,
3001
0010
0001
0000
1000
0010
0000
0010
4000
0000
0000
0000
3001
0000
0100
0000
,
0040
0000
0000
0000
1030
0001
1000
0000
0400
0000
0000
0000
0310
0001
0010
0000
,
0400
0000
4300
0000
3004
0000
0000
0003
,
2000
3100
0010
0002
0013
0100
2000
3100
0010
0002
0013
0100
,
2000
0000
3100
0000
0010
0000
0002
0000
0013
0000
0100
0000
2000
0000
3001
0010
0001
0010
0100
1000
0100
1000
0100
1000
,
0002
0103
0010
2000
3010
0100
0002
0103
0010
2000
3010
0100
,
0002
0103
0010
2000
3010
0100
0002
0000
0000
2003
0000
0000
,
3002
0013
0001
2000
3100
1000
0002
0103
0001
2000
3010
1000
,
0020
0130
0010
2000
3001
1000
0002
0013
0001
2000
3100
1000
,
0001
0010
0000
0100
0000
0010
0004
0000
1003
0000
0000
0000
1000
0100
0000
0010
0000
0100
4000
0000
3001
0000
0000
0000
,
0001
0100
0000
0010
0000
0100
0004
0000
1003
0000
0000
0000
1000
0010
0000
0100
0000
0010
4000
0004
0000
0000
0000
3003
,
2000
0000
0000
0000
0000
0000
3200
0000
0000
0000
0000
0000
0320
0000
0000
0031
0020
0000
0230
0000
0000
0000
0000
0000
,
2300
0000
0000
0000
0000
0000
3002
0000
0000
0000
0000
0000
2003
0000
0000
3100
0020
0000
0034
4000
0000
0000
0000
0000
,
0000
0000
0000
0000
0000
0000
0000
0000
0000
0000
0000
0000
0000
0000
0000
0000
0000
0000
0000
0000
0000
0000
0000
3003
,
0002
0000
0000
0203
0000
0000
0310
1000
0001
0200
0000
0000
,
0300
0002
0000
2003
,
3010
0200
0000
0000
0000
0000
0000
0301
,
1000
0100
0020
0000
0230
0000
2300
0000
,
3001
0200
0000
0320
0000
1030
0001
0010
,
0100
0010
0002
0000
1003
0020
0000
0230
,
0000
0300
0102
0000
0000
0000
1003
0000
0200
0000
0000
0000
0300
0000
0000
0000
,
0000
0000
0010
0001
0010
0200
0000
2300
,
0000
3000
1002
0000
0103
0020
0000
0030
,
2010
0000
3001
0010
1000
0010
0002
0000
,
1003
0000
0010
0000
0001
0000
0010
0000
2000
0000
0000
3000
1002
0000
0013
0000
,
0000
0000
0001
0010
1000
0020
0000
0031
,
1000
0010
0000
0000
0220
0030
0002
0300
,
2000
0003
3001
0100
1000
0100
0001
1000
,
0100
0000
0001
0000
0200
0000
0000
0000
2300
0000
0000
3000
1002
0000
0103
0000
,
0000
0000
0010
0100
0010
1000
0001
2000
,
3000
2200
0000
0000
0000
0000
3300
0000
,
0120
0000
0031
0010
1000
0010
0002
0000
,
1003
0000
0010
0000
0001
0000
0010
0000
2000
0000
0000
3000
1002
0000
0103
0000
,
0000
0000
0001
0100
1000
0200
0000
0301
,
1000
0010
0000
0000
0220
0030
0002
0300
,
2000
0003
3001
0010
1000
0010
0001
1000
,
0010
0000
0001
0000
0020
0000
0000
0000
2030
0000
0000
3000
1002
0000
0013
0000
,
0000
0000
0100
0010
0100
1000
0001
2000
,
3000
2020
0000
0000
0000
0000
3030
0000
,
0210
0000
0000
0000
0301
0000
1000
0000
0100
0000
0010
0001
0000
0001
0010
0000
,
0100
0000
1000
0000
0002
0000
0103
0000
0000
0100
0010
0000
2000
0000
0000
3000
,
1004
0000
0000
0000
0013
0000
0100
1000
0100
0000
0010
0001
0000
0001
0010
0000
,
0100
0000
1000
0000
0004
0400
0000
0000
0000
0000
0000
0000
0303
0000
0000
0000
,
0140
0000
0000
0000
1030
0001
1000
0000
0010
0000
0100
0001
0000
0001
0100
0000
,
0010
0000
1000
0000
0002
0000
0013
0000
0000
0010
0100
0000
2000
0000
0000
3000
,
1004
0000
0000
0000
4003
0040
0000
0000
0000
0000
0000
0000
0000
0000
0000
0000
,
0000
0000
3030
0000
1000
0001
1000
0001
0000
0001
0020
0000
0000
0030
0420
0000
,
0000
0000
0030
0000
1300
0000
0001
0000
0010
0000
0100
1000
0000
1000
0100
0000
,
0010
0000
0001
0000
2000
0000
3001
0000
0000
0001
0100
0000
0020
0000
0000
0030
,
4010
0000
0000
0000
3001
0010
0001
0000
1000
0000
0010
0100
0000
0100
0010
0000
,
1000
0000
0001
0000
0040
0400
0000
0000
0000
0000
0000
0000
0330
0000
0000
0000
,
4100
0000
0000
0000
3001
0100
0001
0000
1000
0000
0100
0010
0000
0010
0100
0000
,
1000
0000
0001
0000
0200
0000
0310
0000
0000
0010
1000
0000
0002
0000
0000
0003
,
0041
0000
0000
0000
0034
4000
0000
0000
0000
0000
0000
0000
0000
0000
0000
0000
,
0000
0000
0000
3003
;

//---------------dance-single - Ace Of Hearts (2015)----------------
#NOTES:
     dance-single:
     Ace Of Hearts (2015):
     Medium:
     7:
     0.504,0.000,0.026,0.967,0.126: // measure 1
0000
0000
0000
0000
,  // measure 2
0000
0000
0000
0000
,  // measure 3
0000
0000
0000
0000
,  // measure 4
0000
0000
0000
0000
,  // measure 5
0000
0000
0000
0000
,  // measure 6
0000
0000
0000
0000
,  // measure 7
0000
0000
0000
0000
,  // measure 8
0000
0000
0000
0000
,  // measure 9
0000
0000
0000
0000
,  // measure 10
0002
0000
0000
0023
0000
0000
0031
0000
1000
0000
0000
0000
0000
0000
0000
0000
,  // measure 11
0020
0000
0000
2030
0000
0000
3010
0000
0100
0000
0000
0000
0000
0000
0000
0000
,  // measure 12
0002
0000
0000
0203
0000
0000
0301
0000
1000
0000
0000
0000
0000
0000
0000
0000
,  // measure 13
0200
0000
0000
0320
0000
0000
0034
0000
0000
0000
0000
0000
0000
0000
0003
0000
,  // measure 14
2002
0000
0000
0003
,  // measure 15
3200
0000
0000
0000
0320
0000
0000
0030
,  // measure 16
0022
0000
0000
0030
,  // measure 17
2003
0000
3020
0000
,  // measure 18
0230
0000
0000
0301
0000
0000
0001
0000
0000
0000
0000
0000
0000
0000
0000
0000
,  // measure 19
2000
0000
0000
3100
0000
0000
0100
0000
0020
0000
0000
0000
0032
0000
0000
0000
,  // measure 20
2003
0000
0000
3010
0000
0000
0010
0000
0000
0000
0000
0000
0000
0000
0000
0000
,  // measure 21
0200
0000
0000
0301
0000
0000
0001
0000
2000
0000
0000
0000
3200
0000
0000
0000
,  // measure 22
0320
0000
0000
0031
0000
0000
0001
0000
0000
0000
0000
0000
0000
0000
0000
0000
,  // measure 23
2000
0000
0000
3010
0000
0000
0010
0000
0200
0000
0000
0000
0302
0000
0000
0000
,  // measure 24
2003
0000
0000
3100
0000
0000
0100
0000
0000
0000
0000
0000
0000
0000
0000
0000
,  // measure 25
0020
0000
0000
0130
0000
0000
0100
0000
2000
0000
0000
0000
3002
0000
0000
0000
,  // measure 26
0043
0000
0430
0000
,  // measure 27
2300
0000
0000
3002
0000
0000
0103
0000
0002
0000
0000
0000
2003
0000
0000
3000
,  // measure 28
2400
3000
0340
0000
,  // measure 29
0032
0000
0000
2003
0000
0000
3010
0000
2000
0000
0000
0000
3002
0000
0000
0003
,  // measure 30
0042
0003
0430
0000
,  // measure 31
2300
0000
0000
3002
0000
0000
0013
0000
0002
0000
0000
0000
2003
0000
0000
3000
,  // measure 32
2040
0000
0000
0000
3000
0000
0000
0000
0430
0000
0000
0000
0000
0000
0000
0300
,  // measure 33
0000
0000
0000
0000
,  // measure 34
0001
0000
0100
0000
0001
0000
0000
4000
0000
0000
3001
0000
0010
0000
0001
0000
,  // measure 35
2000
0000
0000
3000
0000
0000
0001
0000
0020
0000
0000
0000
0430
0000
0000
0000
,  // measure 36
4300
0000
0000
0000
3000
0001
0100
0001
,  // measure 37
2000
0000
0000
3020
0000
0000
0130
0000
0002
0000
0000
0000
4003
0000
0000
0000
,  // measure 38
3001
0000
1000
0000
0001
0000
0000
0400
0000
0000
0310
0000
1000
0000
0010
0000
,  // measure 39
0200
0000
0000
0300
0000
0000
0001
0000
2000
0000
0000
0000
3200
0000
0000
0000
,  // measure 40
0340
0000
0000
0000
,  // measure 41
0032
0000
0000
2003
0000
0000
3020
0000
0000
0000
0430
0000
0000
0000
0300
0000
,  // measure 42
0001
1000
0001
0000
0010
0100
0010
0000
,  // measure 43
0001
0000
1000
0020
0000
0230
0000
0302
,  // measure 44
0000
1003
0100
0000
1000
0000
0001
0010
,  // measure 45
0001
0000
1000
0200
0000
0300
0000
0020
,  // measure 46
0000
0130
1000
0000
0004
0000
1003
0000
,  // measure 47
0020
0000
0130
0002
0000
1003
0100
0000
,  // measure 48
2000
0000
3001
0200
0000
0320
0000
2030
,  // measure 49
0000
3001
0010
0002
0000
2003
0000
3000
,  // measure 50
0001
0000
0010
0200
0000
0310
0001
0020
,  // measure 51
0000
0230
0300
2200
0000
0000
3300
0000
,  // measure 52
1000
0002
0000
0013
0100
0010
0000
0000
,  // measure 53
0001
2000
0000
3100
0000
0020
0000
0030
,  // measure 54
0100
0000
1000
0002
0000
0203
0000
0310
,  // measure 55
0000
1000
0002
0000
0003
0000
0000
0000
,  // measure 56
1000
0200
0000
0310
0000
0100
0000
0000
,  // measure 57
2000
0000
3001
0020
0000
0000
0030
0000
,  // measure 58
0001
1000
0001
0000
1000
0000
0010
0100
,  // measure 59
0020
0000
2030
0000
3001
0010
0000
0000
,  // measure 60
0100
0000
1000
0002
0000
1003
0010
1000
,  // measure 61
0000
0002
0023
0230
,  // measure 62
1300
0100
1000
0000
0001
0000
0100
0010
,  // measure 63
0200
0000
0302
0000
1003
0100
0000
0000
,  // measure 64
0010
0001
0010
0000
0100
2000
0000
0002
,  // measure 65
0000
0000
0000
3003
,  // measure 66
1000
0000
0010
0000
1000
0000
0000
0004
0000
0000
0013
0000
0100
0000
0010
0000
,  // measure 67
0002
0000
0000
0003
0000
0000
1000
0000
0020
0000
0000
0000
0430
0000
0000
0000
,  // measure 68
0304
0000
0000
0000
0003
1000
0100
1000
,  // measure 69
0002
0000
0000
0023
0000
0000
0130
0000
2000
0000
0000
0000
3004
0000
0000
0000
,  // measure 70
1003
0000
0010
0000
1000
0000
0000
0004
0000
0000
0013
0000
0100
0000
0010
0000
,  // measure 71
0002
0000
0000
0003
0000
0000
1000
0000
0020
0000
0000
0000
0430
0000
0000
0000
,  // measure 72
0304
0000
0000
0000
,  // measure 73
2003
0000
0000
3200
0000
0000
0320
0000
0000
0000
0034
0000
0000
0000
0000
0000
,  // measure 74
1003
0010
1000
0000
0001
0000
0010
0100
,  // measure 75
0010
0000
0001
2000
0000
3020
0000
0230
,  // measure 76
0000
0301
1000
0000
0100
0010
0100
0000
,  // measure 77
2000
0000
3001
0200
0000
0000
0300
0020
,  // measure 78
0000
1030
0001
0000
0020
0000
0230
0000
,  // measure 79
1300
0100
1000
0002
0000
0000
1003
0010
,  // measure 80
2000
0000
3001
0020
0000
0230
0000
0320
,  // measure 81
0000
0031
1000
0002
0000
0203
0000
0300
,  // measure 82
0010
0000
0100
0002
0000
1003
0100
2000
,  // measure 83
0000
3002
0003
0202
0000
0000
0303
0000
,  // measure 84
0001
1000
0000
0010
0100
0010
0000
0000
,  // measure 85
1000
0002
0000
0013
0000
0200
0000
0300
,  // measure 86
1000
0000
0001
0020
0000
0230
0000
0310
,  // measure 87
0000
0001
2000
0000
3000
0000
0000
0000
,  // measure 88
0001
0000
0100
0020
0000
1030
0000
0000
,  // measure 89
0002
0000
0013
0200
0000
0000
0300
0000
,  // measure 90
1000
0100
1000
0000
0001
0000
0100
0010
,  // measure 91
0200
0000
0302
0000
1003
0100
0000
0000
,  // measure 92
0020
0000
0031
2000
0000
3010
0100
0010
,  // measure 93
0000
2000
3020
0230
,  // measure 94
0301
1000
0001
0000
0010
0000
0100
1000
,  // measure 95
0200
0000
0320
0000
0031
1000
0000
0000
,  // measure 96
0001
0100
0001
0000
1000
0200
0000
0020
,  // measure 97
0000
0000
0000
0330
,  // measure 98
0100
0000
1000
0000
0001
0000
0000
4000
0000
0000
3001
0000
0100
0000
0001
0000
,  // measure 99
2000
0000
0000
3000
0000
0000
0100
0000
0020
0000
0000
0000
0034
0000
0000
0000
,  // measure 100
4003
0000
0000
0000
3000
0001
0100
0001
,  // measure 101
2000
0000
0000
3200
0000
0000
0310
0000
0002
0000
0000
0000
0043
0000
0000
0000
,  // measure 102
0130
0000
1000
0000
0100
0000
0000
0040
0000
0000
0031
0000
1000
0000
0001
0000
,  // measure 103
0200
0000
0000
0300
0000
0000
0010
0000
2000
0000
0000
0000
3004
0000
0000
0000
,  // measure 104
0043
0000
0000
0000
,  // measure 105
0230
0000
0000
2300
0000
0000
3002
0000
0000
0000
4003
0000
0000
0000
0000
0000
,  // measure 106
3200
0000
0310
0002
0000
0000
2003
0000
,  // measure 107
0000
0000
0000
0000
0000
3010
0100
0020
,  // measure 108
0000
0230
0000
0302
0000
2003
0000
0000
,  // measure 109
3004
0000
0000
0000
1003
0020
0000
0000
,  // measure 110
0130
0000
0001
0000
0000
1000
0000
0000
0001
0000
0100
0000
0004
0000
0000
0000
,  // measure 111
1003
0100
2000
0000
3001
0000
0010
0100
,  // measure 112
0020
0034
2003
3040
,  // measure 113
0430
0304
2003
0000
,  // measure 114
3002
0000
0013
0200
0000
1300
0002
0000
1003
0020
0000
0130
,  // measure 115
0002
0000
1003
0200
0000
0310
0004
0000
0000
0000
0000
0000
,  // measure 116
2003
0000
3001
0200
0000
0310
2000
0000
3001
0020
0000
0130
,  // measure 117
2000
0000
3001
0200
0000
0310
2000
0000
0000
3002
0000
0000
,  // measure 118
0023
0000
0130
0020
0000
0031
0020
0000
0130
0020
0000
0031
,  // measure 119
2000
0000
3010
2000
0000
3001
2000
0000
3010
2000
0000
3001
,  // measure 120
0010
0000
0000
0010
0000
0000
0200
0000
0310
0000
0000
0000
0001
0000
0000
0001
0000
0000
2000
0000
3100
0000
0000
0000
,  // measure 121
1000
0000
0000
1000
0000
0000
0002
0000
1003
0000
0000
0000
0010
0000
0000
0010
0000
0000
0400
0000
0000
0000
0000
0000
,  // measure 122
0302
0000
0000
0000
2003
0000
0000
0000
3200
0000
0000
0310
0002
0000
0000
0000
,  // measure 123
2003
0000
0000
0000
3020
0000
0000
0000
0230
0000
0000
0301
4000
0000
0000
0000
,  // measure 124
3001
0010
0001
0010
0000
0000
0100
1000
0100
1000
0000
0000
,  // measure 125
0002
0000
0000
0000
2003
0000
0000
0000
3020
0000
0000
0130
0002
0000
0000
0000
,  // measure 126
0003
2000
0000
3002
,  // measure 127
0013
0200
0000
0000
0000
0000
0000
1300
,  // measure 128
0001
0020
0032
2003
,  // measure 129
3001
0200
0000
0310
1000
0020
0000
2030
,  // measure 130
0000
3001
0010
0001
0000
2000
0000
3020
,  // measure 131
0000
0130
0000
0001
2000
0000
3000
0000
,  // measure 132
0000
0000
0100
0020
0000
0031
0000
2000
,  // measure 133
0000
3000
0002
0000
0103
0020
0000
0000
,  // measure 134
0030
0000
1000
0010
1000
0000
0001
0000
,  // measure 135
0010
0100
0020
0000
0032
0000
1003
0010
,  // measure 136
0000
0000
0200
0000
0301
2000
0000
3001
,  // measure 137
0010
0001
0000
0000
0020
0000
0230
0000
,  // measure 138
2300
0000
3001
0010
0001
0000
1000
0000
,  // measure 139
0010
0100
0020
0000
2030
0000
3001
0100
,  // measure 140
0000
0000
0001
1000
0001
0000
0010
0200
,  // measure 141
0000
2000
0000
0000
0000
0000
0000
0000
,  // measure 142
3300
0000
0100
0010
0100
0010
0002
0000
,  // measure 143
1003
0010
2000
0000
3002
0000
0103
0010
,  // measure 144
0000
0000
1000
0010
1000
0002
0000
1003
,  // measure 145
0100
1000
0000
0000
0002
0000
0023
0000
,  // measure 146
0230
0000
1300
0001
1000
0000
0001
0000
,  // measure 147
0010
0100
0020
0000
0032
0000
1003
0100
,  // measure 148
0000
0000
0010
0001
0010
0000
0100
2000
,  // measure 149
0000
0002
0000
0000
0000
0000
0000
0000
,  // measure 150
3003
0000
0000
0000
1000
0000
0010
0000
1000
0000
0000
0004
0000
0000
1003
0000
,  // measure 151
0100
0000
0000
0000
0020
0000
0000
0030
0000
0000
0100
0000
2000
0000
0000
0000
,  // measure 152
3004
0000
0000
0000
1003
0000
0010
0000
1000
0000
0000
0002
0000
0000
1003
0000
,  // measure 153
0010
0000
0000
0000
0200
0000
0000
0302
0000
0000
1003
0000
0200
0000
0000
0000
,  // measure 154
0340
0000
0000
0000
0031
0000
1000
0000
0001
0000
0000
0400
0000
0000
0310
0000
,  // measure 155
0100
0000
0000
0000
0002
0000
0000
0003
0000
0000
1000
0000
0200
0000
0000
0000
,  // measure 156
0340
0034
0000
0000
,  // measure 157
0000
0000
0000
0000
2003
0000
0000
3020
0000
0000
0230
0000
0000
0000
0304
0000
,  // measure 158
0000
0000
0000
0000
1003
0000
0001
0000
1000
0000
0000
0040
0000
0000
1030
0000
,  // measure 159
0001
0000
0000
0000
0020
0000
0000
0030
0000
0000
0100
0000
2000
0000
0000
0000
,  // measure 160
3004
0000
0000
0000
0103
0000
0010
0000
0100
0000
0000
0040
0000
0000
1030
0000
,  // measure 161
0001
0000
0000
0000
2000
0000
0000
3200
0000
0000
0310
0000
0002
0000
0000
0000
,  // measure 162
4003
0000
0000
0000
3010
0000
1000
0000
0010
0000
0000
0400
0000
0000
0301
0000
,  // measure 163
1000
0000
0000
0000
0200
0000
0000
0300
0000
0000
0010
0000
0002
0000
0000
0000
,  // measure 164
4003
3400
0000
0000
,  // measure 165
0000
0000
0000
0300
;

//---------------dance-single - Ace Of Hearts (2015)----------------
#NOTES:
     dance-single:
     Ace Of Hearts (2015):
     Easy:
     5:
     0.251,0.000,0.015,0.337,0.000: // measure 1
0000
0000
0000
0000
,  // measure 2
0000
0000
0000
0000
,  // measure 3
0000
0000
0000
0000
,  // measure 4
0000
0000
0000
0000
,  // measure 5
0000
0000
0000
0000
,  // measure 6
0000
0000
0000
0000
,  // measure 7
0000
0000
0000
0000
,  // measure 8
0000
0000
0000
0000
,  // measure 9
0000
0000
0000
0000
,  // measure 10
1000
0100
1000
0000
,  // measure 11
0001
0010
0001
0000
,  // measure 12
1000
0010
1000
0000
,  // measure 13
0001
0100
0001
0000
,  // measure 14
2000
0000
0000
0000
,  // measure 15
3200
0000
0320
0000
,  // measure 16
0032
0000
0000
0000
,  // measure 17
2003
0000
3002
0000
,  // measure 18
0103
0100
0000
0000
,  // measure 19
0010
0010
2000
3000
,  // measure 20
0001
0001
0000
0000
,  // measure 21
0010
0010
0200
0300
,  // measure 22
1000
1000
0000
0000
,  // measure 23
0001
0001
0200
0300
,  // measure 24
0010
0010
0000
0000
,  // measure 25
1000
1000
0002
0003
,  // measure 26
0020
0000
0430
0000
,  // measure 27
1300
1000
1000
0000
,  // measure 28
0002
0000
0403
0000
,  // measure 29
0310
0010
0010
0000
,  // measure 30
2000
0000
3004
0000
,  // measure 31
0013
0010
0010
0000
,  // measure 32
0200
0000
4300
0000
,  // measure 33
3000
0000
0000
0000
,  // measure 34
0001
0100
0001
0000
,  // measure 35
1000
1000
0200
0300
,  // measure 36
0040
0000
0030
0000
,  // measure 37
0001
1000
0001
0000
,  // measure 38
1000
0100
1000
0000
,  // measure 39
0001
0001
0200
0300
,  // measure 40
0040
0000
0000
0000
,  // measure 41
4030
0000
3000
0000
,  // measure 42
0001
0010
0001
0000
,  // measure 43
1000
0000
0000
1000
0000
0000
0000
0100
,  // measure 44
0000
0010
0100
0000
,  // measure 45
1000
0000
0000
2000
0000
0000
3000
0002
,  // measure 46
0000
0103
0002
0000
,  // measure 47
1003
0000
0000
2000
0000
0000
3000
0000
,  // measure 48
0001
0000
0000
0001
0000
0000
0000
0010
,  // measure 49
0000
0000
0000
0020
0000
0000
0030
0000
,  // measure 50
0100
0000
0000
0100
0000
0000
0000
1000
,  // measure 51
0000
0001
0000
2000
0000
0000
3000
0000
,  // measure 52
0010
0000
0000
0010
0000
0000
0000
0000
,  // measure 53
0100
0000
0000
0100
0000
0000
0000
0000
,  // measure 54
0001
0000
0000
0001
0000
0000
0000
1000
,  // measure 55
0000
1000
0000
0000
,  // measure 56
0100
0000
0000
0100
0000
0000
0000
0000
,  // measure 57
0020
0000
0000
0031
0000
0000
0000
0000
,  // measure 58
1000
0100
1000
0000
,  // measure 59
0001
0010
0001
0000
,  // measure 60
1000
0000
0000
0020
0000
0000
0000
1030
,  // measure 61
0000
0002
0203
0000
,  // measure 62
0310
0100
0010
0000
,  // measure 63
1000
0001
1000
0000
,  // measure 64
0001
0000
0010
0000
0001
0000
0000
2002
,  // measure 65
0000
0000
0000
3003
,  // measure 66
1000
0100
1000
0000
,  // measure 67
0001
0001
0200
0300
,  // measure 68
0040
0000
0030
0000
,  // measure 69
1000
0001
1000
0000
,  // measure 70
0001
0010
0001
0000
,  // measure 71
1000
1000
0020
0030
,  // measure 72
0400
0000
0000
0000
,  // measure 73
0304
0000
0003
0000
,  // measure 74
1000
0100
1000
0000
,  // measure 75
0001
0000
0000
0001
0000
0000
0000
0200
,  // measure 76
0000
0310
0010
0000
,  // measure 77
1000
0000
0000
2000
0000
0000
0000
3002
,  // measure 78
0000
0013
0020
0030
,  // measure 79
0100
0000
0000
0200
0000
0000
0300
0000
,  // measure 80
1000
0000
0000
2000
0000
3000
0000
0002
,  // measure 81
0000
0003
0000
0010
0000
0010
0000
0000
,  // measure 82
0100
0000
0000
0100
0000
0000
0000
1000
,  // measure 83
0000
0001
0000
2000
0000
0000
3000
0000
,  // measure 84
0100
0000
0000
0100
0000
0000
0000
0000
,  // measure 85
0010
0000
0000
0010
0000
0000
0000
0000
,  // measure 86
0001
0000
0000
0001
0000
0000
0000
1000
,  // measure 87
0000
1000
0000
0000
,  // measure 88
0010
0000
0000
0010
0000
0000
0000
0000
,  // measure 89
0200
0000
0000
0301
0000
0000
0000
0000
,  // measure 90
1000
0001
1000
0000
,  // measure 91
0100
0010
0100
0000
,  // measure 92
2000
0000
0000
3002
0000
0000
0000
0103
,  // measure 93
0000
0020
2030
0000
,  // measure 94
3001
0100
0001
0000
,  // measure 95
1000
0001
1000
0000
,  // measure 96
0100
0000
1000
0000
0100
0000
0000
0220
,  // measure 97
0000
0000
0000
0330
,  // measure 98
0010
0001
0010
0000
,  // measure 99
0100
0100
2000
3000
,  // measure 100
0004
0000
0003
0000
,  // measure 101
0100
0010
0100
0000
,  // measure 102
0001
1000
0001
0000
,  // measure 103
0010
0010
0200
0300
,  // measure 104
4000
0000
0000
0000
,  // measure 105
3004
0000
0003
0000
,  // measure 106
2000
0000
0000
3020
,  // measure 107
0000
0000
0000
0000
0000
0130
0000
0200
,  // measure 108
0000
0000
0000
0302
0000
0000
0000
0000
,  // measure 109
4003
0000
3200
0000
,  // measure 110
0310
0010
0001
0000
,  // measure 111
1000
1000
0010
0000
,  // measure 112
0100
0100
0001
0001
,  // measure 113
4000
0000
3000
0000
,  // measure 114
0002
0003
0020
0030
,  // measure 115
0200
0000
0300
0000
4000
0000
0000
3000
,  // measure 116
0001
0001
0100
0100
,  // measure 117
0010
0010
2000
0000
,  // measure 118
3001
0001
0010
0010
,  // measure 119
0100
0100
1000
1000
,  // measure 120
0002
0000
0000
0000
0003
0000
2000
0000
0000
0000
3000
0000
,  // measure 121
0020
0000
0000
0000
0030
0000
0200
0000
0000
0302
0000
0000
,  // measure 122
2003
3200
0310
0020
,  // measure 123
0032
2003
3010
0020
,  // measure 124
0430
0000
0000
0000
,  // measure 125
0302
2003
3100
0200
,  // measure 126
0300
0020
0000
0031
,  // measure 127
0000
2000
0000
0000
0000
0000
0000
0000
,  // measure 128
3000
0100
0010
0100
,  // measure 129
0000
2000
0000
0000
0000
0000
3000
0000
,  // measure 130
0000
0000
0001
0000
0000
0001
0000
0000
,  // measure 131
0000
1000
0000
0000
1000
0000
0000
0000
,  // measure 132
0000
0000
0100
0000
0000
0100
0000
0000
,  // measure 133
0000
0000
0020
0000
0000
0130
0000
0000
,  // measure 134
0000
1000
0100
1000
,  // measure 135
0000
0001
0100
0001
,  // measure 136
0000
0000
2000
0000
0000
3020
0000
0000
,  // measure 137
0000
0130
0000
0000
0002
0000
2003
0000
,  // measure 138
0000
3001
0010
0001
,  // measure 139
0000
1000
0100
1000
,  // measure 140
0000
0100
0010
0100
,  // measure 141
0000
2002
0000
0000
0000
0000
0000
0000
,  // measure 142
3003
1000
1000
1000
,  // measure 143
0001
0010
0010
0010
,  // measure 144
0000
0000
0100
0000
0000
0200
0000
0000
,  // measure 145
0000
1300
0000
0000
0002
0000
0023
0000
,  // measure 146
0032
1003
1000
1000
,  // measure 147
0001
0100
0100
0100
,  // measure 148
0000
0001
0100
0001
,  // measure 149
0000
2002
0000
0000
0000
0000
0000
0000
,  // measure 150
3003
1000
0100
1000
,  // measure 151
0000
0001
0001
0020
,  // measure 152
0030
0400
0000
0300
,  // measure 153
0000
1000
0001
1000
,  // measure 154
0000
0010
1000
0010
,  // measure 155
0000
0100
0100
0002
,  // measure 156
0003
4000
0000
0000
,  // measure 157
0000
3004
0000
0003
,  // measure 158
0000
0010
0001
0010
,  // measure 159
0000
0100
0100
2000
,  // measure 160
3000
0004
0000
0003
,  // measure 161
0000
1000
0010
1000
,  // measure 162
0000
0001
0010
0001
,  // measure 163
0000
1000
1000
0200
,  // measure 164
0300
0040
0000
0000
,  // measure 165
0000
0000
0000
0030
;

//---------------dance-single - Ace Of Hearts (2015)----------------
#NOTES:
     dance-single:
     Ace Of Hearts (2015):
     Beginner:
     2:
     0.154,0.000,0.000,0.259,0.000: // measure 1
0000
0000
0000
0000
,  // measure 2
0000
0000
0000
0000
,  // measure 3
0000
0000
0000
0000
,  // measure 4
0000
0000
0000
0000
,  // measure 5
0000
0000
0000
0000
,  // measure 6
0000
0000
0000
0000
,  // measure 7
0000
0000
0000
0000
,  // measure 8
0000
0000
0000
0000
,  // measure 9
0000
0000
0000
0000
,  // measure 10
2000
0000
3000
0000
,  // measure 11
2000
0000
3000
0000
,  // measure 12
0002
0000
0003
0000
,  // measure 13
0002
0000
0003
0000
,  // measure 14
2000
0000
3000
0000
,  // measure 15
0002
0000
0003
0000
,  // measure 16
0020
0000
0030
0000
,  // measure 17
0200
0000
0300
0000
,  // measure 18
2000
3000
0000
0000
,  // measure 19
0001
0000
0001
0000
,  // measure 20
0002
0003
0000
0000
,  // measure 21
0100
0000
0100
0000
,  // measure 22
0200
0300
0000
0000
,  // measure 23
0010
0000
0010
0000
,  // measure 24
0020
0030
0000
0000
,  // measure 25
1000
0000
1000
0000
,  // measure 26
2000
0000
3000
0000
,  // measure 27
0001
0000
0001
0000
,  // measure 28
0002
0000
0003
0000
,  // measure 29
0010
0000
0010
0000
,  // measure 30
0020
0000
0030
0000
,  // measure 31
0100
0000
0100
0000
,  // measure 32
0200
0000
0300
0000
,  // measure 33
0000
0000
0000
0000
,  // measure 34
1000
0000
1000
0000
,  // measure 35
2000
0000
3000
0000
,  // measure 36
0004
0000
0003
0000
,  // measure 37
0040
0000
0030
0000
,  // measure 38
0100
0000
0100
0000
,  // measure 39
0200
0000
0300
0000
,  // measure 40
4000
0000
3000
0000
,  // measure 41
0004
0000
0003
0000
,  // measure 42
1000
0000
1000
0000
,  // measure 43
2000
0000
3000
0000
,  // measure 44
0010
0000
0010
0000
,  // measure 45
0020
0000
0030
0000
,  // measure 46
0100
0000
0100
0000
,  // measure 47
0200
0000
0300
0000
,  // measure 48
0001
0000
0001
0000
,  // measure 49
0002
0000
0003
0000
,  // measure 50
1000
0000
1000
0000
,  // measure 51
2000
0000
3000
0000
,  // measure 52
0100
0000
0100
0000
,  // measure 53
0200
0000
0300
0000
,  // measure 54
0010
0000
0010
0000
,  // measure 55
0020
0000
0030
0000
,  // measure 56
0001
0000
0001
0000
,  // measure 57
0002
0000
0003
0000
,  // measure 58
0100
0000
0100
0000
,  // measure 59
0200
0000
0300
0000
,  // measure 60
0010
0000
0010
0000
,  // measure 61
0020
0000
0030
0000
,  // measure 62
1000
0000
1000
0000
,  // measure 63
2000
0000
3000
0000
,  // measure 64
0001
0000
0001
0000
,  // measure 65
0002
0000
0003
0000
,  // measure 66
0010
0000
0010
0000
,  // measure 67
0020
0000
0030
0000
,  // measure 68
0400
0000
0300
0000
,  // measure 69
4000
0000
3000
0000
,  // measure 70
0001
0000
0001
0000
,  // measure 71
0002
0000
0003
0000
,  // measure 72
0400
0000
0300
0000
,  // measure 73
0040
0000
0030
0000
,  // measure 74
0100
0000
0100
0000
,  // measure 75
0200
0000
0300
0000
,  // measure 76
0001
0000
0001
0000
,  // measure 77
0002
0000
0003
0000
,  // measure 78
1000
0000
1000
0000
,  // measure 79
2000
0000
3000
0000
,  // measure 80
0100
0000
0100
0000
,  // measure 81
0200
0000
0300
0000
,  // measure 82
0010
0000
0010
0000
,  // measure 83
0020
0000
0030
0000
,  // measure 84
0001
0000
0001
0000
,  // measure 85
0002
0000
0003
0000
,  // measure 86
1000
0000
1000
0000
,  // measure 87
2000
0000
3000
0000
,  // measure 88
0010
0000
0010
0000
,  // measure 89
0020
0000
0030
0000
,  // measure 90
1000
0000
1000
0000
,  // measure 91
2000
0000
3000
0000
,  // measure 92
0001
0000
0001
0000
,  // measure 93
0002
0000
0003
0000
,  // measure 94
0010
0000
0010
0000
,  // measure 95
0020
0000
0030
0000
,  // measure 96
0100
0000
0100
0000
,  // measure 97
0200
0000
0300
0000
,  // measure 98
1000
0000
1000
0000
,  // measure 99
2000
0000
3000
0000
,  // measure 100
0004
0000
0003
0000
,  // measure 101
0400
0000
0300
0000
,  // measure 102
0010
0000
0010
0000
,  // measure 103
0020
0000
0030
0000
,  // measure 104
4000
0000
3000
0000
,  // measure 105
0004
0000
0003
0000
,  // measure 106
0020
0000
0000
0000
,  // measure 107
0030
0000
0000
0000
,  // measure 108
0100
0000
0100
0000
,  // measure 109
0400
0000
0300
0000
,  // measure 110
1000
0000
1000
0000
,  // measure 111
2000
0000
3000
0000
,  // measure 112
0001
0000
0001
0000
,  // measure 113
0002
0000
0003
0000
,  // measure 114
0010
0000
0010
0000
,  // measure 115
0100
0000
0100
0000
,  // measure 116
1000
0000
1000
0000
,  // measure 117
0001
0000
0002
0000
,  // measure 118
1003
0000
1000
0000
,  // measure 119
0001
0000
0001
0000
,  // measure 120
0200
0000
0000
0000
0300
0000
0200
0000
0000
0000
0300
0000
,  // measure 121
0020
0000
0000
0000
0030
0000
0020
0000
0000
0000
0030
0000
,  // measure 122
1000
0000
1000
0000
,  // measure 123
0001
0000
0001
0000
,  // measure 124
0040
0000
0000
0000
,  // measure 125
0030
0000
0200
0300
,  // measure 126
0000
1000
0000
1000
,  // measure 127
0000
1000
0000
0000
,  // measure 128
0000
0001
0000
0001
,  // measure 129
0000
0001
0000
0000
,  // measure 130
0000
0100
0000
0100
,  // measure 131
0000
0200
0000
0300
,  // measure 132
0000
0010
0000
0010
,  // measure 133
0000
0020
0000
0030
,  // measure 134
0000
1000
0000
1000
,  // measure 135
0000
2000
0000
3000
,  // measure 136
0000
0001
0000
0001
,  // measure 137
0000
0002
0000
0003
,  // measure 138
0000
0010
0000
0010
,  // measure 139
0000
0020
0000
0030
,  // measure 140
0000
0100
0000
0100
,  // measure 141
0000
0200
0000
0300
,  // measure 142
0000
1000
0000
1000
,  // measure 143
0000
2000
0000
3000
,  // measure 144
0000
0001
0000
0001
,  // measure 145
0000
0002
0000
0003
,  // measure 146
0000
0100
0000
0100
,  // measure 147
0000
0200
0000
0300
,  // measure 148
0000
0010
0000
0010
,  // measure 149
0000
0020
0000
0030
,  // measure 150
0000
1000
0000
1000
,  // measure 151
0000
2000
0000
3000
,  // measure 152
0000
0004
0000
0003
,  // measure 153
0000
0040
0000
0030
,  // measure 154
0000
0100
0000
0100
,  // measure 155
0000
0200
0000
0300
,  // measure 156
0000
4000
0000
3000
,  // measure 157
0000
0004
0000
0003
,  // measure 158
0000
0010
0000
0010
,  // measure 159
0000
0020
0000
0030
,  // measure 160
0000
0400
0000
0300
,  // measure 161
0000
4000
0000
3000
,  // measure 162
0000
0001
0000
0001
,  // measure 163
0000
0002
0000
0003
,  // measure 164
0000
0400
0000
0000
,  // measure 165
0000
0000
0000
0300
;
