#TITLE:Walkie Talkie Man;
#SUBTITLE:;
#ARTIST:Steriogram;
#TITLETRANSLIT:;
#SUBTITLETRANSLIT:;
#ARTISTTRANSLIT:;
#GENRE:Rock;
#CREDIT:Ace Of Hearts;
#BANNER:Walkie Talkie Banner.png;
#BACKGROUND:Walkie Talkie Background.jpg;
#LYRICSPATH:;
#CDTITLE:Ace Of Arrows.png;
#MUSIC:Walkie Talkie Man.ogg;
#OFFSET:-0.470;
#SAMPLESTART:49.533;
#SAMPLELENGTH:12.000;
#SELECTABLE:YES;
#BPMS:0.000=141.000,112.000=70.500,114.000=141.000,194.000=70.500,208.000=141.000,269.000=140.000,278.000=139.000,284.000=136.000;
#STOPS:208.000=1.277
;
#BGCHANGES:-1.250=Walkie Talkie Video.avi=1.000=1=0=1===CrossFade==,
314.000=Walkie Talkie Background.jpg=1.000=0=0=1=Centered====,
99999=-nosongbg-=1.000=0=0=0 // don't automatically add -songbackground-
;
#KEYSOUNDS:;

//---------------dance-single - Ace Of Hearts (2014 Rewrite)----------------
#NOTES:
     dance-single:
     Ace Of Hearts (2014 Rewrite):
     Challenge:
     11:
     0.884,0.000,0.622,0.961,0.672:
0000
0000
0000
0000
,
0000
0000
0000
0000
,
0000
0000
0000
0000
,
0000
0000
0000
0000
,
0000
0000
0000
0000
0000
0001
1001
2000
,
3002
0000
0013
0000
0100
0000
1000
0100
1000
0000
0002
0000
0103
0000
0010
1000
,
0010
0000
0200
0000
0301
0000
1000
0001
1000
0000
0100
0000
0110
0000
0020
0030
,
0011
0000
0001
0000
1000
0000
0010
0100
0010
0000
2000
0000
3001
0000
0010
0100
,
0010
0000
0002
0000
1003
0000
0001
0100
0001
0000
1000
0100
0010
0001
0010
0100
,
1000
0100
1000
0100
0010
0001
0010
0001
1000
0010
1000
0010
0100
0001
0100
0001
,
1000
0010
1000
0010
0100
0010
0200
0000
0301
0100
0010
1000
0010
0100
0001
1000
,
0001
0100
0010
0100
0002
0000
0000
1003
0100
0010
0100
1000
0200
0000
0000
0310
,
0001
0010
0100
2000
0000
3001
0100
0000
0110
0000
0010
0100
0002
0000
0003
0000
,
1000
0001
1000
0001
0020
0000
0230
0000
1300
0100
1000
0100
0020
0000
0130
0000
,
2100
0000
3001
0100
0010
0100
0001
1000
0001
1000
0100
0010
0200
0000
0300
0000
,
1000
0000
0000
0001
0000
0000
1000
0000
0000
0000
0000
0000
1020
0000
0000
0000
0000
0000
0130
0000
0000
0000
0000
0000
0101
0000
0000
0000
0001
0000
0000
0000
1000
0000
0000
0000
1100
0000
0000
0000
0000
0000
0100
0000
0000
0000
0000
0000
,
0220
0000
0000
0330
0022
0000
0030
0000
1003
0010
1000
0010
0100
0001
0100
0001
,
2000
0000
0000
3000
2002
0000
0000
3003
0202
0000
0003
0000
0310
0000
1000
0000
,
2002
0000
3000
0000
0023
0000
0130
1000
0001
0100
0001
0100
0010
0000
2000
0000
,
3000
0000
0001
0010
0100
0010
0001
2001
,
0000
0200
0000
0010
0001
0010
0001
0010
,
0011
0000
3300
0000
2002
0000
0000
3003
0202
0000
0003
0000
0310
0000
1000
0000
,
2002
0000
0000
3003
0021
0000
0130
1000
0001
0100
0001
0100
0010
0000
2000
0000
,
3000
0000
0001
0010
0110
0100
1000
1002
,
0000
0003
0101
0000
0000
0000
0100
0000
0110
0000
0010
0000
1010
0000
1000
0000
,
1001
0001
0010
0100
1100
1000
0001
0100
,
0110
0010
1000
0001
0011
0010
0100
1000
,
1001
0001
0100
0010
1010
1000
0001
0010
,
0110
0000
0100
0000
1000
0000
0001
0000
0100
0000
0001
0000
1000
0000
0001
0010
0001
0000
1000
0000
0001
0000
1000
0000
0010
0000
0100
0000
0010
0000
0100
0000
,
0001
0100
0001
0100
0010
1000
0010
1000
0001
0010
0001
0010
0100
1000
0100
1000
,
0001
0100
0001
0100
0010
1000
0010
0100
0001
1000
0001
1000
0200
0000
0310
0001
,
0020
0000
0130
0000
2100
0000
3001
0100
0002
0000
1003
0200
0000
0000
1300
0001
,
1000
0000
0010
0000
0210
0000
0301
0000
1000
0100
1000
0100
0020
0000
0031
0000
,
1001
0000
1000
0010
2000
0000
3002
0000
0013
0100
0010
0100
2000
0000
3001
0100
,
0010
0100
0010
0100
0002
0000
0003
0000
1000
0010
1000
0000
1002
0000
0013
0000
,
0110
0000
0000
0000
0100
0000
0000
0000
1000
0000
0000
0000
1001
0000
0000
0000
0000
0000
0001
0000
0000
0000
0000
0000
0202
0000
0000
0000
0000
0000
0000
0000
0000
0303
0000
0000
2020
0000
0000
0000
0000
0000
0030
0000
0000
0000
0000
0000
,
3001
0010
0001
0010
0100
1000
0100
1000
0002
0000
0000
0003
2002
0000
0000
3003
,
2020
0000
3000
0000
0130
0000
0001
0000
2002
0000
0000
3003
1200
0000
0310
0001
,
1000
0001
0100
0001
0100
0000
0020
0000
0030
0000
0000
0000
1000
0000
0001
0000
,
0010
0100
1000
1002
0000
0200
0000
0010
,
1000
0000
0010
0000
1000
0000
0010
0000
1010
0000
0303
0000
2002
0000
0000
3003
,
2200
0000
3000
0000
0310
0000
0001
0000
2002
0000
0000
3003
1020
0000
0130
0001
,
1000
0100
1000
0100
0010
0000
0002
0000
0003
0000
0000
0000
1000
0000
0010
0000
,
0100
0000
0001
0000
0100
0000
0120
0000
0000
0030
1010
0000
0000
0000
1001
0000
,
0000
0011
0000
0010
0210
1300
0001
0100
,
0120
1030
0001
1000
1200
0310
0001
1000
,
1020
0130
0001
1000
1200
0310
0001
1000
,
1020
0130
0001
1000
2040
0000
0000
0000
,
3000
0000
0000
0000
1030
0000
0001
0000
1000
0000
0000
0000
0100
0000
0000
0000
0110
0000
0010
0000
0001
0000
0010
0000
0110
0000
0000
0000
0000
0000
0100
1000
,
0100
0000
0010
0000
0000
0000
0010
0000
0110
0000
0100
0000
1000
0000
0001
0010
0001
0000
1000
0000
0000
0000
1000
0000
0001
0000
0100
0000
0000
0000
0100
0010
,
0100
0000
0000
0000
0000
0000
0000
0000
0000
0000
0000
0000
0001
0000
0000
0000
0000
0000
0000
0000
0000
0000
0000
0000
0000
0000
0000
0000
0000
0000
0000
0000
0000
0000
0000
0000
0001
0000
0000
0000
0000
0000
0000
0000
0000
0000
0000
0000
4000
0000
0000
0000
0400
0000
0000
0000
0000
0000
0000
0000
0000
0000
0000
0000
0000
0000
0000
0000
0000
0000
0000
0000
0000
0000
0000
0000
0000
0000
0000
0000
0000
0000
0000
0000
3300
0000
0000
0000
0000
0000
0000
0000
0000
0000
0000
0000
1000
0000
0000
0000
0000
0000
0000
0000
0000
0000
0000
0000
0001
0000
0000
0000
0000
0000
0000
0000
0000
0000
0000
0000
0000
0000
0000
0000
0000
0000
0000
0000
0000
0000
0000
0000
0001
0000
0000
0000
0000
0000
0000
0000
0000
0000
0000
0000
0011
0000
0000
0000
0000
0000
0000
0000
0000
0000
0000
0000
0000
0000
0000
0000
0000
0000
0000
0000
0000
0000
0000
0000
0000
0000
0000
0000
0000
0000
0000
0000
0000
0000
0000
0000
0010
0000
0000
0000
0000
0000
0100
0000
0000
0000
0000
0000
,
0010
0000
0001
0000
0000
0000
0001
0000
1001
0000
1000
0100
1000
0000
0001
0000
0100
0000
0010
0000
0100
0000
0001
0000
1000
0000
0100
0000
0000
0000
0100
0000
,
0220
0000
0330
0000
0000
0000
0010
0000
0000
0001
0000
0000
1000
0000
0000
0010
0000
0000
1000
0000
0000
0010
0000
0000
0100
0000
0000
0001
0000
0000
0100
0000
0000
0001
0000
0000
1000
0000
0000
0100
0000
0000
1000
0000
0000
0100
0000
0000
,
0010
0001
0010
0001
1000
0010
1000
0010
0100
0001
0100
0001
1000
0100
1000
0100
,
0010
0001
0010
0001
1000
0010
0100
0010
2000
0000
0000
3001
0010
0100
1000
0100
,
0020
0000
0000
0031
1000
0001
1000
0200
0000
0310
0001
0000
1001
0000
1000
0010
,
0200
0000
0300
0000
0001
1000
0100
1000
0002
0000
0203
0000
0310
1000
0001
1000
,
0020
0000
0230
0000
0301
1000
0100
1000
0002
0000
1003
0100
0010
0100
2000
3000
,
1001
0000
0001
0100
0001
0100
0020
0030
2010
0000
3001
0000
0010
0100
0010
0000
,
0001
1000
0000
1100
0000
0100
0010
0100
,
0010
0100
2100
3001
1000
0100
0120
0031
,
1000
0001
0201
0310
1000
0001
0021
0130
,
1000
0001
0021
0130
1000
0001
0201
0310
,
1000
0001
0201
0310
1000
0001
0021
0130
,
1000
0000
0001
0000
0201
0000
0310
0000
1000
0000
0001
0010
0002
0000
1003
0000
,
0010
0000
0100
0000
0102
0000
1003
0000
0100
0000
0010
0001
0010
0001
0010
0000
,
0100
0000
2000
3000
1002
0000
0103
0000
0010
0000
1000
0000
1002
0000
0013
0000
,
0001
1000
2040
0000
0000
0000
0000
0000
,
0000
0000
0000
0000
3000
0000
0000
0000
0230
0000
0000
0302
0000
0000
2003
0000
,
0000
3200
0000
0000
0320
0000
0032
0000
2003
0000
0000
3200
0000
0000
0320
0000
,
0000
0000
0032
0000
0000
0000
0000
0000
0000
0000
0000
0000
2003
0000
0000
3200
,
0000
0000
0000
0000
0000
0000
0000
0310
0001
2000
0000
0000
3001
0100
0000
0110
,
0000
0010
0000
0000
1000
0001
1000
0000
0000
0000
0000
0000
2220
0000
0000
3330
,
0222
0000
0333
0000
;

//---------------dance-single - AceOfArrows (2018 Rewrite)----------------
#NOTES:
     dance-single:
     AceOfArrows (2018 Rewrite):
     Hard:
     9:
     0.692,0.000,0.347,0.773,0.304:
0000
0000
0000
0000
,
0000
0000
0000
0000
,
0000
0000
0000
0000
,
0000
0000
0000
0000
,
0000
0000
0000
0000
,
2001
3010
0100
0001
1000
0100
1000
0001
,
0201
0310
1000
0001
0010
0100
1000
0001
,
0021
0130
1000
0001
0100
0001
0100
0010
,
2010
0000
3001
0000
0010
0000
0100
0000
0010
0000
0001
0000
1000
0000
0001
0010
,
0001
0000
1000
0100
1000
0000
0100
0010
0100
0000
0010
0001
0010
0000
0001
1000
,
0001
0000
1000
0010
1000
0000
0002
0000
1003
0000
0010
0100
0010
0000
1000
0000
,
0001
0000
0010
0100
0020
0000
0000
0000
0031
0000
1000
0010
2000
0000
0000
3001
,
0010
0000
0010
0002
0000
1003
0010
0000
0100
0000
0010
1000
0020
0000
0000
0000
,
0130
0000
0001
1000
0001
0000
0010
0000
0100
0000
1000
0001
1000
0000
0010
0000
,
1000
0000
0001
0010
0001
0000
1000
0000
0010
0100
0010
0000
2000
0000
3000
0000
,
0001
0000
0000
0010
0000
0000
0001
0000
0000
0000
0000
0000
1000
0000
0000
0000
0000
0000
0010
0000
0000
0000
0000
0000
0100
0000
0000
0000
0001
0000
0000
0000
1000
0000
0000
0000
0100
0000
0000
0000
0000
0000
0010
0000
0000
0000
0000
0000
,
0012
0000
0000
0000
0000
0000
0000
0000
2000
0003
0000
0000
0000
0000
3000
0000
1010
0000
0000
0000
0010
0000
0000
0000
0100
0000
0000
0000
0001
0000
0000
0000
,
0000
0000
1000
0000
1200
0000
0310
0001
,
2001
0000
3020
0030
0210
0000
0302
0000
,
0003
0000
1000
0100
0010
0001
0010
0210
,
0000
2300
0000
0001
0010
0001
0100
3001
,
2002
3003
2000
3000
1020
0000
0130
0001
,
2001
3200
0320
0032
,
0003
0000
1000
0100
0010
0100
1000
1002
,
0000
0103
0000
0110
0000
0010
0000
1000
,
1200
0310
0001
1000
0010
0100
0001
1000
,
1200
0310
0001
0010
0100
1000
0001
0100
,
0120
1030
0001
0010
0100
0010
0001
1000
,
1002
0000
0013
0000
0100
0000
1000
0000
0100
0000
0010
0000
0001
0000
1000
0100
1000
0000
0000
0000
0001
0000
1000
0000
0001
0000
0000
0000
0100
0000
0010
0000
,
0100
0000
0001
0100
0001
0000
1000
0100
1000
0000
0001
1000
0001
0000
0020
0000
,
0130
0000
1000
0100
1000
0000
0001
0000
0100
0000
0010
1000
0010
0000
1000
0001
,
1000
0000
0100
0000
0020
0000
0031
1000
0002
0000
1003
0020
0000
0000
1030
0001
,
1000
0000
0100
0000
0020
0000
0130
0000
1000
0000
0001
0100
0001
0000
1000
0000
,
0100
0000
0010
0001
0020
0000
0130
0000
1000
0000
0001
0100
0001
0000
1000
0001
,
1000
0000
0001
0010
0001
0000
0000
0000
1000
0010
1000
0000
0001
0000
0010
0000
,
0100
0000
1000
0000
0001
0000
0100
0000
0000
0010
0000
0000
2010
0000
0000
0000
0000
0000
3002
0000
0000
0003
0000
0000
,
0011
0010
0100
1000
0000
0000
0002
0003
,
0201
0000
0310
1000
1002
0000
0023
0030
,
0210
0000
2300
0000
3000
0000
0001
0100
,
0010
1000
0001
0201
0000
0302
0000
1000
,
0100
1000
0010
1003
2002
3003
2000
3000
,
1020
0000
0130
0001
2001
0000
3200
0300
,
0120
0000
0032
0000
0003
0000
1000
0010
,
0100
0001
1000
2200
3300
0100
0000
0110
,
0000
0010
0000
0001
2001
3010
0100
0001
,
1000
0100
1000
0001
0201
0310
1000
0001
,
0010
0001
1000
0010
0210
0301
1000
0100
,
0010
0100
1000
0001
0022
0000
0000
0000
,
0000
0000
0000
0000
0033
0000
0000
0000
0210
0000
2300
0000
3002
0000
1003
0001
,
2000
0000
0200
0000
0010
0000
0001
0000
3300
0000
1000
0001
0100
0001
1000
0200
,
0000
0300
0000
0000
0040
0000
0000
0000
0030
0000
0100
0000
2000
0000
3001
0100
,
0020
0000
0230
0000
0302
0000
2003
0000
3000
0000
0001
0010
0100
0010
0001
1000
,
0000
0000
0001
0010
0001
0000
1000
0001
1000
0000
0010
0100
0010
0000
1000
0010
,
1000
0000
0001
0010
0001
0000
0010
0100
0010
0000
0001
0010
0001
0000
1000
0010
,
1000
0000
0001
1000
0001
0000
0010
0100
0020
0000
0000
0031
1000
0000
0001
0100
,
0002
0000
0000
1003
0100
0000
0100
2000
0000
3001
0010
0000
0001
0000
1000
0010
,
2000
0000
0000
0000
3001
0000
0010
0100
0020
0000
0031
0000
1000
0000
0010
0100
,
0020
0000
1030
0000
0001
0000
0010
0000
0100
0000
1000
0000
0001
0100
0002
0000
,
2003
0000
3100
0010
0100
0000
1000
0000
0001
0000
1000
0000
0010
0100
0010
0000
,
1000
0001
0010
0110
0000
0100
1100
1000
,
1001
0001
0201
0310
1000
0001
0010
0001
,
1000
0010
0210
0301
1000
0100
0010
0001
,
1000
0001
0201
0310
1000
0001
0010
0100
,
1000
0001
2001
3100
0010
0100
1000
0001
,
0100
0010
2010
3001
0010
0001
1000
0010
,
1000
0000
0001
0000
0021
0000
0130
0000
1000
0000
0001
0100
0001
0000
1000
0100
,
2000
3002
0103
0010
1000
0001
0010
0100
,
1000
0001
0202
0000
0000
0000
0000
0000
,
0000
0000
0000
0000
0303
0000
0000
0000
0200
0000
0000
0320
0000
0000
2030
0000
,
0000
3002
0000
0000
2003
0000
3020
0000
0230
0000
0000
0302
0000
0000
2003
0000
,
0000
0000
3200
0000
0000
0000
0000
0000
0000
0000
0000
0000
0320
0000
0000
0230
,
0000
0000
0000
0000
0000
0000
0000
1300
0001
2000
0000
0000
3001
0010
0000
0110
,
0000
0100
0000
0000
1000
0000
0001
0000
0000
0000
0000
0000
0102
0000
0000
0000
,
2000
0000
3003
0000
;

//---------------dance-single - AceOfArrows (2018 Rewrite)----------------
#NOTES:
     dance-single:
     AceOfArrows (2018 Rewrite):
     Medium:
     6:
     0.392,0.000,0.000,0.549,0.033:
0000
0000
0000
0000
,
0000
0000
0000
0000
,
0000
0000
0000
0000
,
0000
0000
0000
0000
,
0000
0000
0000
0000
,
1000
0010
1000
0000
0001
0010
0001
0000
,
2000
0000
3000
0000
,
0001
0010
0001
0000
0010
0100
0010
0000
,
0002
0000
0003
0000
,
1000
0100
1000
0000
0001
0100
0001
0000
,
1000
0001
1000
0000
0001
0010
0001
0000
,
0010
0100
0020
0000
0031
1000
0002
0000
,
2003
0000
3010
0000
0100
0001
0200
0000
,
0301
1000
0001
0000
1000
0100
1000
0000
,
0100
0010
0100
0000
1000
0001
1000
0000
,
0001
0100
0001
0000
1000
0001
1000
0000
,
0020
0000
2030
0000
3002
0000
1003
0100
,
0000
0000
0020
0000
0032
0000
1003
0010
,
2000
3002
0023
0230
,
0300
0000
0010
0001
0010
0000
0100
2000
,
0000
3002
0000
0000
0000
0000
0000
0000
,
0003
0000
2000
0000
3020
0000
1030
0001
,
2000
3200
0320
0032
,
0003
0000
1000
0100
1000
0000
0001
0200
,
0000
0000
0000
0300
,
0010
0100
0010
0000
1000
0010
1000
0000
,
0002
0000
0003
0000
,
0010
0100
0010
0000
0001
1000
0001
0000
,
0200
0000
0300
0000
0001
1000
0001
0000
,
1000
0100
1000
0000
0001
0010
0001
0000
,
0010
0100
0010
0000
0001
1000
0001
0000
,
1000
0010
1000
0000
0001
0000
0010
0000
,
0100
1000
0100
0000
1000
0001
1000
0000
,
0010
0100
0010
0000
1000
0010
1000
0000
,
0001
0100
0001
0000
1000
0001
1000
0000
,
0100
0010
0100
0000
2000
0000
3002
0000
,
0203
0000
0301
1000
0000
0000
0200
0000
,
0320
0000
0031
1000
0002
0000
0023
0000
,
0230
0000
2300
0000
3000
0000
0001
0100
,
0001
0000
1000
0200
0000
0320
0000
0000
,
0000
0000
0030
0002
,
2003
0000
3010
0100
0020
0000
2030
0000
,
3002
0000
0203
0000
0300
0000
0001
1000
,
0001
0000
0010
0200
0000
0000
0000
0000
,
0000
0000
0300
0000
1000
0001
1000
0000
,
0001
0100
0001
0000
2000
0000
0000
0000
,
3000
0000
0000
0000
0001
0010
0001
0000
,
1000
0001
1000
0000
0200
0000
0000
0000
,
0000
0000
0000
0000
0300
0000
0000
0000
0000
0000
0010
0000
0001
0000
1000
0100
,
2000
0000
3002
0000
0023
0000
0230
0000
0300
0000
1000
0001
2000
0000
3100
0020
,
0000
0030
0000
0000
0000
0000
0000
0000
0000
0000
0200
0000
2300
0000
3001
0010
,
0002
0000
2003
0000
3020
0000
0230
0000
0300
0000
0001
1000
0002
0000
0013
0200
,
0300
0000
1000
0100
1000
0000
0001
1000
,
0001
0000
1000
0010
1000
0000
0001
0010
,
0001
0000
0010
0100
0010
0000
0001
1000
,
0001
0000
1000
0000
0020
0000
0130
0001
,
0100
0000
0010
1000
0010
0000
1000
0001
,
1000
0000
0001
0010
0001
0000
1000
0100
,
1000
0000
0001
1000
0001
0000
0100
0000
,
0010
0000
1000
0001
0000
0000
0010
0100
,
0010
0000
0001
1000
0001
0000
0010
0100
,
0010
0002
0000
0003
,
0000
0000
1000
0010
1000
0000
0001
0010
,
0001
2000
0000
3000
,
0000
0000
0010
0100
0010
0000
1000
0001
,
1000
0000
0002
0000
0003
0000
0010
0100
,
0010
0000
0001
1000
0001
0000
1000
0100
,
1000
0002
0000
0000
,
0000
0000
0000
0000
0003
0000
0000
0000
2000
0000
0000
3002
0000
0000
2003
0000
,
0000
3000
0000
0000
0001
0000
0010
0000
0002
0000
0000
0003
0000
0000
2000
0000
,
0000
0000
3020
0000
0000
0000
0000
0000
0000
0000
0000
0000
2030
0000
0000
3002
,
0000
0000
0000
0000
0000
0000
0000
0203
0000
0000
0000
0000
0000
0000
0000
0000
,
0000
0300
0000
0000
0001
0000
0000
0000
0000
0000
0000
0000
2000
0000
0000
0000
,
3200
0000
0300
0000
;

//---------------dance-single - AceOfArrows (2018 Rewrite)----------------
#NOTES:
     dance-single:
     AceOfArrows (2018 Rewrite):
     Easy:
     4:
     0.253,0.000,0.000,0.340,0.000:
0000
0000
0000
0000
,
0000
0000
0000
0000
,
0000
0000
0000
0000
,
0000
0000
0000
0000
,
0000
0000
0000
0000
,
0001
0001
0002
0003
,
0010
0010
0020
0030
,
0100
0100
0200
0300
,
1000
1000
2000
3000
,
0001
0001
0001
0001
,
0100
0100
0100
0100
,
0020
0030
2000
3000
,
0001
0001
0002
0003
,
1000
1000
1000
1000
,
0100
0100
0200
0300
,
0010
0010
0020
0030
,
0100
0100
0200
0300
,
0000
1000
1000
0000
,
0001
0001
0001
0001
,
0000
0000
0100
0000
0100
0000
0000
0200
,
0000
0000
0000
0000
,
0300
0010
0020
0030
,
1000
1000
1000
1000
,
0000
0000
0001
0000
0001
0000
0000
0002
,
0000
0000
0000
0003
,
0010
0010
0020
0030
,
0001
0001
0002
0003
,
1000
1000
2000
3000
,
0020
0030
0100
0100
,
0100
0100
0001
0001
,
0001
0001
1000
1000
,
2000
3000
0100
0100
,
0200
0300
0010
0010
,
0010
0010
0001
0001
,
0002
0003
1000
1000
,
2000
3000
0010
0010
,
0020
0030
0000
0100
,
0100
0000
0010
0010
,
0010
0010
0000
1000
,
1000
0000
0000
2000
0000
0000
0000
0000
,
0000
0000
3000
0001
,
0001
0000
0010
0010
,
0020
0030
0000
0100
,
0100
0000
0000
0200
0000
0000
0000
0000
,
0000
0300
1000
1000
,
2000
3000
0001
0001
,
0002
0003
0100
0100
,
0200
0300
0020
0000
,
0000
0000
0030
0000
0000
1000
1000
0000
,
0001
0001
0001
0001
0000
0100
0100
0000
,
0100
0000
0000
0000
0000
0010
0010
0000
,
1000
1000
1000
1000
0000
0001
0001
0000
,
0010
0100
0100
0100
,
0100
1000
1000
1000
,
1000
0001
0001
0001
,
0001
0020
0030
0200
,
0300
0010
0010
0010
,
0010
0001
0001
0001
,
0001
1000
1000
2000
,
3000
0020
0030
0100
,
0100
0001
0001
0002
,
0003
1000
1000
2000
,
3000
0100
0100
0200
,
0300
0010
0010
0020
,
0030
0001
0001
0002
,
0003
1000
1000
2000
,
3000
0100
0100
0200
,
0300
0020
0000
0000
,
0000
0000
0030
0000
0001
0000
0000
0002
,
0000
0000
1003
0000
0000
1000
0000
0000
,
0000
2000
0000
0000
0000
0000
3001
0000
,
0002
0000
0203
0000
,
0000
0300
0000
0002
,
2003
0000
3000
0000
;

//---------------dance-single - AceOfArrows (2018 Rewrite)----------------
#NOTES:
     dance-single:
     AceOfArrows (2018 Rewrite):
     Beginner:
     2:
     0.121,0.000,0.000,0.173,0.000: // measure 1
0000
0000
0000
0000
,  // measure 2
0000
0000
0000
0000
,  // measure 3
0000
0000
0000
0000
,  // measure 4
0000
0000
0000
0000
,  // measure 5
0000
0000
0000
0000
,  // measure 6
1000
0000
1000
0000
,  // measure 7
2000
0000
3000
0000
,  // measure 8
0001
0000
0001
0000
,  // measure 9
0002
0000
0003
0000
,  // measure 10
4000
0000
3000
0000
,  // measure 11
0004
0000
0003
0000
,  // measure 12
1000
0000
1000
0000
,  // measure 13
2000
0000
3000
0000
,  // measure 14
0400
0000
0300
0000
,  // measure 15
0040
0000
0030
0000
,  // measure 16
0001
0000
0001
0000
,  // measure 17
0002
0000
0000
0003
,  // measure 18
0000
0000
1000
0000
,  // measure 19
1000
0000
1000
0000
,  // measure 20
0000
0000
0010
0000
,  // measure 21
0020
0000
0000
0000
,  // measure 22
0030
0000
0100
0000
,  // measure 23
0100
0000
0100
0000
,  // measure 24
0000
0000
0001
0000
,  // measure 25
0002
0000
0003
0000
,  // measure 26
1000
0000
1000
0000
,  // measure 27
2000
0000
3000
0000
,  // measure 28
0100
0000
0100
0000
,  // measure 29
0200
0300
0040
0000
,  // measure 30
0030
0000
0004
0000
,  // measure 31
0003
0000
4000
0000
,  // measure 32
3000
0000
0020
0000
,  // measure 33
0030
0000
0400
0000
,  // measure 34
0300
0000
0004
0000
,  // measure 35
0003
0000
1000
0000
,  // measure 36
1000
0000
2000
0000
,  // measure 37
0000
3000
0000
0000
,  // measure 38
0100
0000
0100
0000
,  // measure 39
0100
0000
0000
0000
,  // measure 40
0010
0000
0020
0000
,  // measure 41
0000
0000
0030
0000
,  // measure 42
0001
0000
0001
0000
,  // measure 43
0001
0000
0000
0000
,  // measure 44
1000
0000
2000
0000
,  // measure 45
0000
3000
0001
0000
,  // measure 46
0001
0000
0002
0000
,  // measure 47
0003
0000
0010
0000
,  // measure 48
0010
0000
0020
0000
,  // measure 49
0030
0000
0000
0100
,  // measure 50
0100
0100
0000
1000
,  // measure 51
1000
0000
0000
0001
,  // measure 52
0001
0001
0000
0100
,  // measure 53
0100
0040
0000
0030
,  // measure 54
0000
4000
0000
3000
,  // measure 55
0000
0004
0000
0003
,  // measure 56
0000
0020
0000
0030
,  // measure 57
0000
0400
0000
0300
,  // measure 58
0000
4000
0000
3000
,  // measure 59
0000
0004
0000
0003
,  // measure 60
0000
0200
0000
0300
,  // measure 61
0000
0001
0000
0001
,  // measure 62
0000
0002
0000
0003
,  // measure 63
0000
1000
0000
1000
,  // measure 64
0000
2000
0000
3000
,  // measure 65
0000
0100
0000
0100
,  // measure 66
0000
0200
0000
0300
,  // measure 67
0000
0010
0000
0010
,  // measure 68
0000
0020
0000
0000
,  // measure 69
0030
0000
0000
0000
0002
0000
0000
0003
,  // measure 70
0000
0020
0000
0000
,  // measure 71
0000
0030
0000
0000
0000
0000
0000
0000
,  // measure 72
0100
0000
0200
0000
,  // measure 73
0000
0300
0000
1000
,  // measure 74
2000
0000
3000
0000
;
