#TITLE:Vertex Meister;
#SUBTITLE:;
#ARTIST:Idolmaster;
#TITLETRANSLIT:;
#SUBTITLETRANSLIT:;
#ARTISTTRANSLIT:;
#GENRE:;
#CREDIT:Ace Of Arrows;
#BANNER:Vertex Meister - Bn.png;
#BACKGROUND:Vertex Meister - Bg.jpg;
#LYRICSPATH:;
#CDTITLE:Ace Of Arrows.png;
#MUSIC:Vertex Meister.ogg;
#OFFSET:1.180;
#SAMPLESTART:60.000;
#SAMPLELENGTH:12.000;
#SELECTABLE:YES;
#BPMS:0.000=188.000;
#STOPS:;
#BGCHANGES:0.000=Vertex Meister - Bg.jpg=1.000=0=0=1=Centered====,
3.250=Vertex Meister Video.avi=1.000=1=0=1===CrossFade==,
99999=-nosongbg-=1.000=0=0=0 // don't automatically add -songbackground-
;
#KEYSOUNDS:;

//---------------dance-single - AceOfArrows (2018)----------------
#NOTES:
     dance-single:
     AceOfArrows (2018):
     Hard:
     8:
     0.583,0.000,0.054,1.000,0.015: // measure 1
0000
0000
0000
0000
,  // measure 2
0000
0000
0000
0000
,  // measure 3
0000
0000
0000
0000
,  // measure 4
0000
0000
0000
0000
,  // measure 5
0001
0020
0000
0031
2000
0000
3010
0200
,  // measure 6
0000
0302
2003
3200
,  // measure 7
0310
0002
0000
1003
0020
0000
1030
0002
,  // measure 8
0000
1003
0200
0000
0320
0000
0130
0000
,  // measure 9
1000
0002
0000
0103
0020
0000
1030
0002
,  // measure 10
0000
0013
0200
0000
2300
0000
3002
0000
,  // measure 11
1003
0020
0000
1030
0002
0000
0013
0200
,  // measure 12
0000
0310
0002
0000
2003
0000
3020
0000
,  // measure 13
0230
0000
0301
0000
1000
0100
1000
0000
,  // measure 14
0001
0100
0001
1000
0000
0001
0010
0001
,  // measure 15
1000
0001
0010
0000
0001
1000
0001
0200
,  // measure 16
0000
0000
0310
1000
0001
0010
0100
1000
,  // measure 17
0001
1000
0000
0200
0000
2300
0000
3001
,  // measure 18
0100
0020
0000
0230
0000
0300
0002
0000
,  // measure 19
2003
0000
3001
0020
0000
0130
2000
0000
,  // measure 20
3001
0200
0000
0301
1000
0001
0010
0100
,  // measure 21
1000
0002
0000
0203
0000
0320
0000
1030
,  // measure 22
0001
0020
0000
0230
0000
0300
2000
0000
,  // measure 23
3002
0000
1003
0020
0000
0000
0230
0000
,  // measure 24
0302
0000
0000
1003
0400
0000
0000
0000
,  // measure 25
0320
0000
0032
0000
1003
0020
0000
0230
,  // measure 26
0000
0302
2003
3200
,  // measure 27
0320
0000
0000
M10M
0000
0000
0032
0000
,  // measure 28
0000
M1M0
2003
3MM0
,  // measure 29
0001
0200
0000
0320
0000
0030
1000
0002
,  // measure 30
0000
0023
0000
0130
2000
0000
3002
0000
,  // measure 31
0203
0000
0000
0320
0000
0000
2030
0000
,  // measure 32
3002
0203
0300
0020
,  // measure 33
2030
0000
0000
3001
0020
0000
0000
0000
,  // measure 34
0000
0030
MM00
0200
,  // measure 35
2300
0000
0000
3001
0200
0000
0000
0000
,  // measure 36
0000
0300
00MM
0020
,  // measure 37
1030
0002
0000
0013
0200
0000
0000
0000
,  // measure 38
0000
0000
0300
0000
0000
0MM0
0000
0000
2000
0000
0000
3002
0000
0000
0103
0000
,  // measure 39
0020
0030
2MM0
3000
,  // measure 40
M0M2
0003
04MM
0300
,  // measure 41
0020
0000
1030
0002
0000
0013
0100
0010
,  // measure 42
0001
1000
0020
0000
0030
2000
0000
3001
,  // measure 43
0010
0100
0020
0000
0030
0001
1000
0010
,  // measure 44
0200
0000
0000
0000
0300
0000
0000
0000
0002
0000
0000
2003
0000
0000
3010
0000
,  // measure 45
0200
0000
0000
0301
2000
0000
0000
0000
,  // measure 46
0000
3000
0000
0001
,  // measure 47
0022
0000
0000
0000
,  // measure 48
0033
0004
0000
0000
,  // measure 49
2003
0100
0000
3002
0100
0000
2003
0100
,  // measure 50
0000
3002
0000
0000
0203
0000
0320
0000
,  // measure 51
2030
0000
3002
0200
0000
0000
0000
0000
,  // measure 52
0303
0000
0002
2003
,  // measure 53
3200
0000
0320
0200
0000
0000
0000
0000
,  // measure 54
0330
0020
0032
2003
,  // measure 55
3020
0000
0000
0000
0230
0000
0302
2000
,  // measure 56
0000
0000
0000
0000
0000
3003
0000
0000
,  // measure 57
0002
0010
0000
2003
0000
3002
0200
0000
,  // measure 58
0000
0000
0000
0303
0000
0100
0010
1000
,  // measure 59
0001
0010
0000
0002
0000
2003
0200
0000
,  // measure 60
0000
0000
0000
3300
0000
0000
1000
0001
,  // measure 61
0200
0000
0300
0020
,  // measure 62
2030
0000
3002
0000
,  // measure 63
0203
0000
0320
2000
0000
0000
0000
0000
,  // measure 64
0000
0000
3030
1000
,  // measure 65
0004
0040
0000
0000
0000
0000
0000
0000
0000
0000
0000
0000
0000
0000
0000
0000
,  // measure 66
0033
0000
0001
1000
0040
0000
1030
0001
,  // measure 67
0100
0001
1000
0100
1000
0001
0100
0020
,  // measure 68
0000
2030
0000
3002
0000
0000
0023
0000
,  // measure 69
0230
0000
0000
0000
,  // measure 70
1300
0001
0100
0001
2000
0000
3000
0001
,  // measure 71
0000
0021
0000
0000
0230
0000
0300
2100
,  // measure 72
0000
3002
0403
0000
,  // measure 73
0302
0010
0000
2003
0010
0000
3002
0010
,  // measure 74
0000
2003
0000
0000
3020
0000
0230
0000
,  // measure 75
0302
0000
2003
0200
0000
0000
0000
0000
,  // measure 76
3300
0000
2000
3002
,  // measure 77
0203
0000
0310
2000
0000
0000
3000
0000
,  // measure 78
0000
0002
0023
0230
,  // measure 79
2300
0000
0000
0000
3002
0000
0103
0020
,  // measure 80
0000
1030
0001
0010
0001
1000
0010
0100
,  // measure 81
0002
1000
0000
0203
0000
0320
2000
0000
,  // measure 82
0000
0000
3030
0000
0000
0010
0100
0001
,  // measure 83
2000
0001
0000
3020
0000
2030
0002
0000
,  // measure 84
0000
0000
0000
3003
0000
0000
0001
0010
,  // measure 85
0200
0000
0000
0300
0000
0000
2000
0000
,  // measure 86
3002
0000
0203
0000
,  // measure 87
0320
0000
0230
0002
0000
0000
0000
0000
,  // measure 88
0000
0000
0303
0000
,  // measure 89
2002
0000
0000
0000
3003
0000
0000
1000
,  // measure 90
0100
2000
0000
0200
0300
0002
0003
0020
,  // measure 91
0000
0000
0000
0000
3030
0000
1000
0010
,  // measure 92
0100
0002
0000
0020
0030
2000
3000
0200
,  // measure 93
0000
0000
0000
0000
0303
0000
0000
0001
,  // measure 94
1000
0200
0000
0020
0030
2000
3000
0020
,  // measure 95
0000
0000
0000
0000
0330
0000
0000
0012
,  // measure 96
0000
2003
0000
3000
1020
0000
0230
0000
,  // measure 97
0302
0020
0000
0000
,  // measure 98
0000
0000
0000
0000
0000
0033
2100
3001
;

//---------------dance-single - AceOfArrows (2018)----------------
#NOTES:
     dance-single:
     AceOfArrows (2018):
     Challenge:
     11:
     0.888,0.000,0.646,1.000,0.219: // measure 1
0000
0000
0000
0000
,  // measure 2
0000
0000
0000
0000
,  // measure 3
0000
0000
0000
0000
,  // measure 4
0000
0000
0000
0000
,  // measure 5
1010
0020
0000
0130
0002
0000
1003
1200
,  // measure 6
0000
0310
0002
0003
2001
0000
3010
0100
,  // measure 7
0101
0002
0000
1003
0200
0000
0310
0012
,  // measure 8
0000
1003
0200
0000
1020
0030
2300
3000
,  // measure 9
1001
0002
0000
0103
0020
0000
1030
1002
,  // measure 10
0000
0000
0013
0000
0200
0000
0300
0000
2100
0000
0000
0000
3001
0100
0001
0000
,  // measure 11
1000
1200
0000
0310
0012
0000
1003
1020
,  // measure 12
0000
0000
0130
0000
0002
0000
0000
0000
2100
0000
3000
0000
0023
0000
0031
1000
,  // measure 13
0001
0100
0010
1000
1001
0001
0010
0100
,  // measure 14
1000
0001
0100
0010
1000
0001
0010
0100
,  // measure 15
1100
0000
1000
0000
0001
0000
0100
0000
0010
0000
1000
0000
0001
0010
0001
0000
,  // measure 16
1000
0000
0001
0010
0100
0010
0001
0000
1000
0010
0100
0001
0100
0010
1000
0001
,  // measure 17
0100
0020
0000
2000
3000
0230
0000
0301
,  // measure 18
1001
2000
0000
0200
0300
0000
3002
0003
,  // measure 19
0201
0000
0310
2000
0000
0001
3020
0130
,  // measure 20
0001
1000
0100
0010
0001
1000
0010
0100
,  // measure 21
0101
0002
0000
2000
3000
0203
0000
0310
,  // measure 22
1010
2000
0000
0002
0000
0003
3020
0030
,  // measure 23
0210
0000
0301
2001
0000
0000
3200
0300
,  // measure 24
0110
0000
0010
0000
0001
0000
1000
0000
0010
0100
0010
1000
0001
0010
0100
1000
,  // measure 25
0002
0000
2003
3000
1010
0020
0000
0200
,  // measure 26
0000
0030
2000
0300
0002
3000
0020
0003
,  // measure 27
2000
0030
0000
3002
0000
0000
0203
0000
,  // measure 28
0000
0000
1010
0000
0311
0001
1000
0100
,  // measure 29
0110
0020
0000
0101
0000
0000
0031
2000
,  // measure 30
0000
0101
0000
3002
0023
0000
0230
0300
,  // measure 31
2200
0000
3300
2002
0000
3003
0202
0303
,  // measure 32
0220
0000
0330
0000
2010
0000
3001
0010
0001
0000
1000
0000
0010
0100
0010
0000
,  // measure 33
2010
0000
0000
0001
3200
0310
0001
1000
,  // measure 34
0010
0000
0100
0001
0100
0000
0010
0000
1000
0000
0001
0000
0010
0000
0100
1000
,  // measure 35
0200
0310
0001
1000
1020
0130
0001
1000
,  // measure 36
0100
0010
0100
1000
1002
0103
0010
1000
,  // measure 37
0001
0000
0010
0100
0010
0000
0001
0000
2001
0000
3010
0000
0100
0000
0001
0000
,  // measure 38
1000
0000
0001
0000
0010
0000
0100
0000
2100
0000
0000
3002
0000
0000
0103
0000
,  // measure 39
0010
1000
1002
0013
0100
1000
1002
0103
,  // measure 40
0010
1000
1002
0013
0100
1000
1002
0103
,  // measure 41
0010
1000
0001
0020
0000
0031
1000
0001
,  // measure 42
0100
1000
0200
0000
0000
0302
0000
1003
,  // measure 43
0010
0001
0020
0000
0000
1030
0001
0010
,  // measure 44
0200
0000
0000
0000
0300
0000
0000
0000
2100
0000
0000
0001
0000
0000
0010
0000
,  // measure 45
3002
0000
0000
2003
0200
0000
0000
0000
,  // measure 46
0000
3300
0000
2000
,  // measure 47
0022
0000
0000
0000
,  // measure 48
3033
0000
0001
0010
0100
0010
0001
1000
0100
0010
0100
1000
0001
0100
0010
0100
,  // measure 49
0002
1100
0000
2003
0101
0000
3002
1100
,  // measure 50
0000
0000
2003
0000
0000
0000
3001
0010
0200
0000
0000
0000
2300
0000
0000
3000
,  // measure 51
1002
0000
0023
0200
0000
0030
1300
1001
,  // measure 52
0001
0000
0100
M00M
0100
0000
1000
0000
0002
0000
0000
0000
0023
0000
0000
0030
,  // measure 53
0210
0000
2300
0002
3000
0000
1003
1010
,  // measure 54
0010
0000
0100
M00M
0200
0000
0000
0000
2300
0000
0000
0000
3002
0000
0003
0000
,  // measure 55
0101
0000
0100
0000
0010
M00M
0010
0000
0001
0000
1000
0000
0010
0000
0100
0000
,  // measure 56
0102
0000
1003
0100
0010
0000
0001
0000
1000
0000
0010
0000
0100
0000
0001
0000
,  // measure 57
2001
0200
0300
0011
0000
3002
0200
0000
,  // measure 58
0003
0310
1000
0001
0010
0100
1000
0001
,  // measure 59
2001
0010
0000
0101
0000
3002
0020
0000
,  // measure 60
0003
0130
1000
0001
0100
0010
1000
0001
,  // measure 61
0021
0000
0130
1000
0001
0000
0200
0000
,  // measure 62
0020
0000
0000
0300
0002
0000
0000
0030
,  // measure 63
2000
0003
3200
0002
0000
0003
0020
0000
,  // measure 64
0030
0000
0302
0000
0000
0000
1003
0100
0010
0000
0001
0000
1000
0000
0010
0000
,  // measure 65
1000
0010
1000
0010
0100
0001
0100
0001
1000
0100
1000
0100
0010
0001
0010
0001
,  // measure 66
1000
0010
1000
0010
0100
0001
0100
0001
1000
0100
1000
0100
0010
0001
0010
0001
,  // measure 67
2000
3001
0010
0100
2000
3001
0100
0020
,  // measure 68
0000
0000
2030
0000
0000
0000
3200
0000
0000
0000
0300
1220
0000
0300
0000
0000
,  // measure 69
0032
0000
0000
0000
,  // measure 70
0000
1003
0100
0010
0200
0000
1300
0001
,  // measure 71
0100
0120
0000
1030
1002
0000
0013
0210
,  // measure 72
1300
0001
1000
0000
0010
0000
0200
0000
0000
0000
0300
0000
0001
0100
0010
0100
,  // measure 73
0002
1000
0000
0010
2003
0000
0100
3002
,  // measure 74
0000
2100
0003
0000
3020
0000
0230
0300
,  // measure 75
0102
0000
2003
0200
0000
0000
0000
0000
,  // measure 76
3300
0000
0000
0000
2000
0000
3002
0003
,  // measure 77
0201
0000
0310
2000
0000
0000
0000
0000
,  // measure 78
3000
0002
0023
0230
,  // measure 79
2300
0000
0000
0000
3002
0000
0103
0010
,  // measure 80
2010
0000
3001
0010
0100
0000
1000
0000
0001
0000
0100
0000
0010
0000
1000
0000
,  // measure 81
1002
0010
0000
1100
0000
2003
3200
0310
,  // measure 82
0001
0000
1000
0000
0010
M00M
0010
0000
0001
0000
1000
0000
0100
0000
0010
0000
,  // measure 83
0012
1000
0000
1010
0000
0023
0230
1300
,  // measure 84
0001
0000
1000
0000
0100
M00M
0100
0000
0001
0000
0010
0000
0100
0000
1000
0000
,  // measure 85
1002
0000
0013
0100
1000
0001
0200
0300
,  // measure 86
0110
0010
1000
0001
0010
0100
1000
0001
,  // measure 87
0101
0100
0010
2000
0000
0000
0000
0MMM
,  // measure 88
0000
0000
0000
0000
3002
0000
0000
0013
,  // measure 89
0220
0000
0000
0000
0330
0000
0000
0010
,  // measure 90
0001
2000
0000
0011
0000
0001
0000
0102
,  // measure 91
0000
0000
0000
0000
3003
0000
0000
1000
,  // measure 92
0010
0200
0000
0010
0000
1000
0000
0012
,  // measure 93
0000
0000
0000
0000
0303
0000
0000
0001
,  // measure 94
1000
0200
0000
0010
0000
0001
0000
2010
,  // measure 95
0000
0000
0000
0000
3300
0000
0000
0110
,  // measure 96
0000
0222
0333
0000
0012
0000
1100
0000
,  // measure 97
2000
0003
0020
0000
0000
0000
0000
3000
,  // measure 98
0130
0001
1000
0000
0100
0000
0010
0000
0100
0000
1000
0000
1001
0000
0101
0000
;

//---------------dance-single - AceOfArrows (2018)----------------
#NOTES:
     dance-single:
     AceOfArrows (2018):
     Medium:
     6:
     0.486,0.000,0.000,1.000,0.015:
0000
0000
0000
0000
,
0000
0000
0000
0000
,
0000
0000
0000
0000
,
0000
0000
0000
0000
,
2000
0000
0000
0000
3002
0000
0000
0023
,
0000
0032
2003
3020
,
0230
0000
0000
0000
0302
0000
0000
2003
,
0000
3200
0320
0130
,
2000
0000
0000
0000
3002
0000
0000
0203
,
0000
0310
1000
0002
,
2003
0000
0000
0000
3200
0000
0000
0320
,
0000
0031
2000
3100
,
0020
0000
0000
0000
,
0000
0000
0031
1000
,
0002
0000
0000
0000
0000
1003
0010
2000
,
0000
3004
0000
0013
,
0001
1000
0000
0002
0000
0203
0000
0000
,
0310
2000
0000
3002
0000
0000
0023
0000
,
0230
0000
0000
2300
0000
3001
0200
0000
,
0300
0000
0000
0000
0000
0000
0001
0100
,
0002
0000
0000
2003
0000
3200
0000
0000
,
0310
0002
0000
2003
0000
0000
3020
0000
,
0230
0000
0301
2000
0000
0000
3200
0000
,
0320
0000
0000
0130
2000
0000
0000
0000
,
3000
0000
0002
0000
0013
0200
0000
0320
,
0000
0032
2003
3200
,
0320
0000
0000
0032
0000
0000
0023
0000
,
0000
0230
2300
3000
,
0001
0200
0000
0302
0000
0000
1003
0200
,
0000
0320
0000
0130
2000
0000
3002
0000
,
2003
0000
0000
3020
0000
0000
0230
0000
,
0302
2003
3000
0200
,
0320
0000
0000
0130
2000
0000
0000
0000
,
0000
3000
0000
0002
,
2003
0000
0000
3010
0200
0000
0000
0000
,
0000
0000
0000
0300
0000
0000
0002
0000
,
1003
0020
0000
0130
0002
0000
0000
0000
,
0000
0000
0000
0003
0000
0000
1000
0000
0100
0000
0010
0000
,
0002
0003
2000
3000
,
0020
0030
2000
3000
,
0002
0000
1003
0200
0000
0320
0000
0000
,
0031
1000
0002
0000
0003
2000
0000
0000
,
3001
0100
0002
0000
0003
1000
0200
0000
,
0320
0000
0000
0030
0000
0000
0001
0000
0010
0000
0100
0000
,
2000
0000
0000
3001
0200
0000
0000
0000
,
0000
0300
0000
0002
,
2000
0000
0000
0000
,
3003
0000
0000
0000
,
1000
0020
0000
1030
0002
0000
1003
0020
,
0000
0230
0000
0000
0302
0000
2003
0000
,
3002
0000
1003
0200
0000
0000
0000
0000
,
0300
0000
0020
0032
,
2003
0000
3001
0200
0000
0000
0000
0000
,
0300
0002
2003
3002
,
0203
0000
0300
0000
0020
0000
1030
0002
,
0000
0000
0003
0000
,
1000
0200
0000
0320
0000
0130
2000
0000
,
0000
3000
0000
0001
,
1000
0010
0000
2000
0000
3010
0200
0000
,
0000
0000
0000
0300
0000
0000
0001
0100
,
0002
0000
0003
2000
,
3200
0000
0320
0000
,
0032
0000
2003
0200
0000
0000
0000
0000
,
0000
0000
3300
0000
,
0400
0000
0000
0000
,
0300
0000
0010
0000
0002
0000
1003
0010
,
2000
0000
3001
0010
0002
0000
1003
0200
,
0000
0320
0000
0032
0000
0000
0003
0000
,
2000
0000
0000
0000
,
3000
0001
0010
0000
0002
0000
0003
1000
,
0000
0020
0000
0000
0230
0000
0000
0302
,
0000
0000
2003
0000
0000
3000
0000
0000
,
0001
0020
0000
0031
2000
0000
3001
0200
,
0000
0320
0000
0000
2030
0000
3002
0000
,
2003
0000
3010
0200
0000
0000
0000
0300
,
0000
0000
0002
2003
,
3020
0000
1030
0002
0000
0000
0003
0000
,
0000
2000
3002
0023
,
0032
0000
0000
0000
2003
0000
3100
0020
,
0000
0000
0030
0000
,
0001
2000
0000
3020
0000
1030
0002
0000
,
0000
0000
0003
0000
0000
1000
0100
0000
,
1000
0002
0000
2003
0000
3010
0200
0000
,
0000
0000
0000
0300
0000
0000
0001
1000
,
0002
0000
0000
0003
0000
0000
2000
0000
,
3020
0000
0230
0000
,
0320
0000
1030
0002
0000
0000
0000
0000
,
0000
0000
0003
0000
,
2000
0000
0000
0000
3000
0000
0000
0001
,
0100
0002
0000
2003
0000
3200
0000
0320
,
0000
0000
0000
0000
0030
0000
0000
0001
,
1000
0002
0000
0203
0000
0320
0000
2030
,
0000
0000
0000
0000
3000
0000
0000
0001
,
0100
0002
0000
2003
0000
3020
0000
0230
,
0000
0000
0000
0000
0300
0000
0000
0002
,
0000
2003
0000
3000
0002
0000
1003
0000
,
0200
0020
0000
0000
,
0000
0000
0000
0000
0000
0000
0000
0330
;

//---------------dance-single - AceOfArrows (2018)----------------
#NOTES:
     dance-single:
     AceOfArrows (2018):
     Easy:
     4:
     0.206,0.000,0.008,0.323,0.000:
0000
0000
0000
0000
,
0000
0000
0000
0000
,
0000
0000
0000
0000
,
0000
0000
0000
0000
,
0002
0000
0003
0000
,
1000
1000
1000
0000
,
0200
0000
0300
0000
,
0010
0000
0001
0001
,
0002
0000
0003
0000
,
1000
1000
1000
0000
,
0020
0000
0030
0000
,
0100
0000
0001
0001
,
0002
0000
0000
0000
,
0003
0000
1000
1000
,
2000
0000
0000
0000
3000
0000
0000
0200
,
0000
0000
0300
0000
,
0010
0000
0000
0010
0000
0000
0000
0000
,
0001
0000
0000
0001
0000
0000
0000
0000
,
1000
0000
0000
2000
0000
0000
3000
0000
,
0000
0000
0000
0000
,
0010
0000
0000
0010
0000
0000
0000
0000
,
0100
0000
0000
0100
0000
0000
0000
0000
,
0001
0000
0001
0000
,
0002
0000
0003
0000
,
0000
0000
1000
0000
,
1000
0000
1000
0000
,
0200
0000
0000
0310
,
0000
0000
0010
0000
,
0001
0000
0000
0001
0000
0000
0000
1000
,
0000
0000
1000
0000
,
0010
0000
0000
0010
0000
0000
0000
0000
,
0010
0000
0000
0000
,
1000
0000
2000
0000
,
0000
3000
0000
0000
,
0001
0000
0002
0000
,
0000
0003
0000
0000
,
1000
0000
2000
0000
,
0000
3000
0010
0000
,
0010
0000
0010
0000
,
0100
0000
0100
0000
,
0001
0000
0000
0001
0000
0000
0000
0000
,
0002
0003
0000
0000
,
2000
3000
0000
0000
,
0001
0000
0001
0000
,
0001
0000
0002
0000
,
0000
0003
0000
0000
,
2002
0000
0000
0000
,
3003
0000
0000
0000
,
1000
0000
0000
0000
1000
0000
0000
2000
,
0000
3000
0000
0000
0001
0000
0000
0000
,
0001
0000
0000
0002
0000
0000
0000
0000
,
0003
0000
0100
0000
,
0100
0000
0000
0200
0000
0000
0000
0300
,
0000
0000
0010
0000
,
0010
0000
0000
0000
1000
0000
0000
2000
,
0000
0000
3000
0000
,
0001
0000
0000
0001
0000
0000
0002
0000
,
0000
0003
0000
0000
,
1000
0000
0000
1000
0000
0000
2000
0000
,
0000
3000
0000
0010
,
0020
0030
0000
0100
,
0200
0000
0302
0000
,
1003
0000
0000
2000
0000
0000
0000
0000
,
0000
0000
3000
0000
,
0004
0000
0000
0000
,
0003
0000
0010
0000
,
0010
0000
0001
0000
,
0001
0000
0002
0003
,
2000
0000
0000
0000
,
3000
0000
0010
0000
,
0000
0100
0000
0000
0100
0000
0000
0001
,
0000
0002
0003
0000
,
1000
0000
0000
0000
1000
0000
0000
1000
,
0000
0000
0001
0000
,
0001
0000
0000
0002
0000
0000
0000
0000
,
0003
0000
0010
0000
,
0010
0000
0000
0020
0000
0000
0000
0000
,
0030
0000
0100
0000
,
1000
0000
0000
0000
1000
0000
0000
2000
,
0000
0000
3000
0000
,
0001
0000
0000
0001
0000
0000
0002
0000
,
0000
0000
0000
0003
0000
0000
0000
0000
,
0100
0000
0000
0100
0000
0000
0200
0000
,
0000
0000
0000
0300
0000
0000
0000
0000
,
0001
0000
0000
0000
,
1000
0000
1000
0000
,
0001
0000
0000
0002
0000
0000
0000
0000
,
0000
0000
0003
0000
,
2000
0000
3000
0000
,
0000
0100
0000
0000
0000
0100
0000
0200
,
0000
0000
0300
0000
,
0000
1000
0000
0000
0000
1000
0000
2000
,
0000
0000
3000
0000
,
0000
0001
0000
0000
0000
0001
0000
0002
,
0000
0000
0000
0000
0003
0000
0000
1000
,
0000
1000
0000
0000
0010
0000
0010
0000
,
0010
0020
0000
0000
,
0000
0000
0000
0000
0000
0000
0000
0030
;

//---------------dance-single - AceOfArrows (2018)----------------
#NOTES:
     dance-single:
     AceOfArrows (2018):
     Beginner:
     2:
     0.169,0.000,0.008,0.307,0.000:
0000
0000
0000
0000
,
0000
0000
0000
0000
,
0000
0000
0000
0000
,
0000
0000
0000
0000
,
1000
0000
1000
0000
,
1000
0000
0000
0000
,
0001
0000
0001
0000
,
0002
0000
0003
0000
,
0010
0000
0010
0000
,
0010
0000
0000
0000
,
0100
0000
0100
0000
,
0200
0000
0300
0000
,
2000
0000
0000
0000
,
3000
0000
0000
0000
,
0002
0000
0000
0000
,
0003
0000
0000
0000
,
1000
0000
1000
0000
,
1000
0000
0000
0000
,
0002
0000
0000
0003
,
0000
0000
0000
0000
,
0010
0000
0010
0000
,
0010
0000
0000
0000
,
0100
0000
0100
0000
,
0200
0000
0300
0000
,
0000
0000
0002
0000
,
0003
0000
0000
0000
,
1000
0000
1000
0000
,
2000
0000
3000
0000
,
0001
0000
0001
0000
,
0001
0000
0000
0000
,
0100
0000
0100
0000
,
0200
0000
0300
0000
,
0010
0000
0020
0000
,
0000
0030
0000
0000
,
1000
0000
2000
0000
,
0000
3000
0000
0000
,
0001
0000
0002
0000
,
0000
0003
0000
0000
,
0010
0000
0010
0000
,
0020
0000
0030
0000
,
0100
0000
0100
0000
,
0100
0000
0000
0000
,
2000
0000
0000
0000
,
3000
0000
0001
0000
,
0001
0000
0002
0000
,
0000
0003
0000
0000
,
2002
0000
0000
0000
,
3003
0000
0000
0000
,
1000
0000
1000
0000
,
1000
0000
0000
0000
,
0002
0000
0000
0000
,
0003
0000
0100
0000
,
0200
0000
0000
0000
,
0300
0000
0000
0000
,
0010
0000
0010
0000
,
0020
0000
0030
0000
,
1000
0000
1000
0000
,
2000
0000
3000
0000
,
0001
0000
0001
0000
,
0002
0000
0003
0000
,
0200
0000
0300
0000
,
0001
0000
0001
0000
,
0002
0000
0000
0000
,
0000
0000
0003
0000
,
4000
0000
0000
0000
,
0000
0000
3000
0000
,
0001
0000
0001
0000
,
0002
0000
0003
0000
,
2000
0000
0000
0000
,
0000
0000
3000
0000
,
0010
0000
0010
0000
,
0020
0000
0030
0000
,
0100
0000
0100
0000
,
0100
0000
0000
0000
,
0002
0000
0003
0000
,
0000
0000
1000
0000
,
1000
0000
2000
0000
,
3000
0000
0000
0000
,
0100
0000
0100
0000
,
0200
0000
0300
0000
,
1000
0000
1000
0000
,
2000
0000
3000
0000
,
0001
0000
0001
0000
,
0002
0000
0003
0000
,
2000
0000
3000
0000
,
0100
0000
0100
0000
,
0200
0000
0000
0000
,
0000
0000
0300
0000
,
2000
0000
3000
0000
,
0000
0001
0000
0000
0000
0001
0000
0000
,
0000
0002
0000
0000
0000
0003
0000
0000
,
0000
0100
0000
0000
0000
0100
0000
0000
,
0000
0200
0000
0000
0000
0300
0000
0000
,
0000
0001
0000
0000
0000
0001
0000
0000
,
0000
0002
0000
0000
0000
0003
0000
2000
,
0000
3000
0000
0000
0010
0000
0010
0000
,
0010
0020
0000
0000
,
0000
0000
0000
0000
0000
0000
0000
0030
;
