#TITLE:True-Blue;
#SUBTITLE:;
#ARTIST:Kotoko;
#TITLETRANSLIT:;
#SUBTITLETRANSLIT:;
#ARTISTTRANSLIT:;
#GENRE:;
#CREDIT:Ace Of Arrows;
#BANNER:True-Blue - Bn.png;
#BACKGROUND:True-Blue - Bg.jpg;
#LYRICSPATH:;
#CDTITLE:Ace Of Arrows.png;
#MUSIC:True-Blue.ogg;
#OFFSET:0.560;
#SAMPLESTART:52.300;
#SAMPLELENGTH:12.000;
#SELECTABLE:YES;
#BPMS:0.000=170.000;
#STOPS:;
#BGCHANGES:;
#KEYSOUNDS:;

//---------------dance-single - AceOfArrows (2018)----------------
#NOTES:
     dance-single:
     AceOfArrows (2018):
     Hard:
     9:
     0.645,0.557,0.118,0.803,0.093: // measure 1
0000
0000
0000
0000
,  // measure 2
4000
0000
0000
3000
,  // measure 3
0001
0010
0100
1000
0100
0010
0002
0000
,  // measure 4
1003
0010
0100
0001
0100
0010
2000
0000
,  // measure 5
3001
0010
0100
0010
0001
1000
0002
0000
,  // measure 6
1003
0010
0000
1000
0001
0010
0100
1000
,  // measure 7
0001
0100
0000
0010
0100
0001
1000
0100
,  // measure 8
0010
0100
0000
0010
0001
1000
0001
0100
,  // measure 9
0001
1000
0000
0100
1000
0001
1000
0100
,  // measure 10
1000
0001
0040
0000
0130
1000
0001
0020
,  // measure 11
0130
1000
0001
0100
0010
0100
0001
1000
,  // measure 12
0100
0010
0100
1000
0001
0100
0010
0100
,  // measure 13
0001
1000
0010
0100
0010
1000
0001
0010
,  // measure 14
0100
0000
1000
0000
0000
0000
0001
0000
0100
0010
0100
0000
0001
0000
1000
0100
,  // measure 15
1000
0001
0100
0010
0100
0001
1000
0100
,  // measure 16
0010
0001
1000
0010
0100
0001
1000
0100
,  // measure 17
0010
0001
1000
0001
0100
0001
1000
0010
,  // measure 18
0100
0001
0100
0000
0010
0000
1000
0001
1000
0000
0100
0010
0100
0010
0100
0000
,  // measure 19
1000
0100
0010
0001
1000
0001
0100
0020
,  // measure 20
0000
0000
0130
0000
0002
0000
1003
0100
1000
0000
0001
0000
0100
0000
0001
0000
,  // measure 21
2000
3020
0230
0302
,  // measure 22
2003
0000
3100
0040
0000
0000
0030
0000
,  // measure 23
0002
0000
1003
0020
0000
0130
0001
1000
,  // measure 24
0200
0000
0310
0004
0000
0000
0003
0000
,  // measure 25
2000
3200
0320
0032
,  // measure 26
2003
0000
3010
0400
0000
0000
0300
0000
,  // measure 27
0001
1000
0100
2000
0000
3002
0000
0103
,  // measure 28
0040
0000
0000
0030
,  // measure 29
2000
0000
3002
0000
0103
0020
0000
0230
,  // measure 30
0000
0301
2000
0000
3200
0000
0320
0000
,  // measure 31
0032
0000
2003
0000
3010
0100
0001
0100
,  // measure 32
0010
1000
0001
4000
0000
0000
3000
0000
,  // measure 33
0002
0000
0013
0200
0000
0310
0001
1000
,  // measure 34
0020
0000
0430
0300
,  // measure 35
0002
0000
2003
0000
3200
0000
0320
0030
,  // measure 36
0012
0000
1003
0020
0000
0230
0000
0301
,  // measure 37
4000
0004
0000
0000
0000
0000
0000
0000
0000
0000
0000
0000
0000
0000
0000
0000
,  // measure 38
3003
0000
0001
0000
0001
0010
0100
2100
,  // measure 39
0000
3001
0100
0010
1000
0002
0003
0021
,  // measure 40
0000
0130
4000
0000
0000
0000
3000
1002
,  // measure 41
0000
0103
0010
1000
0001
0010
0000
0210
,  // measure 42
0000
1300
0004
0000
0000
0000
0003
0000
,  // measure 43
2001
0000
3020
0000
0130
0002
0000
1003
,  // measure 44
0200
0000
0000
0000
0320
0000
0000
0000
0031
0000
2000
0000
0000
0000
3001
0010
,  // measure 45
0002
0000
1003
0020
0000
0130
0001
1000
,  // measure 46
0200
0000
0000
0000
0310
0001
1000
1020
,  // measure 47
0000
0130
0001
1000
0100
0010
0000
0012
,  // measure 48
0000
1003
0040
0000
0000
0000
0030
0210
,  // measure 49
0000
0301
1000
0100
0010
0001
0000
2001
,  // measure 50
0000
3010
0400
0000
0000
0000
0300
0000
,  // measure 51
0102
2003
3200
0320
,  // measure 52
0230
0000
1300
0004
0000
0000
1003
0010
,  // measure 53
0200
0000
0301
2000
0000
3100
0020
0000
,  // measure 54
0400
0000
0000
0330
,  // measure 55
0020
0032
2003
3020
,  // measure 56
0230
0000
0301
4000
0000
3000
0002
0000
,  // measure 57
2003
0000
3100
0020
0000
0000
0000
0000
,  // measure 58
0031
1000
0001
0000
0010
0000
0100
1000
0100
0000
0010
0000
0001
0010
0001
0000
,  // measure 59
1000
0010
1000
0001
0010
0100
1000
0001
,  // measure 60
0100
0010
0100
0001
1000
0100
0010
0100
,  // measure 61
1000
0001
0100
0010
1000
0010
0100
0001
,  // measure 62
1000
0100
1000
0000
0001
0000
0100
0010
0100
0000
0001
0000
1000
0000
0100
0010
,  // measure 63
0100
1000
0001
0100
0010
0100
0001
1000
,  // measure 64
0100
0010
0100
1000
0001
1000
0010
0100
,  // measure 65
0010
1000
0001
0010
0100
1000
0100
0010
,  // measure 66
0001
1000
0001
0000
0010
0000
0100
1000
0100
0000
0010
0000
0001
0000
1000
0010
,  // measure 67
1000
0001
0010
0001
1000
0010
0100
0010
,  // measure 68
1000
0000
0001
0000
0010
0000
0100
1000
0100
0000
0010
0000
0001
1000
0001
0000
,  // measure 69
0020
0230
2300
3002
,  // measure 70
0203
0000
0310
4000
0000
0000
3000
0000
,  // measure 71
0001
0010
0100
2000
0000
3001
0100
0010
,  // measure 72
0200
0000
0301
4000
0000
0000
3000
0000
,  // measure 73
0002
0023
0032
2003
,  // measure 74
3020
0000
0130
0004
0000
0000
0003
0000
,  // measure 75
1000
0010
0100
0002
0000
2003
0000
3100
,  // measure 76
0040
0000
0000
0030
,  // measure 77
0002
0000
2003
0000
3010
0200
0000
0302
,  // measure 78
0000
1003
0100
0010
0002
0000
4003
0000
,  // measure 79
3020
0000
0230
0000
0301
1000
0200
0000
,  // measure 80
0310
0100
1000
0004
0000
0000
0003
0000
,  // measure 81
2000
0000
3010
0200
0000
0301
1000
0100
,  // measure 82
0020
0000
0000
0000
0430
0000
0000
0300
,  // measure 83
2000
0000
3002
0000
0203
0000
0320
0030
,  // measure 84
2010
0000
3001
0020
0000
0031
1000
0010
,  // measure 85
0400
0004
0000
0000
0000
0000
0000
0000
0000
0000
0000
0000
0000
0000
0000
0000
,  // measure 86
0303
0000
0001
0000
0001
0100
0010
2010
,  // measure 87
0000
3001
0010
0100
1000
0001
0000
0201
,  // measure 88
0000
0310
4000
0000
0000
0000
3000
1002
,  // measure 89
0000
0013
0100
1000
0001
0100
0000
0120
,  // measure 90
0000
1030
0004
0000
0000
0000
0003
0000
,  // measure 91
0021
0000
0230
0000
1300
0002
0000
1003
,  // measure 92
0020
0000
0000
0000
0230
0000
0000
0000
0301
0000
2000
0000
0000
0000
3100
0010
,  // measure 93
0200
0000
1300
0002
0000
1003
0010
0100
,  // measure 94
0002
0000
0000
0000
1003
0100
0010
0012
,  // measure 95
0000
1003
0010
0100
0001
1000
0000
1200
,  // measure 96
0000
0310
0004
0000
0000
0000
0003
2001
,  // measure 97
0000
3010
0100
0001
1000
0001
0000
0021
,  // measure 98
0000
0130
4000
0000
0000
0000
3000
0000
,  // measure 99
1020
0230
0302
2003
,  // measure 100
3200
0000
0310
0400
0000
0300
2000
0000
,  // measure 101
3002
0000
0103
0020
0000
1030
0002
0000
,  // measure 102
4000
0000
0000
3003
,  // measure 103
0002
0023
0230
2300
,  // measure 104
3002
0000
0103
0040
0030
0000
1000
0001
,  // measure 105
0020
0000
0130
2000
0000
0000
0000
0000
,  // measure 106
3001
0010
0001
0000
1000
0000
0010
0100
0010
0000
1000
0000
0001
0010
0001
0000
,  // measure 107
1000
0010
0100
0010
1000
0001
0100
0010
,  // measure 108
0100
0001
1000
0100
0010
0100
1000
0001
,  // measure 109
0100
0010
1000
0001
0010
0100
0010
0001
,  // measure 110
1000
0100
1000
0000
0001
0000
0100
0010
0100
0000
0001
0000
1000
0000
0001
0100
,  // measure 111
0001
1000
0100
0010
0100
1000
0001
1000
,  // measure 112
0010
0100
0010
1000
0001
1000
0100
0010
,  // measure 113
0001
0010
0100
1000
0001
0100
0010
0100
,  // measure 114
0001
0100
0001
0000
1000
0000
0010
0100
0010
0000
1000
0000
0001
0000
1000
0010
,  // measure 115
1000
0000
0001
0000
0020
0000
0000
0000
0031
1000
0001
0000
0100
0000
0010
0000
,  // measure 116
2000
0000
0000
3002
0000
0000
0013
0000
0400
0000
0000
0000
2300
0000
0000
0000
,  // measure 117
3004
0000
0000
0000
,  // measure 118
0000
0000
0000
0000
0043
0000
0000
0430
,  // measure 119
0000
0000
0000
0000
,  // measure 120
0000
0000
0000
4300
0000
0000
3004
0000
,  // measure 121
0000
4003
0000
0000
0000
0000
0000
0000
,  // measure 122
0000
0000
0000
0000
3400
0000
0000
0340
,  // measure 123
0000
0000
0034
0000
,  // measure 124
0000
0000
0003
2000
,  // measure 125
3020
0000
0000
0000
0000
0000
0230
0000
0000
0000
0302
0000
0000
0000
1003
0100
,  // measure 126
2000
0000
0000
0000
3001
0010
0100
0010
,  // measure 127
0001
1000
0001
0200
0000
0000
0300
0000
,  // measure 128
0010
1000
0001
0020
0000
0031
2000
0000
,  // measure 129
3001
0200
0000
0320
0000
0000
1030
0002
,  // measure 130
0000
2003
0000
3100
0010
0001
1000
0100
,  // measure 131
0020
0000
0000
0000
0000
0000
0031
0010
0001
0000
1000
0001
1000
0000
0020
0000
,  // measure 132
0000
1030
0001
0200
0000
0000
0300
0000
,  // measure 133
0001
1000
0001
0200
0000
0310
1000
0001
,  // measure 134
0020
0230
2300
3004
,  // measure 135
1003
0010
0100
0002
0000
1003
0100
0010
,  // measure 136
0200
0000
1300
0004
0000
0000
0003
0000
,  // measure 137
1000
0010
0100
0020
0000
1030
0001
0010
,  // measure 138
0200
0000
2300
0000
3001
0100
0010
0100
,  // measure 139
0002
0000
0000
0000
0000
0000
0000
0000
1003
0000
0000
0000
0020
0000
0000
0000
0000
0000
0000
0000
0000
0000
0000
0000
0000
0000
0000
0000
0000
0000
0000
0030
,  // measure 140
0040
0000
0000
0030
,  // measure 141
2000
0000
3020
0000
0130
0001
1000
0001
,  // measure 142
0020
0000
0130
4000
0000
0000
3000
0000
,  // measure 143
0001
0010
0100
0010
0001
1000
0010
0100
,  // measure 144
0002
0000
1003
0400
0000
0000
0300
0000
,  // measure 145
0020
0000
0000
0230
0000
0000
2300
0000
,  // measure 146
0000
3001
0100
0010
1000
0001
0010
0100
,  // measure 147
2000
0000
3001
0200
0000
0000
0000
0000
,  // measure 148
0000
0000
0000
0000
0000
0000
0000
0000
0000
0000
0000
0000
0000
0000
0000
0000
0000
0000
0000
0000
0000
0000
0000
0000
0000
0000
0000
0000
0000
0000
0000
0300
,  // measure 149
0400
0000
0000
0000
,  // measure 150
0300
0000
0000
0000
0001
1000
0100
0120
,  // measure 151
0000
0031
1000
0010
0100
0001
0000
2001
,  // measure 152
0000
3010
0400
0000
0000
0000
0300
0102
,  // measure 153
0000
1003
0100
0010
0001
1000
0000
1020
,  // measure 154
0000
0000
0130
0000
0004
0000
0000
0000
0000
0000
0000
0000
1003
0100
0010
0100
,  // measure 155
2000
0000
0000
0000
3002
0000
0000
0000
0103
0000
0020
0000
0000
0000
1030
0001
,  // measure 156
2000
0000
0000
0000
3200
0000
0000
0000
0310
0000
0002
0000
0000
0000
1003
0010
,  // measure 157
2000
0000
3001
0020
0000
0031
0010
0100
,  // measure 158
2000
0000
0000
0000
3001
0100
0010
2010
,  // measure 159
0000
3001
0010
0100
0010
0001
0000
2001
,  // measure 160
0000
3010
0400
0000
0000
0000
0300
0102
,  // measure 161
0000
1003
0100
0010
0001
1000
0000
1002
,  // measure 162
0000
0103
0040
0000
0000
0000
0030
0000
,  // measure 163
2010
3002
0023
0230
,  // measure 164
2300
0000
3001
0400
0000
0300
0020
0000
,  // measure 165
2030
0000
3001
0020
0000
0130
2000
0000
,  // measure 166
0400
0000
0000
3300
,  // measure 167
2000
3002
0203
0320
,  // measure 168
2030
0000
3001
0400
0000
0300
0001
1000
,  // measure 169
0200
0000
0310
0002
0000
0000
0000
0000
,  // measure 170
1003
0100
1000
0000
0001
0000
1000
0010
1000
0000
0001
0000
0010
0100
0010
0000
,  // measure 171
0001
1000
0010
0100
0010
1000
0001
1000
,  // measure 172
0100
0010
0001
0010
0100
1000
0001
0100
,  // measure 173
0010
1000
0001
0010
0100
1000
0100
0010
,  // measure 174
0001
1000
0001
0000
0010
0000
0100
1000
0100
0000
0010
0000
0001
0000
1000
0010
,  // measure 175
1000
0001
0010
0100
0010
0001
1000
0001
,  // measure 176
0100
0010
1000
0010
0100
0001
1000
0100
,  // measure 177
0010
0100
1000
0001
1000
0010
0100
0001
,  // measure 178
1000
0100
1000
0000
0001
0000
0010
0100
0010
0000
0001
0000
1000
0001
1000
0000
,  // measure 179
0200
0000
0000
0000
,  // measure 180
0000
0000
0000
0000
,  // measure 181
0000
0000
0000
0000
,  // measure 182
0000
0000
0000
0000
,  // measure 183
0000
0000
0000
0000
,  // measure 184
0300
0000
0000
0000
;

//---------------dance-single - AceOfArrows (2018)----------------
#NOTES:
     dance-single:
     AceOfArrows (2018):
     Challenge:
     11:
     0.884,0.627,0.525,1.000,0.419:
0000
0000
0000
0000
,
0001
0000
1000
0000
0001
0100
0010
0100
0001
0000
1000
0000
0100
0000
0010
0000
,
0011
0000
0001
0000
1000
0000
0010
0000
0100
0000
0010
1000
0001
0000
2000
0000
,
0000
3100
0010
0001
1000
0010
0100
0001
,
1000
0000
0100
0000
0010
0000
0100
0000
1000
0000
0001
0100
0010
0100
0001
0000
,
2000
3200
0320
0230
2300
3002
0203
0320
,
0130
0000
0001
0000
1000
0000
0100
0000
0010
0100
0010
0000
0001
0000
0100
0010
,
0100
0001
1000
0100
1000
0001
1000
0010
,
0100
0000
0001
0000
1000
0000
0100
0000
0010
0001
1000
0001
0010
0000
0100
0000
,
2000
0000
3020
0030
0110
0100
0001
1001
,
1000
0100
0010
0100
1000
0001
0100
0010
,
1010
1000
0001
0010
0100
1000
0001
0100
,
0110
0010
1000
0001
1000
0010
0100
0010
,
1000
0000
0001
0000
0010
0000
0100
0000
1000
0100
1000
0000
0001
0000
1000
0010
,
1000
0001
1000
0100
0010
0100
1000
0001
,
0101
0100
0010
1000
0001
0010
0100
1000
,
1001
0001
0100
0010
0100
0001
1000
0100
,
0010
0100
0010
0000
0001
0000
1000
0010
1000
0000
0001
1000
0100
0010
0100
1000
,
0002
0000
1003
0000
0010
0000
0100
0010
0100
0000
0001
0000
1000
0000
0002
0000
,
0000
0000
1003
0000
0100
0010
0001
0010
0100
0000
1000
0000
0002
0000
0003
0000
,
0201
0000
0320
0000
0002
0030
2000
0003
,
0200
3000
0302
4003
0000
0000
3000
0000
,
1002
0000
0103
0040
0000
1030
0001
0010
,
0210
0000
1300
0004
0000
0000
0003
0000
,
2001
0000
3200
0000
0002
0300
2000
0003
,
0020
3000
0032
4003
0000
0000
3000
0000
,
1001
0001
1000
0020
0000
0230
0000
0301
,
1000
0000
0100
0010
0100
0000
1000
0000
0001
0100
0001
0000
1000
0100
1000
0000
,
1002
0000
0203
0300
0120
2030
3000
1002
,
0000
0103
0020
0000
0230
0000
0302
0003
,
2001
0000
0000
0000
3200
0000
0000
0000
0310
M00M
0010
0000
0100
M00M
0100
0000
,
0010
M00M
0010
0000
1000
0000
0004
0000
0000
0000
0013
0000
0001
0000
1000
0010
,
2000
0000
3010
0200
0000
0301
1000
0100
,
0020
0000
0130
0000
1000
0000
0001
0000
0100
0010
0100
0000
0001
1000
0001
0000
,
2000
0000
0000
0000
3002
0000
0000
0000
0203
0000
0000
0000
0320
0000
0000
0030
,
2010
0000
3001
0000
0010
0000
0100
1000
0100
0000
0010
0000
0001
0000
1000
0010
,
0100
0010
1000
0000
0001
0000
0010
0100
1000
0100
0010
0000
0001
1000
0001
0000
,
0201
0000
0000
0000
0022
0033
0300
0000
0110
0000
0010
0000
1000
0000
1002
0000
,
0000
0013
0100
1000
1001
0002
0003
0201
,
0000
0320
0400
0000
0000
0000
0330
0102
,
0000
1003
0100
0010
0011
0001
0000
2001
,
0000
3002
0400
0000
0000
0000
0303
0000
,
0120
0000
2030
3000
1001
0002
0000
0013
,
0200
0000
0000
0000
2300
0000
3000
0000
1001
0000
0002
0000
0000
0000
1003
0010
,
0100
0010
1000
0000
0001
0000
0010
0100
0010
0000
0001
0000
1000
0100
0010
0001
,
0010
0100
1000
0001
1000
0000
0001
0100
0010
0100
0001
0000
1000
0000
1200
0000
,
0000
0310
0001
1000
1010
0020
0030
0210
,
0000
0302
4000
0000
0000
0000
3003
1200
,
0000
0310
0001
1000
1001
0002
0003
0021
,
0000
0230
0040
0000
0000
0000
0330
0000
,
0012
0000
2003
0000
3020
0000
0230
0300
,
0102
0000
1003
0400
0000
0000
0320
0030
,
0012
0000
1003
1020
0000
0130
0102
0000
,
4000
0000
0000
0000
0000
0000
0000
0000
3003
0000
0001
0000
0011
0000
0010
0100
,
2000
0000
3002
0000
0203
0000
0320
0030
,
2010
0000
3002
0403
0000
0300
0020
0030
,
2010
0000
3002
0020
0000
0000
0000
0003
,
0130
1000
0100
0000
0010
0000
0001
0010
0100
0010
0001
0000
1000
0000
1020
0000
,
0130
0001
1000
0100
0010
0001
0010
0100
,
1100
1000
0001
0100
0010
0100
0001
1000
,
1010
0010
0100
0001
1000
0100
0010
0100
,
1000
0001
1000
0000
1100
0000
0100
0010
0001
0010
0100
0000
1100
0000
1000
0001
,
2000
3010
0100
0001
1000
0010
0100
0001
,
1001
1000
0100
0010
0001
0010
0100
1000
,
1001
0001
0100
0010
1000
0001
0010
0100
,
1000
0100
1000
0000
1001
0000
0001
0100
0001
0000
1001
0000
1000
0010
0100
0010
,
1000
0001
0011
0010
0100
1000
0001
0201
,
0000
0000
0310
0000
1000
0001
0010
0001
1000
0000
0010
0000
0100
0001
1000
0001
,
0200
0000
0020
0300
0002
0030
2000
0003
,
0200
3000
0302
4003
0000
0000
3000
0000
,
0100
0000
0001
0000
0100
0000
2000
0000
0000
0000
3001
0100
0001
0000
1000
0000
,
0200
0000
0310
0004
0000
1003
1010
0010
,
0200
0000
0002
0300
0020
0003
2000
0030
,
0002
3000
0203
4300
0000
0000
3000
0000
,
1001
0001
0100
0120
0000
2030
0000
3001
,
0201
0000
0310
0000
1000
0000
0001
0000
0010
0100
0010
0000
0001
0000
1000
0010
,
2000
0000
3002
0000
0013
0200
0000
2300
,
0000
0000
3100
M00M
0100
0000
0010
M00M
0020
0000
0000
0000
0032
0000
0003
0000
,
2001
0000
3020
0000
0130
0001
2000
3000
,
1100
0000
0100
0000
0010
0000
0001
0010
0001
0000
1000
0000
0010
0100
0010
0000
,
2010
0000
3001
0020
0000
0130
1000
0001
,
0100
0000
0010
0000
1010
0000
1000
0000
0001
0010
0001
0000
1000
0000
0010
0100
,
0020
0000
2030
0000
3200
0000
0320
0030
,
0011
0000
0001
0000
1000
0000
0010
0100
0010
0000
1000
0001
1000
0000
0100
0010
,
0001
0010
0100
0000
1000
0000
0001
0100
0010
0100
0001
0000
1000
0000
0001
0010
,
0002
0000
0000
0000
2020
3030
0003
0000
1001
0000
1000
0000
0010
0000
0210
0000
,
0000
0301
1000
0100
0120
0032
0003
2001
,
0000
3002
0400
0000
0000
0000
0303
0120
,
0000
1030
0001
0010
0210
2300
3000
1002
,
0000
2003
0400
0000
0000
0000
3300
0000
,
0120
0000
0032
0003
1001
2000
0000
3001
,
0201
0000
0000
0000
0320
0000
0030
0000
1010
0000
2000
0000
0000
0000
3001
0010
,
0100
0010
0001
0000
1000
0000
0010
0100
0010
0000
1000
0000
0001
0010
0100
1000
,
0100
0010
0001
0000
1000
0000
0001
0100
0010
0100
0001
0000
1000
0000
1200
0000
,
0000
0310
0001
0100
0120
2030
3000
1002
,
0000
2003
0040
0000
0000
0000
3030
0210
,
0000
0301
1000
0100
0120
0032
0003
2001
,
0000
3002
0040
0000
0000
0000
0033
0000
,
0210
0000
2300
3000
1002
0000
0203
0300
,
0120
0000
2030
3004
0000
0003
0020
0030
,
0210
0000
1300
1002
0000
0103
0120
0000
,
0400
0000
0000
0000
0000
0000
0000
0000
0030
0000
0301
1000
0001
0000
1000
0100
,
2000
0000
3020
0000
0230
0000
0302
0003
,
2001
0000
3010
0400
0300
0000
0001
1000
,
1200
0000
0320
0002
0000
0000
0030
0000
,
1003
0010
1000
0000
1001
0000
0001
0010
0001
0000
1000
0000
0010
0100
0020
0000
,
1030
0001
0010
0001
1000
0010
0100
0001
,
1001
1000
0100
0010
0100
1000
0001
0100
,
0110
0010
1000
0001
0010
0100
1000
0001
,
0100
0010
0100
0000
0101
0000
0001
1000
0100
1000
0001
0000
1000
0010
0100
0010
,
2000
3001
0010
0100
1000
0001
0100
0010
,
1010
1000
0001
0010
0100
1000
0100
0010
,
0011
0001
1000
0010
0100
0001
1000
0010
,
0100
0010
0100
0000
0101
0000
0001
1000
0010
1000
0001
0000
0011
0000
0010
0100
,
0010
0000
0001
1000
0001
0000
0100
0000
0010
1000
0001
1000
0010
0000
0100
0001
,
1000
0100
1000
0001
0100
0000
0010
0100
0010
1000
0010
1000
0001
0010
0001
0010
,
0400
1000
0000
1000
0000
1000
0000
1000
0000
0010
0000
0010
0000
0010
0000
0010
,
0000
1000
0000
1000
0000
1000
0300
1000
0004
0100
0000
0100
0003
0100
0040
1000
,
0000
1000
0000
1000
0000
1000
0000
0100
0000
0100
0000
0100
0000
0100
0000
1000
,
0000
1000
0000
1000
0030
1000
0004
0010
0000
0010
0003
0010
0400
1000
0000
1000
,
0300
1000
0004
0010
0000
0010
0000
0010
0000
0010
0000
1000
0000
1000
0000
1000
,
0000
1000
0000
0100
0000
0100
0003
0100
0040
1000
0000
1000
0030
1000
0004
0100
,
0000
0100
0000
0100
0000
0100
0003
1000
0400
0010
0000
0010
0000
0010
0000
0010
,
0000
1000
0000
1000
0000
1000
0300
1000
0001
0100
0001
0100
0010
1000
0010
1000
,
0002
0000
0000
0000
0000
0000
0203
0000
0000
0300
0120
0000
0000
0000
1030
0001
,
0200
0000
0000
0000
0000
0300
0102
0000
0000
0000
1003
0000
0100
0000
0010
0000
,
0011
0001
1000
0020
0000
0000
0000
1030
,
0001
0010
0100
2000
0000
3001
0020
0030
,
0210
2300
0000
3002
0000
0003
0201
0320
,
0000
2030
0000
3001
0010
0100
1100
1000
,
1002
0000
0000
0000
0000
0000
0013
0100
2000
0000
3001
0100
0002
0000
2003
0000
,
0000
0000
3001
0000
0100
0000
0120
0000
0000
0000
1030
0001
1000
0000
0001
0010
,
0001
0000
1000
0000
0010
0000
0200
0000
0000
0000
0301
0000
0100
M00M
0100
0000
,
2000
3200
0302
0403
,
1300
0000
0001
0000
0100
0000
0040
0000
0000
0000
1030
0000
0010
M00M
0010
0000
,
0200
0000
1300
0004
0000
0013
0110
0100
,
1000
0000
0010
0000
0001
0000
0020
0000
0000
0000
1030
0000
0010
M00M
0010
0000
,
0002
0000
0000
0000
2003
0000
0000
0000
3010
M00M
0010
0000
0100
M00M
0100
0000
,
0102
0000
2003
0020
0000
0000
3000
0000
,
0230
0000
0301
1000
0100
1000
0001
0000
0100
0010
0100
0000
0001
1000
0001
0000
,
0021
0000
0000
0000
0230
0000
0000
0000
0310
M00M
0010
0000
0100
M00M
0100
0000
,
2000
0000
3002
0040
0000
0000
0033
0000
,
0010
M00M
0010
0000
0100
M00M
0100
0000
0010
M00M
0010
0000
0100
M00M
0100
0000
,
2100
0000
3002
0400
0000
0000
0303
0000
,
0120
0000
0000
2030
0000
0000
3200
0000
,
0000
0000
0310
M00M
0010
0000
0100
M00M
0100
0000
0010
M00M
0010
0000
1000
0000
,
1002
0000
0200
0020
0000
0000
0000
0000
,
0000
0000
0000
0000
0030
0000
0000
0300
,
1003
0001
1000
0000
0100
0000
0010
0001
1000
0001
0010
0000
0100
1000
0100
0000
,
2220
0000
3330
0000
0110
0010
0001
2001
,
0000
0000
3010
0000
0100
0000
0001
0000
1000
0000
0200
0000
0000
0000
0320
0030
,
0012
0000
1003
0000
0400
0000
0000
0000
0000
0000
0300
0000
0000
0000
2000
3000
,
1002
0000
0103
0000
0010
0000
1000
0000
0001
0000
0020
0000
0030
0000
0200
0300
,
2100
0000
3001
0000
0400
0000
0000
0000
0000
0000
0000
0000
0301
1000
0010
1000
,
0002
0000
0000
0000
0023
0000
0000
0000
0130
0000
4000
0000
0000
0000
3001
0100
,
0002
0000
0000
0000
2003
0000
0000
0000
3100
0000
0040
0000
0000
0000
0130
1000
,
0001
1000
0100
0000
0010
0000
0001
0010
0001
0000
1000
0000
0010
0000
0100
0001
,
1000
0001
0100
0000
0010
0000
1000
0001
0010
0001
1000
0000
0010
0000
0210
0000
,
0000
0301
1000
0100
0110
0020
0030
0012
,
0000
2003
0400
0000
0000
0000
3300
1002
,
0000
0103
0010
1000
1001
0002
0003
2001
,
0000
3002
0040
0000
0000
0000
0033
0000
,
0210
0000
2000
0300
0002
3000
0200
0003
,
2000
0300
3002
0043
0000
0030
2000
3000
,
1002
0000
0013
0210
0000
1300
1002
0000
,
0400
0000
0000
0000
0003
0000
0000
0000
0310
0000
1000
0000
0001
0000
0010
0100
,
0020
0000
0002
0030
2000
0003
0200
3000
,
0002
0300
2003
3040
0000
0030
0011
0001
,
2001
0000
3200
0020
0000
0000
0300
0000
,
0031
1000
0001
0000
0100
0000
0010
1000
0001
1000
0010
0000
0100
0000
0102
0000
,
1003
0100
0010
0100
1000
0001
0100
0010
,
1010
1000
0001
0010
0100
0010
0001
1000
,
1100
0100
0010
0001
1000
0010
0100
0001
,
1000
0100
1000
0000
1001
0000
0001
0100
0010
0100
0001
0000
1000
0100
0010
0100
,
2000
3001
0100
0010
1000
0001
0010
0100
,
1100
1000
0001
0100
0010
0100
0001
1000
,
1010
0010
0100
0001
1000
0100
0010
0001
,
0010
0100
0010
0000
0011
0000
0001
1000
0001
0000
0021
0000
0430
0000
0000
0300
,
2200
0000
0000
0000
,
0000
0000
0000
0000
,
0000
0000
0000
0000
,
0000
0000
0000
0000
,
0000
0000
0000
0000
,
3300
0000
0000
0000
;

//---------------dance-single - AceOfArrows (2018)----------------
#NOTES:
     dance-single:
     AceOfArrows (2018):
     Medium:
     7:
     0.511,0.418,0.000,0.929,0.000:
0000
0000
0000
0000
,
0004
0000
0000
0003
,
1000
0100
1000
0000
0001
0000
1000
0020
,
0000
0000
1030
0002
0000
0000
2003
0000
,
3001
0010
0001
0000
2000
0000
3002
0000
,
0013
0100
0000
1000
0100
1000
0100
0000
,
0020
0000
0000
0031
1000
0001
1000
0000
,
0020
0000
1030
0001
1000
0001
0000
0010
,
0200
0000
1300
0001
1000
0100
1000
0000
,
0002
0000
0403
0000
0310
1000
0010
2000
,
0000
0000
3001
0000
0010
0000
0100
0010
,
0100
0000
1000
0000
0001
0000
0100
0010
,
0100
0000
0001
0000
1000
0000
0001
0100
,
0004
0000
0000
0003
,
1000
0000
0100
0000
0010
0000
0001
0010
,
0001
1000
0010
0100
,
0001
0100
0001
2000
0000
0000
3100
0010
,
0400
0000
0000
0300
,
2000
0000
3001
0000
0100
0000
0001
1000
,
0004
0000
0000
0003
,
2000
3200
0320
0032
,
0023
0000
0130
4000
0000
0000
3000
0000
,
0002
0000
1003
0400
0000
1300
0001
1000
,
0020
0000
1030
0004
0000
0000
0003
0000
,
0020
0230
2300
3002
,
2003
0000
3010
0400
0000
0000
0300
0000
,
0001
0100
0001
2000
0000
3002
0000
1003
,
0040
0000
0000
0030
,
2000
0000
3002
0000
0013
0200
0000
2300
,
0000
3001
0020
0000
0032
0000
2003
0000
,
3020
0000
0230
0000
0301
1000
0002
0000
,
1003
0100
1000
0004
0000
0000
0003
0000
,
2000
0000
3010
0200
0000
0301
1000
0001
,
0020
0000
0430
0300
,
2000
3002
0203
0302
,
2003
0000
3100
0020
0000
0230
0000
1300
,
0004
0000
0000
0000
,
0003
0000
0000
0000
1000
0100
0010
0002
,
0000
1003
0010
1000
0010
0200
0000
0302
,
0000
1003
0400
0000
0000
0000
0300
2000
,
0000
3001
0010
0100
0010
0002
0000
2003
,
0000
3001
0400
0000
0000
0000
0300
0000
,
0020
0000
2030
0000
3001
0020
0000
0130
,
2000
0000
3002
0000
1003
0020
0000
0130
,
0002
0000
1003
0200
0000
0310
0100
0010
,
0002
0000
0000
0000
1003
0010
1000
0002
,
0000
1003
0010
0100
0010
2000
0000
3002
,
0000
1003
0400
0000
0000
0000
0300
0020
,
0000
0031
1000
0100
1000
0002
0000
2003
,
0000
3100
0040
0000
0000
0000
0030
0000
,
0002
2003
3020
2030
,
3002
0000
0013
0400
0000
0300
2000
0000
,
3002
0000
1003
0200
0000
0310
0002
0000
,
4003
0000
0000
3000
,
0020
2030
3002
0023
,
0230
0000
1300
0004
0000
0003
2000
0000
,
3020
0000
0130
0002
0000
0000
0000
0000
,
4003
0000
0000
3000
,
0001
0000
1000
0000
0010
0000
1000
0001
,
1000
0000
0100
0000
0010
0000
0001
1000
,
0001
0000
0100
0000
0010
0000
0100
0001
,
0400
0000
0000
0300
,
0010
0000
1000
0000
0001
0000
1000
0010
,
1000
0001
0010
0100
,
1000
0100
1000
0002
0000
0000
0013
0100
,
0040
0000
0000
0030
,
0002
0000
1003
0000
0010
0000
0100
0001
,
0100
0000
0010
2000
0000
0000
3000
0000
,
0002
0023
0032
2003
,
3020
0000
0130
0004
0000
0000
0003
0000
,
1000
0100
1000
0200
0000
1300
0001
1000
,
0002
0000
0103
0040
0000
0000
0030
0000
,
0200
0302
2003
3200
,
0320
0000
0130
4000
0000
0000
3000
0000
,
0001
0010
0100
2000
0000
3002
0000
1003
,
0040
0000
0000
0030
,
0200
0000
0302
0000
1003
0200
0000
2300
,
0000
3001
0010
0001
2000
0000
3040
0000
,
2030
0000
3002
0000
1003
0100
2000
0000
,
3002
0000
0013
0400
0000
0000
0300
0000
,
0020
0000
0031
2000
0000
3001
0100
0001
,
2000
0000
0000
0000
3400
0000
0000
0300
,
0020
0032
2003
3002
,
0203
0000
0310
2000
0000
3001
0010
0100
,
4000
0000
0000
0000
,
3000
0000
0000
0000
0001
0100
0010
2000
,
0000
3001
0100
0010
0100
0002
0000
2003
,
0000
3010
0400
0000
0000
0000
0300
0002
,
0000
1003
0100
0010
0100
2000
0000
3002
,
0000
1003
0040
0000
0000
0000
0030
0000
,
2000
0000
3002
0000
0013
0200
0000
1300
,
0002
0000
2003
0000
3010
0200
0000
0301
,
2000
0000
3001
0020
0000
0130
1000
0001
,
2000
0000
0000
0000
3001
0100
0010
2000
,
0000
0000
3001
0100
0010
2000
0000
3002
,
0000
0013
0400
0000
0000
0000
0300
2000
,
0000
3001
0010
0100
0010
0002
0000
2003
,
0000
3100
0040
0000
0000
0000
0030
0000
,
0200
2300
3002
2003
,
3020
0000
0130
0004
0000
0003
2000
0000
,
3020
0000
1030
0002
0000
0013
0200
0000
,
4300
0000
0000
3000
,
0020
0230
0302
2003
,
3002
0000
0013
0200
0300
0000
1000
0001
,
2000
0000
3100
0020
0000
0000
0000
0000
,
0034
0000
0000
0003
,
1000
0000
0010
0000
1000
0000
0001
0010
,
0001
0000
0010
0000
0100
0000
1000
0100
,
1000
0000
0001
0000
1000
0000
0001
0010
,
0004
0000
0000
0003
,
1000
0000
0100
0000
0010
0000
0100
1000
,
0100
1000
0001
0100
,
0010
1000
0010
0200
0000
0000
0310
0100
,
0040
0000
0000
0030
,
2000
0000
3002
0000
0023
0000
0130
2000
,
0000
3001
0100
0001
4000
0000
3200
0000
,
0340
0000
0000
0000
,
0000
0000
0000
0000
0034
0000
0000
4003
,
0000
0000
0000
0000
,
0000
0000
0000
3400
0000
0000
0340
0000
,
0000
0034
0000
0000
0000
0000
0000
0000
,
0000
0000
0000
0000
4003
0000
0000
3004
,
0000
0000
0043
0000
,
0000
0000
0030
0200
,
2300
0000
0000
3002
0000
0203
0000
0310
,
2000
0000
0000
0000
3001
0100
0002
0000
,
1003
0100
1000
0002
0000
0000
0003
0000
,
1000
0001
1000
0200
0000
0310
0002
0000
,
1003
0020
0000
0230
0000
0000
0301
2000
,
0000
3200
0000
0310
0002
0000
1003
0010
,
2000
0000
0000
3001
0200
0000
0301
2000
,
0000
0000
3010
0200
0000
0000
0300
0000
,
0001
0100
0001
2000
0000
3001
0010
0001
,
2000
3200
0320
0430
,
1300
0001
1000
0200
0000
1300
0001
1000
,
0020
0000
0130
0004
0000
0000
0003
0000
,
1000
0010
1000
0002
0000
1003
0100
0010
,
0002
0000
2003
0000
3100
0010
0200
0000
,
2300
0000
0000
0000
0000
0000
0000
0000
3001
0000
0000
0000
0020
0000
0000
0000
0000
0000
0000
0000
0000
0000
0000
0000
0000
0000
0000
0000
0000
0000
0000
0030
,
0040
0000
0000
0030
,
0002
0000
2003
0000
3020
0000
0130
0001
,
0200
0000
0310
4000
0000
0000
3000
0000
,
0001
0010
0002
0000
1003
0010
2000
0000
,
3002
0000
0103
0040
0000
0000
0030
0000
,
2000
0000
0000
3002
0000
0000
0203
0000
,
0000
0310
2000
0000
3001
0010
0001
0000
,
2000
0000
3100
0020
0000
0000
0000
0000
,
0000
0000
0000
0000
0000
0000
0000
0000
0000
0000
0000
0000
0000
0000
0000
0000
0000
0000
0000
0000
0000
0000
0000
0000
0000
0000
0000
0000
0000
0000
0000
0030
,
0040
0000
0000
0000
,
0030
0000
0000
0000
0001
1000
0010
2000
,
0000
3001
0010
0100
0010
0002
0000
2003
,
0000
3010
4000
0000
0000
0000
3000
0002
,
0000
1003
0010
0100
0010
2000
0000
3002
,
0000
0013
0004
0000
0000
0000
0003
0000
,
2000
0000
3200
0000
0310
0004
0000
1003
,
0020
0000
2030
0000
3001
0400
0000
0301
,
2000
0000
3001
0020
0000
0031
1000
0001
,
0200
0000
0000
0000
0310
1000
0001
0020
,
0000
0031
1000
0001
0100
0020
0000
2030
,
0000
3001
0400
0000
0000
0000
0300
0020
,
0000
1030
0001
0100
0001
2000
0000
3002
,
0000
0103
0040
0000
0000
0000
0030
0000
,
2000
3002
0023
0230
,
0320
0000
0031
4000
0000
3000
0002
0000
,
0203
0000
0310
2000
0000
3001
0020
0000
,
0430
0000
0000
0300
,
2000
3002
0203
0320
,
2030
0000
3001
0400
0000
0300
0002
0000
,
2003
0000
3100
0020
0000
0000
0000
0000
,
0034
0000
0000
0003
,
1000
0000
0010
0000
1000
0000
0001
0010
,
0001
0000
0010
0000
0100
0000
1000
0001
,
1000
0000
0100
0000
0010
0000
0100
1000
,
0400
0000
0000
0300
,
1000
0000
0001
0000
0100
0000
0010
1000
,
0010
0100
0001
1000
,
0001
0010
0100
2000
0000
0000
3001
0100
,
0004
0000
0000
0003
,
2000
0000
0000
0000
,
0000
0000
0000
0000
,
0000
0000
0000
0000
,
0000
0000
0000
0000
,
0000
0000
0000
0000
,
3000
0000
0000
0000
;

//---------------dance-single - AceOfArrows (2018)----------------
#NOTES:
     dance-single:
     AceOfArrows (2018):
     Easy:
     4:
     0.232,0.174,0.000,0.107,0.000:
0000
0000
0000
0000
,
4000
0000
3000
0000
,
0001
0000
0001
0000
0001
0000
0000
0020
,
0000
0000
0030
0000
,
0100
0000
0100
0000
0100
0000
0000
2000
,
0000
0000
3000
0000
,
0001
0000
0001
0000
0001
0000
0000
0200
,
0000
0000
0300
0000
,
0010
0000
0010
0000
0010
0000
0000
2000
,
0000
0000
3000
0000
,
0001
0001
0001
0000
,
0100
0100
0100
0000
,
0010
0010
0010
0000
,
4000
0000
3000
0000
,
0001
0001
0001
0000
,
1000
1000
1000
0000
,
0010
0010
0010
0000
,
0400
0000
0300
0000
,
0002
0000
0000
0000
,
0003
0000
0000
0000
,
1000
1000
1000
0000
,
0001
0000
0000
0004
0000
0000
0003
0000
,
1000
0000
0000
2000
0000
0000
3000
0000
,
0100
0000
0000
0400
0000
0000
0300
0000
,
0010
0010
0010
0000
,
0100
0000
0000
0400
0000
0000
0300
0000
,
1000
0000
0000
1000
0000
1000
0000
0000
,
0004
0000
0000
0003
,
0100
0100
0100
0000
,
0010
0010
0020
0030
,
1000
1000
1000
0000
,
0001
0000
0000
0004
0000
0000
0003
0000
,
0010
0000
0000
0010
0000
0000
0000
0000
,
0200
0300
0400
0300
,
1000
1000
1000
0000
,
0001
0000
0000
0001
0000
0001
0000
0000
,
0400
0000
0000
0000
,
0300
0000
0001
0000
,
1000
1000
1000
0000
,
0100
0400
0000
0300
,
0010
0010
0010
0000
,
0001
0004
0000
0003
,
1000
1000
1000
0000
,
0010
0010
0010
0000
,
0100
0000
0000
0200
0000
0000
0000
0000
,
0000
0300
0001
0000
,
1000
1000
1000
0000
,
0001
0004
0000
0003
,
0100
0100
0100
0000
,
0010
0040
0000
0030
,
1000
1000
2000
3000
,
0001
0000
0000
0001
0000
0000
0000
0000
,
1000
0000
0000
1000
0000
0000
0100
0000
,
0400
0000
0000
0300
,
0010
0010
0010
0000
,
0001
0000
0000
0001
0000
0000
1000
0000
,
1000
0000
0000
0000
0000
0000
0000
0000
0000
0000
0000
0000
2000
0000
0000
0000
0000
0000
0000
0000
0000
0000
0000
0000
0000
0000
0000
0000
0000
0000
0000
3000
,
4000
0000
0000
3000
,
0010
0010
0010
0000
,
0100
0100
0100
0000
,
0001
0001
0001
0000
,
0400
0000
0300
0000
,
0001
0001
0001
0000
,
1000
1000
1000
0000
,
0100
0100
0100
0000
,
0040
0000
0030
0000
,
0001
0000
0001
0000
0001
0000
0000
2000
,
0000
3000
0000
0000
,
0010
0010
0010
0000
,
0100
0000
0000
0400
0000
0000
0300
0000
,
0001
0001
0001
0000
,
1000
0000
0000
4000
0000
0000
3000
0000
,
0100
0100
0100
0000
,
0010
0000
0000
0040
0000
0000
0030
0000
,
0001
0000
0000
0001
0000
0001
0000
0000
,
4000
0000
0000
3000
,
0010
0010
0010
0000
,
0100
0100
0200
0300
,
0001
0001
0001
0000
,
0100
0000
0000
0400
0000
0000
0300
0000
,
0010
0010
0010
0000
,
2000
3000
4000
3000
,
0001
0001
0001
0000
,
0010
0000
0000
0010
0000
0010
0000
0000
,
0400
0000
0000
0000
,
0300
0000
1000
0000
,
0001
0000
0001
0000
0001
0000
0000
0100
,
0000
0400
0000
0300
,
0010
0000
0010
0000
0010
0000
0000
1000
,
0000
4000
0000
3000
,
0001
0001
0001
0000
,
0100
0100
0100
0000
,
0010
0000
0000
0040
0000
0000
0000
0000
,
0000
0030
1000
0000
,
0001
0001
0001
0000
,
1000
4000
0000
3000
,
0100
0100
0100
0000
,
0010
0040
0000
0030
,
0001
0001
0001
0000
,
1000
0000
0000
4000
0000
0000
3000
0000
,
0001
0000
0000
0001
0000
0000
0100
0000
,
0400
0000
0000
0300
,
0010
0010
0010
0000
,
1000
0000
0000
1000
0000
0000
0001
0000
,
0001
0000
0000
0000
0000
0000
0000
0000
0000
0000
0000
0000
0002
0000
0000
0000
0000
0000
0000
0000
0000
0000
0000
0000
0000
0000
0000
0000
0000
0000
0000
0003
,
0004
0000
0000
0003
,
1000
1000
1000
0000
,
0010
0010
0010
0000
,
0100
0100
0100
0000
,
0004
0000
0003
0000
,
1000
1000
1000
0000
,
0100
0100
0100
0000
,
0010
0010
0010
0000
,
0400
0000
0300
0000
,
1000
1000
1000
0000
,
0002
0000
0003
0010
,
0040
0000
0000
0000
,
0030
0000
0000
0000
0004
0000
0000
4003
,
0000
0000
0000
0000
,
3000
0000
0000
0004
0000
0000
4003
0000
,
0000
3004
0000
0000
0000
0000
0000
0000
,
0000
0000
0003
0000
4000
0000
0000
3400
,
0000
0300
0040
0000
,
0000
0030
0000
0001
,
0002
0000
1003
1000
,
2000
3000
0010
0010
,
0020
0000
0000
0030
0000
0000
0000
0000
,
0100
0100
0200
0300
,
0001
0000
0000
0001
0000
0000
1000
0000
,
0000
1000
0000
0000
0010
0000
0010
0000
,
0020
0000
0030
0000
0100
0000
0000
0200
,
0000
0000
0000
0300
0000
0000
0000
0000
,
0001
0000
0000
0002
0000
0000
0003
0000
,
1000
1000
1000
0000
,
0010
0000
0000
0010
0000
0000
0100
0000
,
0100
0000
0000
0400
0000
0000
0300
0000
,
0010
0000
0000
0020
0000
0000
0030
0000
,
1000
1000
1000
0000
,
0001
0000
0000
0000
0000
0000
0000
0000
0000
0000
0000
0000
0002
0000
0000
0000
0000
0000
0000
0000
0000
0000
0000
0000
0000
0000
0000
0000
0000
0000
0000
0003
,
0004
0000
0000
0003
,
0010
0010
0010
0000
,
0100
0000
0000
0400
0000
0000
0300
0000
,
1000
1000
1000
0000
,
0001
0000
0000
0004
0000
0000
0003
0000
,
1000
0000
0000
1000
0000
0000
1000
0000
,
0000
0100
0100
0000
,
0010
0000
0000
0020
0000
0000
0000
0000
,
0000
0000
0000
0000
0000
0000
0000
0000
0000
0000
0000
0000
0000
0000
0000
0000
0000
0000
0000
0000
0000
0000
0000
0000
0000
0000
0000
0000
0000
0000
0000
0030
,
0040
0000
0000
0000
,
0030
0000
0001
0000
,
1000
1000
1000
0000
,
0100
0000
0400
0000
0000
0300
0000
0000
,
1000
1000
1000
0000
,
0001
0004
0000
0003
,
0100
0100
0100
0000
,
0010
0010
0010
0000
,
1000
0000
0000
4000
0000
0000
0000
0000
,
0000
3000
0001
0000
,
0010
0010
0010
0000
,
0100
0400
0000
0300
,
1000
1000
1000
0000
,
0001
0004
0000
0003
,
0100
0100
0100
0000
,
0001
0000
0000
0004
0000
0003
0000
0000
,
1000
0000
0000
1000
0000
0000
0100
0000
,
0400
0000
0000
0300
,
1000
1000
1000
0000
,
0001
0000
0000
0001
0000
0000
0010
0000
,
0010
0000
0000
0000
0000
0000
0000
0000
0000
0000
0000
0000
0020
0000
0000
0000
0000
0000
0000
0000
0000
0000
0000
0000
0000
0000
0000
0000
0000
0000
0000
0030
,
0040
0000
0000
0030
,
0001
0001
0001
0000
,
1000
1000
1000
0000
,
0010
0010
0010
0000
,
0400
0000
0300
0000
,
0001
0001
0001
0000
,
1000
1000
1000
0000
,
0100
0100
0100
0000
,
0040
0000
0030
0000
,
0200
0000
0000
0000
,
0000
0000
0000
0000
,
0000
0000
0000
0000
,
0000
0000
0000
0000
,
0000
0000
0000
0000
,
0300
0000
0000
0000
;

//---------------dance-single - AceOfArrows (2018)----------------
#NOTES:
     dance-single:
     AceOfArrows (2018):
     Beginner:
     2:
     0.165,0.139,0.000,0.259,0.000:
0000
0000
0000
0000
,
0004
0000
0003
0000
,
0010
0000
0010
0000
,
0020
0000
0030
0000
,
0100
0000
0100
0000
,
0200
0000
0300
0000
,
1000
0000
1000
0000
,
2000
0000
3000
0000
,
0001
0000
0001
0000
,
0002
0000
0003
0000
,
1000
0000
1000
0000
,
2000
0000
3000
0000
,
0001
0000
0001
0000
,
0004
0000
0003
0000
,
0100
0000
0100
0000
,
0200
0000
0300
0000
,
0010
0000
0010
0000
,
0040
0000
0030
0000
,
2000
0000
0000
0000
,
3000
0000
0000
0000
,
0001
0000
0001
0000
,
0002
0000
0003
0000
,
1000
0000
1000
0000
,
2000
0000
3000
0000
,
0010
0000
0010
0000
,
0020
0000
0030
0000
,
0100
0000
0100
0000
,
0400
0000
0300
0000
,
0001
0000
0001
0000
,
0002
0000
0003
0000
,
1000
0000
1000
0000
,
2000
0000
3000
0000
,
0100
0000
0100
0000
,
0200
0000
0300
0000
,
2000
0000
3000
0000
,
0001
0000
0001
0000
,
0004
0000
0000
0000
,
0003
0000
0000
0000
,
0100
0000
0100
0000
,
0200
0000
0300
0000
,
0010
0000
0010
0000
,
0020
0000
0030
0000
,
2000
0000
3000
0000
,
0002
0000
0003
0000
,
0020
0000
0000
0000
,
0030
0000
0000
0000
,
0100
0000
0100
0000
,
0200
0000
0300
0000
,
1000
0000
1000
0000
,
2000
0000
3000
0000
,
0001
0000
0001
0000
,
0002
0000
0003
0000
,
0100
0000
0100
0000
,
0400
0000
0300
0000
,
0001
0000
0001
0000
,
0002
0000
0003
0000
,
1000
0000
4000
0000
,
0000
0000
3000
0000
,
0010
0000
0010
0000
,
0020
0000
0030
0000
,
0100
0000
0100
0000
,
0400
0000
0300
0000
,
0001
0000
0001
0000
,
0002
0000
0003
0000
,
1000
0000
1000
0000
,
4000
0000
3000
0000
,
0020
0000
0000
0000
,
0030
0000
0000
0000
,
0100
0000
0100
0000
,
0200
0000
0300
0000
,
0001
0000
0001
0000
,
0002
0000
0003
0000
,
1000
0000
1000
0000
,
2000
0000
3000
0000
,
0100
0000
0100
0000
,
0400
0000
0300
0000
,
1000
0000
1000
0000
,
2000
0000
3000
0000
,
0001
0000
0001
0000
,
0002
0000
0003
0000
,
0100
0000
0100
0000
,
0200
0000
0300
0000
,
0020
0000
0030
0000
,
1000
0000
1000
0000
,
4000
0000
0000
0000
,
3000
0000
0000
0000
,
0001
0000
0001
0000
,
0002
0000
0003
0000
,
0100
0000
0100
0000
,
0200
0000
0300
0000
,
0010
0000
0010
0000
,
0020
0000
0030
0000
,
2000
0000
3000
0000
,
0002
0000
0003
0000
,
0100
0000
0100
0000
,
0200
0000
0300
0000
,
0010
0000
0010
0000
,
0020
0000
0030
0000
,
1000
0000
1000
0000
,
2000
0000
3000
0000
,
0001
0000
0001
0000
,
0004
0000
0003
0000
,
1000
0000
1000
0000
,
2000
0000
3000
0000
,
0010
0000
0040
0000
,
0000
0000
0030
0000
,
0100
0000
0100
0000
,
0200
0000
0300
0000
,
0001
0000
0001
0000
,
0004
0000
0003
0000
,
1000
0000
1000
0000
,
2000
0000
3000
0000
,
0100
0000
0100
0000
,
0400
0000
0300
0000
,
2000
0000
0000
0000
,
3000
0000
0000
0000
,
0004
0000
0000
0000
,
0003
0000
0040
0000
,
0000
0000
0000
0000
,
0030
0000
0400
0000
,
0000
0000
0000
0000
,
0300
0000
4000
0000
,
0000
0000
0000
0000
,
0000
0000
3000
0000
,
0001
0000
0001
0000
,
0002
0000
0003
0000
,
0200
0000
0300
0000
,
0010
0000
0010
0000
,
0020
0000
0030
0000
,
2000
0000
3000
0000
,
0001
0000
0001
0000
,
0002
0000
0003
0000
,
0010
0000
0010
0000
,
0020
0000
0030
0000
,
0100
0000
0100
0000
,
0200
0000
0300
0000
,
1000
0000
1000
0000
,
2000
0000
3000
0000
,
0001
0000
0004
0000
,
0000
0000
0003
0000
,
0100
0000
0100
0000
,
0200
0000
0300
0000
,
0010
0000
0010
0000
,
0020
0000
0030
0000
,
1000
0000
1000
0000
,
2000
0000
3000
0000
,
0010
0000
0020
0000
,
0000
0000
0000
0000
0000
0000
0000
0000
0000
0000
0000
0000
0000
0000
0000
0000
0000
0000
0000
0000
0000
0000
0000
0000
0000
0000
0000
0000
0000
0000
0000
0030
,
0040
0000
0000
0000
,
0030
0000
0000
0000
,
1000
0000
1000
0000
,
2000
0000
3000
0000
,
0001
0000
0001
0000
,
0002
0000
0003
0000
,
0100
0000
0100
0000
,
0200
0000
0300
0000
,
0010
0000
0010
0000
,
0020
0000
0030
0000
,
1000
0000
1000
0000
,
2000
0000
3000
0000
,
0001
0000
0001
0000
,
0002
0000
0003
0000
,
0010
0000
0010
0000
,
0020
0000
0030
0000
,
0100
0000
0100
0000
,
0400
0000
0300
0000
,
1000
0000
1000
0000
,
2000
0000
3000
0000
,
0001
0000
0004
0000
,
0000
0000
0003
0000
,
0100
0000
0100
0000
,
0200
0000
0300
0000
,
0010
0000
0010
0000
,
0040
0000
0030
0000
,
1000
0000
1000
0000
,
2000
0000
3000
0000
,
0001
0000
0001
0000
,
0004
0000
0003
0000
,
0200
0000
0000
0000
,
0000
0000
0000
0000
,
0000
0000
0000
0000
,
0000
0000
0000
0000
,
0000
0000
0000
0000
,
0300
0000
0000
0000
;
