#TITLE:The Fine Every Day;
#SUBTITLE:;
#ARTIST:Kicco;
#TITLETRANSLIT:;
#SUBTITLETRANSLIT:;
#ARTISTTRANSLIT:;
#GENRE:;
#CREDIT:Ace Of Arrows;
#BANNER:The Fine Every Day - Bn.png;
#BACKGROUND:The Fine Every Day - Bg.jpg;
#LYRICSPATH:;
#CDTITLE:Ace Of Arrows.png;
#MUSIC:The Fine Every Day.ogg;
#OFFSET:1.480;
#SAMPLESTART:50.800;
#SAMPLELENGTH:12.000;
#SELECTABLE:YES;
#BPMS:0.000=177.000,580.000=88.500,596.000=177.000;
#STOPS:;
#BGCHANGES:;
#KEYSOUNDS:;

//---------------dance-single - AceOfArrows (2018)----------------
#NOTES:
     dance-single:
     AceOfArrows (2018):
     Hard:
     9:
     0.741,0.460,0.170,1.000,0.069: // measure 1
0000
0000
0000
0000
,  // measure 2
0000
0000
0000
0002
,  // measure 3
0023
0000
0000
0230
0000
0000
1300
0001
,  // measure 4
2000
0000
0000
3200
0000
0310
0001
1000
,  // measure 5
0020
0000
0000
0230
0000
0301
1000
0100
,  // measure 6
0020
0000
0000
0230
0000
1300
0001
0100
,  // measure 7
0020
0000
0000
0230
0000
0301
1000
0100
,  // measure 8
0020
0000
0000
0000
0031
1000
0001
0100
,  // measure 9
0020
1030
0001
1000
0010
0100
0001
1000
,  // measure 10
0100
0010
0001
1000
0010
0100
0001
1000
,  // measure 11
0200
0000
0310
0100
1000
0001
0000
0201
,  // measure 12
0000
0310
1000
0001
0010
0200
0000
1300
,  // measure 13
0002
0000
1003
0100
0010
0100
0000
2100
,  // measure 14
0000
3001
0100
0010
0100
0002
0000
0003
,  // measure 15
2001
0000
3100
0000
0020
0000
0130
1000
,  // measure 16
0001
2000
0000
0000
3100
0010
0001
1000
,  // measure 17
0020
0000
0130
0000
0002
0000
1003
0100
,  // measure 18
0010
0001
0000
1000
0010
0100
0020
0030
,  // measure 19
2010
0000
3001
0020
0000
0130
1000
0001
,  // measure 20
0200
0310
1000
0002
0000
0013
0100
1000
,  // measure 21
0002
0000
1003
0010
0100
0002
0000
1003
,  // measure 22
1200
0310
0001
2000
3010
0100
0002
1003
,  // measure 23
0200
0000
0320
0000
0032
0000
1003
0010
,  // measure 24
0100
0001
1000
0100
0010
0001
1000
0001
,  // measure 25
0020
0000
0230
0000
0320
0000
0031
2000
,  // measure 26
3010
0100
0010
1000
0001
0010
0200
0000
,  // measure 27
2300
0000
3001
0200
0000
0310
0100
0001
,  // measure 28
2000
0000
3100
0020
0000
0130
1000
0002
,  // measure 29
0103
0010
1000
0001
0010
0001
1000
0010
,  // measure 30
0100
0010
1000
0001
0010
0100
4000
0000
,  // measure 31
3002
0000
0003
1000
0040
0000
0000
0130
,  // measure 32
0002
0000
0003
1000
0200
0000
0300
0010
,  // measure 33
0002
0000
0000
1003
0020
0000
0000
0130
,  // measure 34
0002
0000
0000
2003
0000
0000
3010
0000
0200
0000
0000
0000
0304
0000
0000
0000
,  // measure 35
2003
0000
3100
0020
0000
0230
0000
1300
,  // measure 36
0002
0000
0103
0020
0000
1030
0001
0010
,  // measure 37
0200
0010
0010
0310
,  // measure 38
0011
0001
1000
0020
0000
0230
0000
0301
,  // measure 39
1001
1000
0100
0010
0000
0001
1000
0010
,  // measure 40
0110
0000
0100
0002
0000
2003
0000
3100
,  // measure 41
0010
1000
0010
0000
0002
0000
0003
0000
,  // measure 42
2002
3003
0001
0200
0300
0020
0030
2020
,  // measure 43
3030
1000
0001
0000
2002
0000
3003
0000
,  // measure 44
0201
0000
0310
2000
0000
3001
0010
0100
,  // measure 45
2000
0000
3001
0400
0000
0301
0100
0002
,  // measure 46
0000
0000
1003
0200
0000
0310
0001
1000
,  // measure 47
0004
0400
0000
0000
0000
0000
0000
0000
0000
0000
0303
0000
0001
0000
1000
0000
,  // measure 48
0100
0000
0010
0200
0000
2300
0000
3001
,  // measure 49
0010
0000
0100
0000
0010
0000
0000
0000
0200
0000
0000
0000
4300
0000
0000
3000
,  // measure 50
1002
0000
0103
0020
0000
2030
0000
3002
,  // measure 51
0000
0013
0100
0000
2200
0000
3300
0000
,  // measure 52
1002
0103
0000
0020
0000
1030
0001
0010
,  // measure 53
0200
0000
1300
0002
0000
1003
0010
0200
,  // measure 54
0000
0000
0301
4000
0000
3010
0100
0001
,  // measure 55
4000
0400
0000
0000
0000
0000
0000
0000
0000
0000
3300
0000
2000
0000
3000
0000
,  // measure 56
1002
0000
0100
2003
0000
3100
0010
0001
,  // measure 57
2000
0000
0010
3002
0000
1003
0100
0010
,  // measure 58
0002
0000
1000
0023
0000
0130
1000
0001
,  // measure 59
0200
0000
0010
0301
1000
0100
0010
0001
,  // measure 60
2000
0000
0001
3020
0000
0130
0001
0200
,  // measure 61
0010
0000
0301
1000
0100
0010
0100
2000
,  // measure 62
0002
3000
0103
0010
1000
0001
0010
0100
,  // measure 63
0010
0001
1000
0001
0100
0010
1000
0001
,  // measure 64
0020
0000
0130
1000
0001
0100
0000
0120
,  // measure 65
0000
1030
0001
1000
0010
0200
0000
0301
,  // measure 66
2000
0000
3100
0010
0100
1000
0000
0001
,  // measure 67
0100
0010
0100
0002
0000
0003
1000
0200
,  // measure 68
0000
0000
0310
0100
1000
0001
0000
2000
,  // measure 69
0000
3001
0100
0010
1000
0002
0000
0013
,  // measure 70
0200
0000
0310
0001
1000
0010
0000
0210
,  // measure 71
0000
0301
1000
0100
0010
0004
0000
1003
,  // measure 72
0020
0000
0230
0000
0302
0000
1003
0200
,  // measure 73
0000
0000
0300
0000
0010
0001
1000
0001
,  // measure 74
0200
0000
0320
0000
2030
0000
3001
0020
,  // measure 75
0000
0000
0030
0002
0000
1003
0020
0000
,  // measure 76
0230
0000
0301
2000
0000
3001
0010
0100
,  // measure 77
2000
0000
3001
0200
0000
0310
0100
0002
,  // measure 78
0000
0000
1003
0200
0000
0320
0000
0032
,  // measure 79
0000
1003
0010
0100
0010
1000
0001
0010
,  // measure 80
0200
0000
2300
0000
3002
0000
0103
0020
,  // measure 81
0000
0000
0030
0000
1000
0001
0010
0100
,  // measure 82
2000
0000
3002
0000
0203
0000
0310
2000
,  // measure 83
0000
0000
3000
0002
0000
0013
0200
0000
,  // measure 84
2300
0000
0000
3002
0000
0103
0010
1000
,  // measure 85
0002
0000
0000
0023
0000
0130
1000
0001
,  // measure 86
1000
0010
0100
0010
1000
0001
0010
0100
,  // measure 87
0040
0000
0000
0031
1000
0010
0200
0000
,  // measure 88
0302
0000
0000
1003
0200
0000
0300
0010
,  // measure 89
0002
0000
0000
2003
0000
0000
3010
0000
0200
0000
0000
0000
0300
0000
0000
0000
,  // measure 90
0002
0000
0003
0000
4000
0000
0000
3001
,  // measure 91
0020
0000
0000
0230
0000
0000
1300
0000
0002
0000
0000
0000
4003
0000
0000
0000
,  // measure 92
3020
0000
0130
0002
0000
2003
0000
3100
,  // measure 93
0020
0000
0130
2000
0000
3001
1000
0100
,  // measure 94
0020
0100
0100
0130
,  // measure 95
0011
0001
1000
0020
0000
0130
0000
0002
,  // measure 96
0000
1003
0100
0010
0000
0100
1000
0001
,  // measure 97
0101
0000
0100
0020
0000
2030
0000
3002
,  // measure 98
0000
0013
0100
0000
2200
0000
3300
0000
,  // measure 99
1001
0000
0001
0200
0000
0320
0000
1030
,  // measure 100
0001
0010
0001
0000
2002
0000
3003
0000
,  // measure 101
1020
0000
0130
0002
0000
1003
0100
0010
,  // measure 102
0002
0000
1003
0020
0000
0130
0001
2000
,  // measure 103
0000
0000
3100
0020
0000
0130
1000
0001
,  // measure 104
4000
0040
0000
0000
0000
0000
0000
0000
3030
0000
1000
0000
0001
0000
0010
0000
,  // measure 105
0200
0000
1300
0002
0000
2003
0000
3010
,  // measure 106
0100
0001
1000
0000
2200
0000
3300
0000
,  // measure 107
0200
0000
0310
0002
0000
2003
3000
1010
,  // measure 108
0000
0010
0200
0000
0302
0000
4003
0000
,  // measure 109
3200
0000
0310
0002
0000
1003
0010
1000
,  // measure 110
0002
0000
0013
0200
0000
1300
0001
0020
,  // measure 111
0000
0000
0000
0000
0031
0000
2000
0000
0000
0000
3001
0000
0010
0000
0400
4000
,  // measure 112
0000
0000
0000
0000
0000
3300
1000
0000
,  // measure 113
1002
0000
0100
2003
0000
0000
3100
0010
,  // measure 114
0002
0000
1000
0203
0000
0310
1000
0001
,  // measure 115
0020
0000
0100
0032
0000
1003
0010
0100
,  // measure 116
0020
0000
1030
0001
0010
0100
1000
0001
,  // measure 117
0200
0000
0010
0302
0000
1003
0100
0010
,  // measure 118
0002
0000
0000
0000
1003
0100
0010
0100
,  // measure 119
2000
3001
0100
0010
0100
0001
1000
0001
,  // measure 120
0010
0100
1000
0001
0100
0010
0100
0001
,  // measure 121
2000
0000
3100
0010
0100
1000
0000
0002
,  // measure 122
0000
0103
0010
1000
0001
0020
0000
0130
,  // measure 123
2000
0000
3001
0100
0010
0100
0000
0001
,  // measure 124
1000
0100
0010
0200
0000
0000
1300
0002
,  // measure 125
0000
0000
1003
0010
0100
0001
0000
2000
,  // measure 126
0000
3100
0010
0001
0010
0200
0000
1300
,  // measure 127
0002
0000
0103
0010
1000
0001
0000
0010
,  // measure 128
0100
1000
0001
1000
0000
2000
0000
3004
,  // measure 129
0000
0003
0002
0000
0000
0000
0000
0000
0000
0000
2003
0000
0000
0000
3010
0000
,  // measure 130
0400
0000
0000
0000
0000
0301
1000
0200
,  // measure 131
0000
0000
0320
0000
0000
0000
0000
0000
0034
4000
0000
0000
0000
0000
0000
0000
,  // measure 132
0000
3003
0001
0010
0200
0000
0000
0000
,  // measure 133
4300
0000
3001
0100
0040
0000
1030
0001
,  // measure 134
4000
0000
3100
0010
0002
0000
1003
0100
,  // measure 135
0010
0001
1000
0020
0000
0130
0001
2000
,  // measure 136
0000
0000
3001
0000
0010
0000
0100
0000
2000
0000
3001
0010
0001
0010
0002
0000
,  // measure 137
2003
0000
0000
3020
0000
0130
0001
2000
,  // measure 138
0000
3001
0010
0200
0000
0310
0001
2000
,  // measure 139
0000
0000
3001
0100
0001
0100
0001
0000
1000
0000
0100
0010
0100
0010
0100
0000
,  // measure 140
1000
0004
0000
0000
0000
2003
0000
0000
,  // measure 141
3100
0010
0001
0000
0000
1000
0010
1000
,  // measure 142
0000
0002
0000
1003
0100
0000
0120
0000
,  // measure 143
0031
1000
0001
0000
0000
0010
0100
0010
,  // measure 144
0000
0012
0000
1003
0010
0100
0002
0000
,  // measure 145
1003
0100
0010
0001
0000
1000
0010
0100
,  // measure 146
0002
0000
1003
0200
0000
0320
0000
0130
1000
0001
1000
0000
0200
0000
0300
0000
,  // measure 147
0020
0000
0031
2000
0000
3002
0000
0103
0000
0010
0100
0000
0002
0000
4003
0000
,  // measure 148
3200
0000
0310
0002
0000
1003
0100
0010
0001
0010
0100
2000
0000
3001
0100
0020
,  // measure 149
0000
0000
0130
0002
0000
1003
0100
0010
0002
0000
0000
0000
0003
1000
0100
0010
,  // measure 150
0200
0000
1300
0002
0000
0203
0000
0310
,  // measure 151
1010
1000
0001
0000
0020
0000
0430
0000
,  // measure 152
2300
0000
3001
0200
0000
0320
0030
2010
,  // measure 153
0000
3001
0020
0000
0230
0000
4300
0000
,  // measure 154
3001
0200
0000
0320
0000
1030
0001
0010
,  // measure 155
0210
0000
1300
0002
0000
1003
0010
0200
,  // measure 156
0000
0000
0301
2000
0000
3100
0010
0001
,  // measure 157
4000
0040
0000
0000
0000
0000
0000
0000
0000
0000
3030
0000
1000
0000
0000
0000
,  // measure 158
1002
0000
0010
2003
0000
3010
0100
0001
,  // measure 159
2000
0000
0100
3002
0000
1003
0010
0100
,  // measure 160
0002
0000
0010
2003
0000
3010
0100
0001
,  // measure 161
2000
0000
0001
3200
0310
0001
1000
0010
,  // measure 162
0200
0000
0001
0320
0000
1030
0001
0010
,  // measure 163
0200
0000
0310
0001
1000
0010
0100
0001
,  // measure 164
1001
1000
0100
0010
0100
1000
0001
0100
,  // measure 165
0010
1000
0001
0010
0100
0010
0001
1000
,  // measure 166
1020
0000
0130
0001
1000
0100
0000
0120
,  // measure 167
0000
0031
1000
0010
0100
0002
0000
1003
,  // measure 168
1200
0000
0310
0001
1000
0010
0000
0100
,  // measure 169
0001
1000
0100
0020
0000
0000
0130
2000
,  // measure 170
0000
0000
3001
0100
0010
1000
0000
1002
,  // measure 171
0000
0013
0100
1000
0001
0200
0000
0310
,  // measure 172
2010
0000
3001
0010
0001
1000
0000
1020
,  // measure 173
0000
0130
0001
1000
0100
0020
0000
0031
,  // measure 174
1000
0010
0100
0101
0000
0001
0000
1000
,  // measure 175
0100
0010
0100
1100
0000
1000
0000
0001
,  // measure 176
0202
0000
0000
0000
,  // measure 177
0000
0000
0000
0000
,  // measure 178
0000
0000
0000
0000
,  // measure 179
0000
0000
0303
0000
;

//---------------dance-single - AceOfArrows (2018)----------------
#NOTES:
     dance-single:
     AceOfArrows (2018):
     Challenge:
     11:
     0.961,0.707,0.551,1.000,0.339:
0000
0000
0000
0000
,
0000
0000
0000
1001
0000
0001
0010
0100
,
2100
0000
3001
0201
0000
0310
1000
0001
,
0021
0000
0130
2100
0000
3001
0100
0010
,
2010
0000
3001
0201
0000
0310
1000
0001
,
0011
0010
0100
2100
0000
3001
0100
0001
,
2001
0000
3100
0110
0010
0001
1000
0010
,
0210
0000
0000
0000
0301
0000
1000
0000
0100
0000
0010
0000
0100
0000
1000
0100
,
0020
0031
1000
1010
0010
0100
0001
1000
,
1001
0000
0001
0000
0010
0000
0100
0000
0010
0000
0001
0000
1000
0000
0010
0100
,
0002
0000
1003
0010
0100
0001
0000
2001
,
0000
0000
3100
0000
0010
0000
0100
1000
0002
0000
0203
0000
0000
0000
0310
0000
,
2010
0000
3001
0010
0001
1000
0000
1020
,
0000
0000
0130
0000
0001
0000
1000
0100
0010
0000
0002
0000
0000
0000
0003
0000
,
1001
0000
2000
0000
3020
0000
0130
0001
,
1001
1000
0000
0000
0200
0310
0100
1000
,
1001
0000
0001
0000
0200
0000
0310
1000
,
1001
0001
0000
1000
0010
0100
0002
0003
,
2001
0000
3100
0020
0000
0130
1000
0001
,
0101
0100
0010
2000
0000
3001
0010
0100
,
2100
0000
3001
0100
0010
0200
0000
0301
,
1001
0000
1000
0000
0100
0000
0110
0000
0010
0000
0001
0000
2001
0000
3010
0100
,
0002
1003
0100
0010
0001
0010
0100
1000
,
0001
0100
0010
1000
0010
0100
0001
1000
,
0100
0010
0100
1000
0001
0100
0010
0100
,
0002
0000
0000
1003
0100
0010
0002
0003
,
2001
0000
3010
0200
0000
0301
1000
0100
,
0020
0000
0130
2000
0000
3001
0100
0010
,
2010
3001
0010
0100
1000
0100
0010
0001
,
2001
0000
3010
0000
0100
0000
0102
0000
1003
0000
0100
0000
0010
0001
1000
0000
,
1020
0000
0000
0130
0104
0000
1003
0100
,
0020
0000
0031
1000
0020
0130
0001
1000
,
0200
0000
0310
0001
2000
3001
0100
0010
,
2000
0000
3000
1002
0000
0000
0103
0000
0020
0000
1030
0000
0001
0010
0100
0010
,
0001
1000
0010
0100
0010
1000
0001
0010
,
0100
1000
0100
0010
0001
1000
0010
0100
,
0102
1003
0200
0310
0001
0010
0200
1300
,
1002
0103
0010
2000
0000
3002
0000
0013
,
0110
0000
0100
0000
1000
0000
1001
0000
0000
0000
0001
0000
1000
0100
0010
0100
,
2000
0000
3001
0201
0000
0320
0000
1030
,
1001
0001
0020
0030
0110
0100
1000
0001
,
0201
0000
0000
0000
0310
0000
2010
0000
0000
0000
3002
0000
0000
0003
0022
0000
,
0003
0130
2000
3000
1002
0103
0010
1000
,
1001
0001
0010
0200
0000
1300
0001
0100
,
0110
0010
1000
0004
0000
0013
0100
1000
,
0002
0000
0000
0000
0013
0000
0100
1000
0001
0000
0100
0000
0010
0000
1000
0000
,
0001
0010
0001
0010
0100
1000
0100
1000
0001
0100
0001
0100
0010
1000
0010
1000
,
0002
0000
0103
0020
0000
2030
0000
3001
,
0011
0000
0010
0000
0200
0000
0300
0000
2100
0000
3001
0000
0100
0000
0010
1000
,
0002
0000
0013
0200
0000
2300
3000
1002
,
0000
0103
0020
0030
2010
3001
0010
0100
,
2100
3002
0000
0203
0000
0310
1000
0001
,
0010
0001
1000
0020
0000
0130
0001
1000
,
0200
0000
0000
0000
0310
0000
0001
0010
0100
0000
1000
0000
0001
0000
0100
0000
,
0010
1000
0010
1000
0001
0010
0001
0010
0100
1000
0100
1000
0001
0100
0001
0100
,
0020
0000
1030
1002
0000
0013
0100
1000
,
1002
0000
0103
0120
0000
1030
0001
0010
,
0210
0000
1300
1002
0000
0103
0010
1000
,
1002
0000
0000
0000
0013
0000
0100
0000
1000
0000
0001
0000
0100
0010
1000
0000
,
1002
0000
0013
0210
0000
1300
0001
0100
,
0120
0000
1030
0001
0010
0100
0010
0001
,
2001
0000
3010
0100
0001
1000
0100
0010
,
0100
0000
1000
0000
0001
0000
0100
0000
0010
0000
0100
0001
1000
0001
0100
0000
,
0120
0000
1030
0001
0010
0100
0000
2100
,
0000
0000
3001
0100
0010
0000
1000
0000
0001
0000
0020
0000
0000
0000
0130
0000
,
2100
0000
3001
0100
0010
1000
0000
0001
,
1000
0000
0010
0000
0100
0000
0020
0000
1030
0001
1000
0001
0010
0100
0010
0100
,
2000
0000
3001
0100
0010
1000
0000
1200
,
0000
0310
0001
1000
0010
0200
0000
0301
,
2001
0000
3100
0010
0001
1000
0000
1020
,
0000
0000
0130
0000
0001
0000
1000
0000
0100
0010
0100
0010
0001
1000
0001
1000
,
0100
0010
1000
0010
0001
0010
1000
0010
,
0001
1000
0010
0001
0010
1000
0001
0010
,
0100
1000
0100
0001
0100
1000
0001
0200
,
0000
0301
1000
1200
0000
0310
0002
0003
,
0201
0000
0310
2000
0000
3001
0010
0100
,
1000
0002
0000
2003
0000
3010
0100
0001
,
1000
0100
0010
0100
1000
0001
0100
0010
,
0100
0001
1000
0001
0010
0100
1000
0001
,
0201
0000
0020
0300
0002
0030
2003
0200
,
3000
0000
0300
0000
0001
1000
0100
0010
,
0002
0000
0020
0003
2000
0030
3002
0200
,
0003
0000
0300
2000
0000
3001
0200
0000
,
0320
0000
0000
2030
0000
3001
0010
0100
,
1000
0002
0000
0203
0000
0310
1000
0001
,
0021
0130
1000
0001
0100
0010
1000
0001
,
0201
0000
0310
0000
1000
0000
0001
0000
1000
0100
1000
0100
0010
0001
0010
0001
,
2000
0000
3001
0100
0020
0000
1030
0001
,
0020
0000
0030
0210
0000
0000
1300
0000
0001
0000
0100
0000
0110
0000
0010
0000
,
2000
0000
3001
0101
0400
0000
0310
1000
,
0002
0000
0003
0021
0000
0000
0130
0000
2000
0000
3001
0000
0010
0100
1000
0100
,
0010
0001
1000
0010
0100
0010
1000
0001
,
0010
0100
0010
0001
1000
0001
0100
0010
,
2010
3001
0010
0100
2100
3001
0100
0010
,
2010
3001
0010
0200
0000
2300
0000
3001
,
0101
0000
0100
0000
0010
0000
1010
0000
0000
0000
1000
0000
0001
0100
0010
0100
,
0002
0000
1003
0200
0000
0320
0030
0012
,
0000
1003
0020
0030
0210
0301
1000
0100
,
0120
0000
0031
2000
0000
3020
0000
0130
,
0101
0000
0001
0000
2000
0000
3000
0000
1200
0000
0310
0000
0001
0000
1000
0010
,
0200
0000
0000
0000
0301
0000
1000
0100
0010
0000
0001
0000
1000
0000
0001
0100
,
0010
0000
1000
0000
0001
0000
0020
0000
0000
0000
0130
0000
1000
0000
0001
0100
,
0020
0000
0000
0000
1030
0000
0001
1000
0100
0000
0010
0000
0100
0000
1000
0000
,
0001
0100
0001
0100
0010
1000
0010
1000
0001
0010
0001
0010
0100
1000
0100
1000
,
0002
0000
1003
0020
0000
0230
0000
0301
,
1001
1000
0200
0000
0320
0031
1000
0010
,
0210
0000
0301
2000
0000
3200
0300
0110
,
0000
0000
0010
0000
0002
0000
0000
0000
1003
0000
0010
0000
0100
0010
1000
0000
,
1002
0000
0013
0200
0000
0310
0001
1000
,
1020
0000
0130
0002
0000
1003
0010
0200
,
0000
0000
0301
2000
0000
3100
0010
0001
,
1000
0010
1000
0010
0100
0001
0100
0001
1000
0001
1000
0001
0010
0100
0010
0100
,
2000
0000
3001
0201
0000
0310
1000
0001
,
0201
0000
0310
2010
0000
3001
0010
0100
,
2100
0000
3001
0201
0000
0310
1000
0001
,
0021
0000
0000
0000
0230
0000
0000
0000
1300
0000
0001
0000
0100
0000
0010
1000
,
0002
0000
0013
0210
0000
1300
0001
0100
,
0120
0000
1030
0001
0010
0100
0010
0001
,
2001
3010
0100
0001
1000
0100
0010
0001
,
1000
0000
0010
0000
0100
0000
0010
0000
1000
0001
1000
0001
0010
0100
0010
0100
,
2000
0000
3001
0100
0010
1000
0000
1002
,
0000
0013
0100
1000
0001
0200
0000
0310
,
2010
0000
3001
0010
0100
1000
0000
0001
,
0101
0000
0100
0000
0010
0000
1000
0000
0001
0010
0100
0000
1000
0000
0001
0000
,
0201
0000
0310
1000
0001
0010
0000
0210
,
0000
1300
0001
0100
0010
2000
0000
3001
,
0021
0000
0130
1000
0001
0100
0000
0010
,
1010
0000
1000
0000
0001
0000
0021
0000
0000
0000
0130
1000
0001
1000
0100
0010
,
0002
0000
0000
0000
0000
2003
0000
3010
,
0400
0000
0000
0000
0000
0301
1000
0020
,
0030
0000
0020
0000
0000
0000
0000
0000
1030
0001
0100
0001
2000
0000
3001
0010
,
0001
1000
0010
0100
0004
0000
0000
0000
,
1003
0100
1000
0000
0001
0000
1000
0100
0010
0001
0010
0100
1000
0100
0010
0001
,
1000
0000
0001
0000
0100
0010
0100
0000
0001
0000
1000
0000
0100
0000
0010
0000
,
0100
1000
0001
0020
0000
0031
1000
0200
,
0000
0000
1300
0000
0001
0000
0100
0000
0002
0000
1003
0010
0100
0010
1000
0000
,
0002
0000
0000
0023
0000
0130
1000
0002
,
0000
1003
0010
0200
0000
0301
1000
0020
,
0000
0000
1030
0001
2000
0000
3100
0010
0001
0010
0100
0000
1000
0000
0001
1000
,
0001
0000
0000
0000
0010
0000
0000
0000
0100
0000
0000
0000
1000
0000
0000
0000
0000
0000
0001
0000
0000
0100
0000
0000
0004
0000
0000
0000
0000
0000
0000
0000
0000
0000
0000
0000
0000
0000
0000
0000
0000
0000
0003
0000
0000
0000
0000
0000
,
2000
0000
0000
0000
0000
0000
0000
0000
0000
0000
0000
0000
3001
0010
0001
0010
,
0100
1000
0100
1000
0001
0100
0001
0100
0010
1000
0010
0000
0100
0000
0001
0000
,
2000
0000
3001
0010
0001
0000
1000
0100
0010
0001
0010
0100
1000
0000
0001
0010
,
0001
0000
1000
0010
0100
0010
1000
0000
0002
0000
0003
0000
2001
0000
3000
0000
,
1100
0100
0010
0001
0000
2000
3010
0100
,
0102
0000
1003
0020
0000
0230
0000
0301
1000
0100
2000
0000
3002
0000
0003
0000
,
0201
0000
0000
0000
0310
0000
2000
0000
0000
0000
3002
0000
0003
0000
0022
0000
0033
0000
0010
0000
0200
0000
0300
0000
2100
0000
0000
0000
3002
0000
0013
0100
,
0020
0000
0031
0000
1000
0000
0002
0000
0000
0000
1003
0000
0010
0000
0100
0010
0200
0000
0301
0000
1000
0000
0200
0000
0000
0000
0310
0000
0001
0000
1000
0100
,
2000
0000
0000
0000
3001
0000
0100
0000
0020
0000
1030
0000
0001
0000
0010
0000
0100
1000
0100
0000
0010
0000
0001
0000
1000
0100
1000
0100
0010
0001
0010
0001
,
2000
0000
3010
0200
0000
0302
0000
1003
,
1100
0000
0100
0000
0020
0000
0000
0000
0031
0000
1000
0000
0010
0100
0001
0000
,
2001
0000
3100
0020
0000
0230
0300
2100
,
0000
0000
3001
0000
0100
0000
0010
0000
1000
0001
0010
0000
0100
0000
1000
0001
,
0200
0000
0320
0000
0000
0000
1030
0001
0010
0000
0100
0000
0010
0000
0001
0000
,
1000
0010
0100
0002
0000
1003
0100
0010
,
0200
0000
1300
0001
1000
0010
0100
0001
,
1000
0100
1000
0100
0010
0001
0010
0001
1000
0010
1000
0010
0100
0001
0100
0001
,
2000
0000
3001
0021
0000
0130
1000
0001
,
0201
0000
0310
2010
0000
3001
0010
0100
,
2100
0000
3001
0201
0000
0310
1000
0001
,
0021
0000
0000
0000
0130
0000
2100
0000
3001
0000
0100
0000
0010
0000
1000
0001
,
0020
0000
0130
2100
0000
3001
0100
0010
,
2010
0000
3001
0010
0001
1000
0010
0100
,
0102
1003
0100
0010
0100
1000
0001
0100
,
0010
0000
0100
0000
0001
0000
1000
0000
0001
0010
0001
0010
0100
1000
0100
1000
,
0002
0000
0103
0010
1000
0001
0000
0021
,
0000
0130
1000
0001
0100
0020
0000
1030
,
1002
0000
0013
0100
1000
0001
0000
0100
,
0110
0000
0010
0000
1000
0000
0001
0000
0010
0100
1000
0000
0001
0000
1000
0010
,
0200
0000
0301
1000
0100
0010
0000
0012
,
0000
1003
0010
0100
0001
2000
0000
3100
,
0120
0000
0031
1000
0010
0100
0000
0102
,
0000
0000
1003
0000
0100
0000
0010
0000
0001
1000
0100
1000
0001
0000
0100
0000
,
0120
0000
2030
0000
3001
0000
0011
0000
0000
0000
0020
0000
0000
0000
0031
1000
,
0010
1000
0001
0000
0010
0000
0210
0000
0000
0000
2300
0000
3000
0000
1001
0000
,
0202
0000
0000
0000
,
0000
0000
0000
0000
,
0000
0000
0000
0000
,
0000
0000
0303
0000
;

//---------------dance-single - AceOfArrows (2018)----------------
#NOTES:
     dance-single:
     AceOfArrows (2018):
     Medium:
     7:
     0.610,0.389,0.000,1.000,0.044:
0000
0000
0000
0000
,
0000
0000
0000
2000
,
3020
0000
0000
0230
0000
0000
0301
2000
,
0000
0000
0000
0000
0000
3001
0010
0002
,
0000
0000
0000
0000
,
0003
0000
0000
2000
,
3200
0000
0000
0320
0000
0031
1000
0002
,
0000
0000
0000
0000
1003
0100
1000
0002
,
0000
0000
0000
0000
,
0003
0000
0000
1000
0100
0010
0100
2000
,
0000
3000
0001
0010
0001
0010
0000
0200
,
0000
1300
0001
1000
0001
0200
0000
0310
,
2000
0000
3001
0100
0001
0100
0000
0020
,
0000
1030
0001
1000
0001
0020
0000
0000
,
0230
0000
2300
0000
3002
0000
1003
0020
,
0000
0000
0030
0000
1000
0010
1000
0010
,
0200
0000
0302
0000
2003
0000
3001
0020
,
0000
0000
0030
0001
1000
0001
0020
0000
,
0230
0000
1300
0002
0000
1003
0010
1000
,
0002
0000
0013
0200
0000
1300
0001
2000
,
0000
0000
3010
1000
0010
2000
0000
3002
,
0000
0000
0000
0003
0000
0000
0000
0010
,
0002
0000
2003
0000
3002
0000
0103
0020
,
0000
0000
0030
0000
1000
0010
1000
0010
,
0200
0000
0302
0000
2003
0000
3001
0020
,
0000
0000
0030
0001
0010
0001
0020
0000
,
0230
0000
1300
0002
0000
1003
0010
1000
,
0020
0000
0130
0002
0000
1003
0010
2000
,
0000
0000
3000
0000
,
0000
0000
0000
0001
0010
0001
0040
0000
,
0230
0000
0000
1300
0004
0000
0000
1003
,
0020
0000
0000
1030
0002
0000
0003
1000
,
0200
0000
0000
0310
0002
0000
0000
1003
,
0020
0000
0000
0230
0000
0000
0301
0000
2000
0000
0000
0000
3000
0000
0000
0000
,
0002
0000
0103
0020
0000
2030
0000
3001
,
0020
0000
0130
2000
0000
3001
1000
0001
,
0200
0000
0000
0000
0000
0300
0000
0000
,
0001
0100
0001
0200
0000
0320
0000
1030
,
0001
1000
0001
0010
0000
0001
1000
0001
,
0100
0000
0010
2000
0000
3002
0000
0013
,
0001
0010
0200
0000
2300
0000
3000
0000
,
0002
0000
1003
0020
0000
2030
0000
3001
,
0000
0010
0200
0000
2300
0000
3000
0000
,
0002
0000
1003
0020
0000
1030
0001
1000
,
0002
0000
0013
0200
0000
1300
0001
2000
,
0000
0000
3010
0200
0000
0301
1000
0001
,
0200
0000
0000
0000
0300
0000
0010
1000
,
0020
0000
1030
0002
0000
0023
0000
0130
,
0010
0100
0020
0000
0032
0000
0003
0000
,
2000
0000
3010
0200
0000
0302
0000
2003
,
0000
3100
0020
0000
0032
0000
0003
0000
,
1000
0020
0000
2030
0000
3001
0010
0001
,
0020
0000
0130
2000
0000
3001
1000
0002
,
0000
0000
1003
0400
0000
1300
0001
2000
,
0000
0000
3000
0002
,
0023
0000
0000
0230
0000
0000
1300
0002
,
0000
0000
0000
0000
0000
1003
0100
2000
,
0000
0000
0000
0000
0000
0000
0000
0000
0000
0000
0000
0000
0000
0000
0000
0000
0000
0000
0000
3000
4000
0000
0000
0000
0000
0000
0000
0000
3000
0000
0000
0000
,
0000
0000
0000
0002
,
0203
0000
0000
0320
0000
1030
0001
2000
,
0000
0000
0000
0000
3001
0010
0001
0020
,
0000
0000
0000
0000
0000
0000
0000
0030
,
0000
0000
0000
0001
1000
0001
1000
0200
,
0000
0000
0310
0001
0010
0100
0000
2000
,
0000
3001
0100
0010
0100
0002
0000
1003
,
0200
0000
1300
0100
0010
0100
0000
1000
,
0001
0010
0001
2000
0000
3000
0001
0020
,
0000
0000
0031
1000
0001
0100
0000
0020
,
0000
1030
0010
0100
0010
2000
0000
3001
,
0020
0000
0130
0010
0001
0010
0000
0200
,
0000
1300
0001
0100
0001
2000
0000
3001
,
0020
0000
0230
0000
2300
0000
3001
0200
,
0000
0000
0300
0000
0010
1000
0001
0010
,
0200
0000
0320
0000
0032
0000
1003
0020
,
0000
0030
0000
2000
0000
3001
0020
0000
,
0230
0000
0310
0002
0000
1003
0010
0100
,
0010
2000
0000
3002
0000
0013
0100
2000
,
0000
0000
3001
0200
0000
0320
0000
2030
,
0000
0000
0000
3000
4000
0000
0000
0000
0000
0000
0000
0000
3000
0000
0000
0000
0000
0000
0000
0000
0000
0000
0000
0000
0000
0000
0000
0000
0001
0000
0000
0000
,
0020
0000
0230
0000
2300
0000
3001
0200
,
0000
0300
0000
0000
0010
0100
0001
0100
,
0020
0000
2030
0000
3002
0000
0013
0200
,
0000
0300
0000
0020
0000
0031
2000
0000
,
3002
0000
0000
0203
0000
0310
1000
0010
,
0200
0000
0000
0302
0000
1003
0010
4000
,
0000
0000
0000
3000
0000
0000
0000
0000
,
0000
0000
0000
0001
0100
0010
0200
0000
,
0302
0000
0000
1003
0200
0000
0000
0310
,
0002
0000
0000
0023
0000
0000
0230
0000
2300
0000
0000
0000
3000
0000
0000
0000
,
0002
0000
0000
0000
0403
0000
0000
0301
,
2000
0000
0000
3200
0000
0000
0320
0000
0032
0000
0000
0000
0003
0000
0000
0000
,
2000
0000
3010
0200
0000
0302
0000
1003
,
0200
0000
0310
0002
0000
1003
0010
0100
,
0002
0000
0000
0000
0000
0003
0000
0000
,
1000
0100
0010
0200
0000
2300
0000
3002
,
0000
1003
0010
0100
0000
0001
1000
0100
,
0020
0000
0130
2000
0000
3002
0000
0203
,
0000
0310
2000
0000
3002
0000
0003
0000
,
0020
0000
0130
2000
0000
3002
0000
0103
,
0010
0100
0002
0000
2003
0000
3000
0000
,
0200
0000
0310
0002
0000
1003
0001
0100
,
0020
0000
0130
0002
0000
1003
0010
2000
,
0000
0000
3001
0020
0000
0031
1000
0010
,
0200
0000
0000
0000
0300
0001
1000
0100
,
0020
0000
0130
2000
0000
3002
0000
0103
,
0010
1000
0020
0000
0230
0000
0300
0000
,
0002
0000
1003
0200
0000
0320
0000
0031
,
0000
1000
0020
0000
0230
0000
0300
0000
,
0002
0000
1003
0200
0000
0310
0001
0010
,
0200
0000
1300
0002
0000
1003
0010
0200
,
0000
0000
0310
2000
0000
3001
0010
0200
,
0000
0000
0300
2000
,
3002
0000
0000
0203
0000
0000
0310
2000
,
0000
0000
0000
0000
0000
3001
0100
0002
,
0000
0000
0000
0000
0000
0000
0000
0000
0000
0000
0000
0000
0000
0000
0000
0000
0000
0000
0000
0003
0004
0000
0000
0000
0000
0000
0000
0000
0003
0000
0000
0000
,
0000
0000
0000
2000
,
3200
0000
0000
0320
0000
0031
0010
0200
,
0000
0000
0000
0000
1300
0001
0100
0002
,
0000
0000
0000
0000
0000
0000
0000
0003
,
0000
0000
0000
1000
0010
0100
0010
2000
,
0000
0000
3001
0010
0100
0010
0000
0002
,
0000
1003
0001
0100
0001
2000
0000
3001
,
0020
0000
0130
1000
0001
0100
0000
0010
,
0100
0001
0100
0020
0000
0000
1030
0002
,
0000
0000
1003
0100
1000
0001
0000
0200
,
0000
0310
1000
0001
1000
0200
0000
0310
,
0002
0000
1003
0001
0100
0001
0000
1000
,
0001
1000
0100
0020
0000
0032
0000
2003
,
0000
0000
0000
0000
0000
3002
0000
1003
,
0400
0000
0000
0000
0000
0310
0001
2000
,
0000
3002
0000
0000
0403
0000
0000
0000
,
0301
0100
0010
0100
0002
0000
0000
0000
,
1003
0100
0010
0100
4000
0000
3001
0010
,
0004
0000
1003
0010
2000
0000
3010
0100
,
0010
1000
0001
0020
0000
0031
1000
0200
,
0000
1300
0001
0100
0001
1000
0040
0000
,
0230
0000
0000
0302
0000
1003
0100
0020
,
0000
0031
0010
0200
0000
1300
0001
2000
,
0000
3040
0000
0000
0000
0000
0000
0000
,
0430
0000
0000
0000
0000
0300
0000
0000
,
0001
0100
0001
0000
0000
1000
0100
1000
,
0000
0002
0000
1003
0100
0000
0020
0000
,
0031
1000
0001
0000
0000
0100
0001
0100
,
0000
0020
0000
1030
0001
1000
0020
0000
,
1030
0001
1000
0100
0000
0010
0001
0010
,
0200
0000
1300
0200
0000
0320
0000
0031
0010
0001
0020
0000
0230
0000
0300
0000
,
2000
0000
3001
0020
0000
0032
0000
2003
0000
3001
0020
0000
0230
0000
0300
0000
,
2000
0000
3001
0020
0000
0031
0010
0100
0010
0001
0010
0200
0000
1300
0001
2000
,
0000
0000
3001
0020
0000
0130
1000
0100
2000
0000
0000
0000
3000
0000
0001
0010
,
0002
0000
1003
0020
0000
0230
0000
0301
,
1000
0100
2000
0000
3002
0000
0003
0000
,
0200
0000
0310
2000
0000
3002
0000
0023
,
0000
0130
2000
0000
3002
0000
0003
0000
,
1000
0020
0000
0230
0000
0301
1000
0100
,
2000
0000
3001
0200
0000
0310
1000
0002
,
0000
0000
0013
0200
0000
1300
0001
0200
,
0000
0000
0300
0020
,
2030
0000
0000
3002
0000
0000
0103
0002
,
0000
0000
0000
0000
0000
0103
0010
0200
,
0000
0000
0000
0000
0000
0000
0000
0000
0000
0000
0000
0000
0000
0000
0000
0000
0000
0000
0000
0300
0400
0000
0000
0000
0000
0000
0000
0000
0300
0000
0000
0000
,
0000
0000
0000
0020
,
2030
0000
0000
3002
0000
0013
0100
2000
,
0000
0000
0000
0000
3001
0100
0010
0200
,
0000
0000
0000
0000
0000
0000
0000
0300
,
0000
0000
0000
0001
1000
0100
0010
0200
,
0000
0000
1300
0001
0100
0001
0000
2000
,
0000
3100
0010
0100
1000
0002
0000
1003
,
0020
0000
1030
0010
0100
0001
0000
1000
,
0100
0010
0100
2000
0000
0000
3001
0200
,
0000
0000
0310
0100
0001
1000
0000
0002
,
0000
0013
0100
1000
0100
0020
0000
0031
,
2000
0000
3010
0100
0001
1000
0000
0002
,
0000
0013
0100
0010
0001
2000
0000
3010
,
1000
0001
0100
0010
0000
0010
0000
1000
,
0001
0010
0100
1000
0000
1000
0000
0001
,
0200
0000
0000
0000
,
0000
0000
0000
0000
,
0000
0000
0000
0000
,
0000
0000
0300
0000
;

//---------------dance-single - AceOfArrows (2018)----------------
#NOTES:
     dance-single:
     AceOfArrows (2018):
     Easy:
     5:
     0.384,0.318,0.000,0.943,0.012:
0000
0000
0000
0000
,
0000
0000
0000
0001
,
0002
0000
0000
2003
0000
0000
0000
3200
,
0000
0000
0000
0000
0000
1300
0000
2000
,
0000
0000
0000
0000
,
3000
0000
0000
0002
,
0023
0000
0000
0032
0000
1003
0000
2000
,
0000
0000
0000
0000
3001
0000
0000
0002
,
0000
0000
0000
0000
,
0003
0000
0000
0000
2000
0000
0000
3002
,
0000
0000
0013
0000
0100
0000
0000
0020
,
0000
0031
2000
0000
,
3020
0000
1030
0000
0001
0000
0000
0020
,
0000
0130
2000
0000
,
3001
0000
0010
0000
0002
0000
0000
2003
,
0000
3000
0010
1000
,
0010
0000
1000
0000
0002
0000
0000
2003
,
0000
0000
3000
0002
0000
0000
0023
0000
,
0032
0000
0000
2003
0000
0000
3001
0000
,
0200
0000
0000
0320
0000
1030
0000
0002
,
0000
0000
1003
0000
0020
0000
0000
0230
,
0000
0000
0300
0000
,
0002
0000
2003
0000
3002
0000
0000
0023
,
0000
0030
0001
1000
,
0010
0000
1000
0000
0002
0000
0000
0203
,
0000
0300
0001
2000
,
3020
0000
0000
0230
0000
0000
0301
0000
,
2000
0000
0000
3002
0000
0000
0000
0203
,
0000
0000
0300
0000
,
0000
0000
0001
1000
,
0200
0000
4300
0000
,
3002
0000
0023
0000
,
0230
0000
2300
0000
,
3001
0010
0002
0003
,
2000
0000
0000
3020
0000
2030
0000
0000
,
3002
0000
0000
0023
0000
0000
0130
0000
,
2000
0000
0000
3000
,
0001
0000
0000
0200
0000
0300
0000
0020
,
0000
0000
0000
1030
0000
0000
0001
0000
,
0020
0000
0000
0031
0000
1000
0000
0000
,
0010
1000
0020
0030
,
0200
0000
0000
0301
0000
1000
0000
0100
,
0000
0010
0002
0003
,
2000
0000
0000
3020
0000
0000
0130
0000
,
0002
0000
0000
2003
0000
0000
0000
3200
,
0000
0000
0000
0320
0000
0000
0031
0000
,
2000
0000
3000
0001
,
0200
0000
0000
0310
0000
1000
0000
0000
,
0001
0010
0002
0003
,
2000
0000
0000
3100
0000
0010
0000
0002
,
0000
1003
0020
0030
,
0200
0000
0000
0302
0000
0000
1003
0000
,
0200
0000
0000
0310
0000
0100
0000
2000
,
0000
0000
0000
3004
0000
0000
0000
0203
,
0000
0000
0300
0020
,
2030
0000
0000
3002
0000
0000
0000
0203
,
0000
0000
0000
0000
0000
0301
0000
0002
,
0000
0000
0000
0000
0000
0000
0000
0003
,
0000
0000
0000
1000
,
0200
0000
0000
0310
0000
0001
0000
2000
,
0000
0000
0000
0000
3002
0000
0000
0023
,
0000
0000
0000
0000
,
0030
0000
0000
0000
0002
0000
0000
2003
,
0000
0000
3010
0000
0100
0000
0000
0002
,
0000
1003
0200
0000
,
0320
0130
1000
0000
,
0001
0000
0000
0020
0000
0000
0000
0230
,
0000
0000
1300
0000
0001
0000
0000
2000
,
0000
3010
0200
0000
,
0302
0000
1003
0000
0100
0000
0000
0020
,
0000
0130
2000
0000
,
3001
0000
0100
0000
0002
0000
0000
2003
,
0000
3000
0001
0010
,
0100
0000
0010
0000
0002
0000
0000
2003
,
0000
0000
3000
0001
0000
0000
2000
0000
,
3020
0000
0000
0230
0000
0000
0301
0000
,
2000
0000
0000
3100
0000
0010
0000
0200
,
0000
0000
2300
0000
0000
3002
0000
0203
,
0000
0000
0300
0000
,
0010
0000
0100
0000
0020
0000
0000
2030
,
0000
3000
0001
0100
,
0010
0000
0100
0000
0002
0000
0000
2003
,
0000
0000
0000
3200
0000
0000
0310
0000
,
0002
0000
0000
1003
0000
0020
0000
0000
,
2030
0000
0000
3001
0000
0010
0000
0400
,
0000
0000
0300
0000
,
0000
0000
1000
0001
,
2000
0000
3400
0000
,
0310
0001
0020
0030
,
0002
0000
4003
0000
,
3010
0100
0020
0030
,
2000
0000
0000
3001
0000
0200
0000
0000
,
0302
0000
0000
2003
0000
0000
3010
0000
,
0200
0000
0000
0300
,
0002
0000
0000
1003
0000
0100
0000
2000
,
0000
0000
0000
3001
0000
0000
0100
0000
,
0020
0000
0000
1030
0000
0001
0000
2000
,
0000
3100
0020
0030
,
0002
0000
0000
1003
0000
0020
0000
0000
,
1030
0001
2000
3000
,
0200
0000
0000
0320
0000
0000
0031
0000
,
2000
0000
0000
3100
0000
0010
0000
0200
,
0000
0000
0000
2300
0000
0000
3001
0000
,
0200
0000
0300
0010
,
2000
0000
0000
3001
0000
2000
0000
0000
,
3001
0100
0002
0003
,
0200
0000
0000
0310
0000
1000
0000
0020
,
0000
1030
0002
0003
,
2000
0000
0000
3200
0000
0000
0310
0000
,
0002
0000
0000
2003
0000
0000
0000
3020
,
0000
0000
0000
0130
0000
0001
0000
0200
,
0000
0000
0300
0020
,
2030
0000
0000
3002
0000
0000
0000
0023
,
0000
0000
0000
0000
0000
0130
0000
0200
,
0000
0000
0000
0000
0000
0000
0000
0300
,
0000
0000
0000
2000
,
3002
0000
0000
0103
0000
0010
0000
0200
,
0000
0000
0000
0000
0302
0000
0000
2003
,
0000
0000
0000
0000
,
3000
0000
0000
0000
0002
0000
0000
0203
,
0000
0000
0310
0000
1000
0000
0000
0002
,
0000
0013
0200
0000
,
2300
3001
0100
0000
,
0010
0000
0000
2000
0000
0000
0000
3002
,
0000
0000
0013
0000
0100
0000
0000
2000
,
0000
3001
0200
0000
,
0320
0130
0001
0000
,
2000
0000
0000
3100
0000
0020
0000
0032
,
0000
0000
0000
0000
0000
2003
0000
0000
,
3400
0000
0000
0000
0000
1300
0000
0001
,
0000
0002
0000
0000
4003
0000
0000
0000
,
3040
0000
0030
0000
,
0400
0000
0300
0000
,
0004
0000
0003
1000
,
0200
0000
0000
0310
0000
0001
0000
2000
,
0000
3001
0100
0001
,
2000
0000
0000
3001
0000
0010
0000
0002
,
0000
0000
0000
2003
0000
0000
0000
3020
,
0000
0430
0000
0000
,
0301
1000
0002
0000
,
2003
0000
0000
3400
,
0000
0000
0000
0320
,
0032
4003
0000
0000
,
0000
0000
3001
0010
,
0002
0000
0000
1003
0000
0020
0000
0000
,
0230
0000
0000
0302
0000
0000
0000
0000
1003
0000
0100
0000
2000
0000
3000
0000
,
0200
0000
0000
0320
0000
0000
0000
0032
0000
0000
0013
0000
0200
0000
0300
0000
,
2000
0000
0000
3002
0000
0000
1003
0000
0200
0000
0000
0340
0000
0000
0130
0000
,
2000
0000
0000
3002
0000
0000
0000
0000
0403
0000
0000
0000
0300
0000
0000
0000
,
0020
0000
0000
1030
0000
0002
0000
0000
,
1003
0100
2000
3000
,
0002
0000
0000
1003
0000
0010
0000
2000
,
0000
3001
0020
0030
,
0200
0000
0000
2300
0000
0000
3001
0000
,
0200
0000
0000
0302
0000
1003
0000
0200
,
0000
0000
0000
1300
0000
0001
0000
2000
,
0000
0000
3000
0002
,
0203
0000
0000
0320
0000
0000
0000
2030
,
0000
0000
0000
0000
0000
3001
0000
0002
,
0000
0000
0000
0000
0000
0000
0000
0003
,
0000
0000
0000
2000
,
3200
0000
0000
0310
0000
0100
0000
0020
,
0000
0000
0031
1000
,
0002
0000
0000
0000
0000
0000
0000
0003
,
0000
0000
0000
0000
2000
0000
0000
3200
,
0000
0000
0310
0000
0001
0000
0000
2000
,
0000
3001
0200
0000
,
0320
1030
0001
0000
,
0020
0000
0000
0230
0000
0000
0000
2300
,
0000
0000
3001
0000
0100
0000
0000
0020
,
0000
0130
0002
0000
,
2003
0000
3100
0000
0010
0000
0000
0200
,
0000
1300
0002
0000
,
2003
0000
0000
3001
0000
0010
0000
0000
,
0200
0000
0000
1300
0000
0001
0000
0000
,
0200
0000
0000
0000
,
0000
0000
0000
0000
,
0000
0000
0000
0000
,
0000
0000
0300
0000
;

//---------------dance-single - AceOfArrows (2018)----------------
#NOTES:
     dance-single:
     AceOfArrows (2018):
     Beginner:
     2:
     0.175,0.141,0.000,0.301,0.000:
0000
0000
0000
0000
,
0000
0000
0000
0000
,
1000
0000
1000
0000
,
2000
0000
3000
0000
,
0002
0000
0000
0000
,
0003
0000
0000
0000
,
0010
0000
0010
0000
,
0020
0000
0030
0000
,
0200
0000
0000
0000
,
0300
0000
0000
0000
,
1000
0000
1000
0000
,
2000
0000
3000
0000
,
0001
0000
0001
0000
,
0002
0000
0003
0000
,
0100
0000
0100
0000
,
0100
0000
0000
0000
,
0010
0000
0010
0000
,
0010
0000
0000
0000
,
1000
0000
1000
0000
,
2000
0000
3000
0000
,
0001
0000
0001
0000
,
0002
0000
0003
0000
,
0010
0000
0010
0000
,
0010
0000
0000
0000
,
0001
0000
0001
0000
,
0001
0000
0000
0000
,
1000
0000
1000
0000
,
2000
0000
3000
0000
,
0200
0000
0300
0000
,
0000
0000
0000
0000
,
0010
0000
0010
0000
,
0020
0000
0030
0000
,
0001
0000
0001
0000
,
0004
0000
0003
0000
,
2000
0000
3000
0000
,
0100
0000
0100
0000
,
0200
0000
0300
0000
,
0020
0000
0030
0000
,
0200
0000
0300
0000
,
1000
0000
1000
0000
,
4000
0000
3000
0000
,
0001
0000
0001
0000
,
0002
0000
0003
0000
,
0010
0000
0010
0000
,
0020
0000
0030
0000
,
0001
0000
0001
0000
,
0002
0000
0003
0000
,
1000
0000
1000
0000
,
4000
0000
3000
0000
,
0100
0000
0100
0000
,
0200
0000
0300
0000
,
0010
0000
0010
0000
,
0020
0000
0030
0000
,
0001
0000
0001
0000
,
0002
0000
0003
0000
,
1000
0000
1000
0000
,
2000
0000
3000
0000
,
0020
0000
0000
0000
,
0030
0000
0000
0000
,
0100
0000
0100
0000
,
0200
0000
0300
0000
,
0002
0000
0000
0000
,
0003
0000
0000
0000
,
1000
0000
1000
0000
,
2000
0000
3000
0000
,
0020
0000
0030
0000
,
0100
0000
0100
0000
,
0200
0000
0300
0000
,
0002
0000
0003
0000
,
1000
0000
1000
0000
,
2000
0000
3000
0000
,
0100
0000
0100
0000
,
0100
0000
0000
0000
,
0010
0000
0010
0000
,
0010
0000
0000
0000
,
0001
0000
0001
0000
,
0002
0000
0003
0000
,
1000
0000
1000
0000
,
2000
0000
3000
0000
,
0010
0000
0010
0000
,
0010
0000
0000
0000
,
0100
0000
0100
0000
,
0100
0000
0000
0000
,
0001
0000
0001
0000
,
0002
0000
0003
0000
,
4000
0000
3000
0000
,
0000
0000
0000
0000
,
0010
0000
0010
0000
,
0040
0000
0030
0000
,
0100
0000
0100
0000
,
0400
0000
0300
0000
,
0001
0000
0001
0000
,
0002
0000
0003
0000
,
2000
0000
3000
0000
,
0020
0000
0030
0000
,
2000
0000
3000
0000
,
0001
0000
0001
0000
,
0002
0000
0003
0000
,
0010
0000
0010
0000
,
0040
0000
0030
0000
,
0100
0000
0100
0000
,
0200
0000
0300
0000
,
1000
0000
1000
0000
,
2000
0000
3000
0000
,
0001
0000
0001
0000
,
0002
0000
0003
0000
,
0100
0000
0100
0000
,
0200
0000
0300
0000
,
0010
0000
0010
0000
,
0020
0000
0030
0000
,
1000
0000
1000
0000
,
2000
0000
3000
0000
,
0001
0000
0001
0000
,
0002
0000
0003
0000
,
2000
0000
0000
0000
,
3000
0000
0000
0000
,
0010
0000
0010
0000
,
0020
0000
0030
0000
,
0200
0000
0000
0000
,
0300
0000
0000
0000
,
0001
0000
0001
0000
,
0002
0000
0003
0000
,
2000
0000
3000
0000
,
0100
0000
0100
0000
,
0200
0000
0300
0000
,
2000
0000
3000
0000
,
0001
0000
0001
0000
,
0002
0000
0003
0000
,
0020
0000
0030
0000
,
0200
0000
0300
0000
,
1000
0000
4000
0000
,
0000
0000
3000
0000
,
0004
0000
0000
0000
,
0000
0000
0003
0000
,
0100
0000
0100
0000
,
0200
0000
0300
0000
,
0010
0000
0010
0000
,
0020
0000
0030
0000
,
0400
0000
0000
0000
,
0000
0000
0300
0000
,
0002
0003
0000
0000
,
1000
0000
1000
0000
,
2000
3000
0000
0000
,
0010
0000
0010
0000
,
0020
0030
0000
0000
,
1000
1000
4000
3000
,
0001
0001
0002
0003
,
0010
0010
0040
0030
,
0100
0100
0400
0300
,
1000
0000
1000
0000
,
4000
0000
3000
0000
,
0001
0000
0001
0000
,
0002
0000
0003
0000
,
0010
0000
0010
0000
,
0020
0000
0030
0000
,
0100
0000
0100
0000
,
0200
0000
0300
0000
,
1000
0000
1000
0000
,
2000
0000
3000
0000
,
0002
0000
0000
0000
,
0003
0000
0000
0000
,
0200
0000
0300
0000
,
0001
0000
0001
0000
,
0002
0000
0000
0000
,
0003
0000
0000
0000
,
1000
0000
1000
0000
,
2000
0000
3000
0000
,
0200
0000
0300
0000
,
1000
0000
1000
0000
,
2000
0000
3000
0000
,
0002
0000
0003
0000
,
0100
0000
0100
0000
,
0200
0000
0300
0000
,
0002
0000
0003
0000
,
2000
0000
3000
0000
,
0002
0000
0000
0000
,
0000
0000
0000
0000
,
0000
0000
0000
0000
,
0000
0000
0003
0000
;
