#TITLE:Stress-Free Style;
#SUBTITLE:;
#ARTIST:Mosaic.wav;
#TITLETRANSLIT:;
#SUBTITLETRANSLIT:;
#ARTISTTRANSLIT:;
#GENRE:Akiba Pop;
#CREDIT:Ace Of Arrows;
#BANNER:Stress-Free Style - Bn.png;
#BACKGROUND:Stress-Free Style - Bg.jpg;
#LYRICSPATH:;
#CDTITLE:Ace Of Arrows.png;
#MUSIC:Stress-Free Style.ogg;
#OFFSET:1.420;
#SAMPLESTART:81.200;
#SAMPLELENGTH:12.000;
#SELECTABLE:YES;
#DISPLAYBPM:66.000:132.000;
#BPMS:0.000=132.000,32.833=264.000,33.500=132.000,34.333=264.000,35.000=132.000,35.833=264.000,36.500=132.000,37.333=264.000,38.000=132.000,52.833=264.000,53.500=132.000,54.333=264.000,55.000=132.000,55.833=264.000,56.500=132.000,57.333=264.000,58.000=132.000,146.000=66.000,147.000=132.000,233.833=264.000,234.500=132.000,235.333=264.000,236.000=132.000,236.833=264.000,237.500=132.000,238.333=264.000,239.000=132.000,327.000=66.000,328.000=132.000,450.000=66.000,461.000=132.000,479.000=66.000,483.000=132.000;
#STOPS:32.833=0.152
,34.333=0.152
,35.833=0.152
,37.333=0.152
,52.833=0.152
,54.333=0.152
,55.833=0.152
,57.333=0.152
,233.833=0.152
,235.333=0.152
,236.833=0.152
,238.333=0.152
;
#BGCHANGES:;
#KEYSOUNDS:;

//---------------dance-single - Ace Of Hearts (2015 to 2018)----------------
#NOTES:
     dance-single:
     Ace Of Hearts (2015 to 2018):
     Challenge:
     13:
     1.000,0.788,0.347,1.000,1.000:
0000
0000
0000
0000
,
1001
0000
0000
0001
0010
0100
1000
0000
1000
0001
0000
0001
0100
0000
0100
0020
0000
1030
0000
0000
0000
0M00
0000
0000
,
1001
0000
0000
2000
0000
3100
0010
0000
0010
0002
0000
1003
0000
0000
01M0
0000
0000
01M0
0000
0000
0220
0000
0000
0300
,
0031
0010
0100
1000
0000
1000
0001
0000
0001
0100
0000
0100
0010
0000
0010
2000
0000
3004
0000
0000
0000
0000
0003
0000
,
1001
0000
0000
0MM0
0000
0000
1100
0000
0000
00MM
0000
0000
0110
0000
0000
0110
0000
0000
0010
0001
0010
0001
0010
0001
,
2000
0000
3001
0010
0000
0001
1000
0000
0001
0010
0000
0001
2000
0000
3010
0000
0000
0200
0000
0000
0000
0300
0000
0000
,
0002
0000
1003
0100
0000
1000
0001
0000
1000
0100
0000
0010
0001
0010
0001
1000
0000
0010
0100
0010
1000
0001
1000
0001
,
0200
0000
0310
1000
0000
0010
0100
0000
0010
1000
0000
0010
0200
0000
0301
0000
0000
1000
0001
0010
0001
1000
0100
1000
,
0002
0000
0103
0000
0000
0110
0000
MM00
0000
0020
0000
1030
0000
0000
1001
0000
MM00
0000
0002
0000
0013
0000
0000
0110
,
0000
00MM
0000
0200
0000
1300
0000
0000
1001
0000
0000
M0M0
0001
0100
0010
2000
0000
3001
0010
0000
0000
0200
0000
0000
,
2300
0000
3001
0100
0000
0010
0100
0000
0001
0100
0000
0010
0000
0000
2020
0000
0030
0000
3001
0000
0000
0001
0000
0000
,
0020
0000
0130
1000
0000
0100
0010
0000
0100
1000
0000
0100
0040
0004
0000
0000
0000
0000
0000
0000
0000
0000
0000
0033
,
0020
0000
0031
1000
0000
0001
0100
0000
0001
1000
0000
0001
0000
0000
0000
MM22
0000
0000
0033
0000
0220
M00M
0330
0000
,
0200
0000
1300
0000
0000
1001
0000
MM00
0000
0002
0000
0103
0000
0000
0110
0000
0M0M
0000
0020
0000
1030
0000
0000
1001
,
0000
0MM0
0000
2000
0000
3100
0000
0000
0110
0000
MM00
0000
0010
0001
0010
0200
0000
1300
0001
0000
0000
1000
0000
0000
,
1020
0000
0000
0000
0130
0001
0400
0000
0000
0300
0000
0020
0000
0000
0130
0001
0000
1000
0100
0000
0010
0001
0000
0010
,
0200
0000
0000
1300
0000
0002
0000
0000
1003
0010
0000
0000
0200
0000
0310
0100
0000
0001
1000
0000
0100
0010
0000
0100
,
2000
0000
0000
3004
0000
0103
0000
0000
0010
0100
0000
0000
0002
0000
1003
0100
0000
0010
0100
1000
0100
0010
0000
0001
,
1000
0000
0010
0100
0000
0000
0001
0100
0001
0100
0000
0000
0110
0000
0010
1000
0000
0001
0010
0000
0100
1000
0000
0001
,
0100
0000
0000
0020
0000
0000
0130
0010
0100
0001
1000
0001
0020
0000
0000
0230
0000
2300
0000
0000
0001
0000
0000
0010
,
0000
0000
0010
0000
0000
0001
0000
0000
3010
0000
0000
0001
0000
0000
0020
0000
0000
0130
1000
0000
1000
0001
0000
0001
,
0200
0000
0000
0310
0000
1000
0000
0000
0000
0MM0
0000
0000
0000
0000
0002
0000
0000
1003
0010
0000
0100
0001
0000
1000
,
0100
0000
0010
0000
0000
0024
0000
0000
0000
0030
0000
0000
0000
0000
2003
0000
0000
3010
0100
0000
0001
1000
0000
0100
,
0010
0000
0001
0000
0000
1000
0000
0000
0010
0100
0000
0001
2000
0000
0000
3100
0000
0000
M002
0000
0000
0103
0000
0000
,
2000
0000
0000
3010
0000
0200
0000
0000
0301
1000
0000
0000
1200
0000
0000
0300
0000
0000
0M20
0000
0000
0030
0000
0000
,
00M2
0000
0000
0003
0000
0000
200M
0000
0000
3000
0000
0000
M002
0000
0013
0100
0000
4000
0400
0000
0000
0000
0000
3300
,
0200
0000
0310
0001
0000
4000
0004
0000
0000
0000
0000
3003
0002
0000
0103
0010
0000
0400
0004
0000
0000
0000
0000
0303
,
0001
1000
0001
0100
0010
0100
0001
1000
0001
2000
0000
3000
1020
0000
0000
0230
0000
0000
0302
0000
2003
0000
0000
3200
,
0000
0000
0320
0000
0000
0130
2000
0000
0000
3002
0000
0000
2003
0000
0000
3020
0000
0000
0032
M000
0023
0000
0000
2030
,
0000
0000
3001
1000
0100
0010
0001
0000
0001
1000
0000
1000
0010
0000
0010
1000
0000
0001
0010
0000
0100
1000
0000
0001
,
0100
0000
0020
0000
0000
0230
0000
0000
0000
0000
0302
0000
0000
0000
1003
0100
0000
0010
0002
0000
0000
1003
0000
2020
,
0000
0000
0000
0000
0000
0000
3030
0000
0000
0000
0MM0
0000
0000
0000
2000
0000
0000
3001
0010
0000
0001
1000
0000
0200
,
0000
0000
0310
0002
0000
0000
2003
0000
3010
0100
0000
0002
0000
0000
1003
0100
0000
1000
0002
0000
0000
0103
0000
0010
,
1000
0000
0001
0010
0000
0100
1000
0000
0001
0100
0000
0000
0020
0000
0130
0001
0000
2001
0000
0000
3100
0010
0000
0010
,
0001
0000
1000
0000
0000
2200
0000
0000
0000
3300
0000
0000
0110
0000
0010
0001
0000
0001
1000
0000
1000
0010
0000
0010
,
0100
0000
0100
0001
0000
2002
0000
0000
0000
3003
0000
0000
2000
0000
3200
0000
0000
0310
0001
0000
0001
1000
0000
1000
,
0010
0000
0000
0000
0010
0000
0100
0000
0000
0000
0002
0000
0000
0000
0000
0000
0000
0000
2003
0000
0000
0000
0000
0000
3M01
0000
0010
0100
000M
0100
M010
0000
0001
0000
0M00
2000
0000
0000
0000
0000
3001
0000
0200
0000
0000
0000
0000
0000
,
0310
0100
0010
1000
0001
1000
0100
0000
0100
0010
0000
0010
0001
0000
0001
1000
0000
0020
0000
0000
0130
0001
0000
0001
,
2000
0000
0000
0200
3000
0000
0310
0000
0010
0001
0000
0001
1000
0000
1000
0010
0000
0200
0000
0000
0301
2000
0000
0000
,
3200
0000
0000
0320
0000
0000
0031
0000
0001
1000
0000
1000
0010
0000
0010
0100
0000
0002
0000
0000
2003
0000
0000
3100
,
0020
0000
0000
0032
0000
0000
2003
0000
0000
3020
0000
0000
0032
MM00
0000
0023
0000
0000
2030
0000
0000
3002
0000
0203
,
0000
0000
0000
0300
0000
0000
0000
0000
0000
0010
0000
0000
0200
0000
0000
0301
0000
0000
2000
0000
0000
3001
0000
0020
,
0000
0000
0000
0030
0000
0000
0000
0000
0100
1000
0000
0000
0002
0000
0000
0103
0000
0000
0120
0000
0000
1030
0000
0002
,
0000
0000
0000
0003
0000
0000
0000
0000
0000
0010
0000
0000
0200
0000
0000
1300
0000
0000
0001
0000
0000
0010
0000
0200
,
0000
0000
0000
0300
0000
0000
1000
0000
1000
0001
0000
0001
0020
0000
0200
0000
0000
0000
1001
0000
0000
0330
0000
0000
,
0100
1000
0100
0010
0001
0010
0100
0000
0100
1000
0000
1000
0001
0000
0200
0000
0000
0320
0000
0000
0230
0000
0000
0301
,
2000
0000
0000
3100
0000
0100
0020
0000
0000
0032
0000
0000
2003
0000
3010
0000
0000
0200
0000
0000
0301
1000
0000
1000
,
0200
0000
0000
0320
0000
0000
0032
0000
2003
0000
0000
3001
0100
0000
0100
0010
0000
2000
0000
0000
3001
0010
0000
0010
,
0200
0000
0000
2300
0000
0000
3002
0000
0103
0020
0000
0000
2030
0000
0000
3002
0000
0000
0023
0000
0000
2030
0M00
3020
,
0000
0000
0032
0000
0000
0000
0003
0000
0000
1000
0000
0010
0200
0000
0000
0302
0000
0000
2003
0000
0000
3200
0000
0000
,
0302
00M0
0000
0203
0000
0000
2300
0000
0000
3002
0000
0000
0203
0000
0000
2300
00M0
0000
3200
0000
0000
0302
0000
2003
,
0000
0000
0000
3000
0000
0000
0002
0000
0000
0023
0000
0000
2030
0000
0M00
3020
0000
0000
0032
0000
0000
2003
0000
3200
,
0000
0000
0000
0300
0000
0000
0110
0000
0000
0010
0000
0000
0001
0000
1000
0000
0000
2200
0000
0000
3300
0000
0100
0010
,
0002
0000
0000
0003
0000
0000
0000
0000
1000
0010
0000
0010
0100
0000
0100
0001
0000
0001
1000
0000
1000
0100
0000
0020
,
0000
0000
0130
1000
0000
1000
0001
0000
0001
0100
0000
0100
0020
0000
0000
2030
0000
0002
0000
0000
0000
0000
0000
0000
,
0010
0000
0000
3003
0000
0000
2000
0000
3001
0100
0000
0001
1000
0000
0001
0010
0000
0001
2000
0000
3100
0000
0000
0022
,
0000
0000
0000
0030
0000
0000
2003
0000
3010
1000
0000
0001
1000
0000
0100
1000
0000
0001
0100
0010
0100
0010
0000
1000
,
0001
0010
0001
0010
0000
0100
1000
0000
0010
0100
0000
0010
1000
0000
0010
0100
0000
0010
2000
0000
3001
0000
0000
0201
,
0000
0000
0000
0310
1000
0010
1000
0000
0001
0000
0000
0011
0000
M00M
0000
0020
0000
0130
0000
0000
1100
0000
0M0M
0000
,
2000
0000
3001
0000
0000
0101
0000
00MM
0000
0200
0000
0310
0000
0000
1010
0000
0MM0
0000
1000
0001
1000
0001
0010
0100
,
1000
0000
0000
0002
0000
0003
0201
0000
0000
0300
0001
1000
0004
0000
0000
0000
0000
0000
2003
0000
3100
0010
0000
0010
,
0001
0000
0001
1000
0000
1000
0020
0000
0000
0130
0000
0002
0000
0000
1003
0100
0000
0000
0020
0000
0130
1000
0000
1000
,
0001
0000
0001
0100
0000
0100
0020
0000
0000
4030
0000
0002
3000
0000
0013
0100
0000
0000
2000
0000
3001
0100
0000
0100
,
0010
1000
0010
1000
0000
0001
0010
0000
0010
0100
0000
0100
1000
0001
1000
0002
0000
0103
0010
0000
0010
1000
0000
1000
,
0001
0000
0001
0010
0000
0010
0200
0000
0000
2300
0000
0000
3001
0100
0001
1000
0001
1000
0200
0000
0000
0310
0000
0002
,
0000
0000
1000
0000
0000
0100
0000
0000
1000
0000
0000
0010
0000
0000
1000
0000
0000
0103
0000
0000
0100
0010
0000
0010
,
1000
0000
1000
0001
0000
0001
0020
0000
0000
0130
0000
2000
0000
0000
3001
0000
0000
0101
0000
0000
0100
0010
0000
0010
,
1000
0000
1000
0001
0000
0001
0010
0000
0400
0000
0000
2000
0000
0000
0000
0000
0000
0000
3000
0000
0310
0001
0000
0001
,
1000
0000
1000
0010
0000
0010
0100
0000
0100
0001
0000
1000
0000
0000
0001
0020
0000
0000
0130
0000
0000
M001
0000
0000
,
0100
0000
0000
1000
0000
0000
0002
0000
0000
0103
0000
0020
0000
0000
0000
1030
0000
0000
1002
0000
0000
M003
0000
0000
,
002M
0000
0000
0030
0000
0000
02M0
0000
0000
1300
0000
0001
0100
0010
0100
0010
0000
0010
1000
0000
1000
0001
0000
0040
,
0400
0000
0000
0000
0000
0330
0100
0000
1000
0001
0000
4000
0040
0000
0000
0000
0000
3030
2000
0000
3001
0010
0000
0400
,
4000
0000
0000
0000
0000
3300
1000
0100
0010
0001
0010
0100
1000
0100
0010
0002
0000
0000
2003
0000
0000
3020
0000
0000
,
0230
0000
0302
0000
0000
2003
0000
0000
3100
0020
0000
0000
0031
0000
0001
1000
0000
1000
0020
0000
0000
M032
0000
0000
,
0013
0000
2000
0000
3000
1002
0000
0000
0013
0001
0010
0100
1000
0000
0001
0000
0000
1000
0010
0000
0010
0200
0000
0000
,
0302
0000
0000
2003
0000
0000
3200
0000
0000
0320
0000
0000
0032
0000
0000
0003
0000
2000
0000
0000
3001
0100
0000
0100
,
0020
0000
0000
1030
0000
2200
0000
0000
0000
0000
0000
0000
0000
0000
0000
3300
0000
0MM0
0000
0000
0100
0001
0000
00M1
,
0100
0000
0100
2000
0000
3001
0000
0000
1000
0010
0000
0010
0001
M000
0001
0020
0000
1030
0000
0000
0001
0M10
0000
0010
,
1000
0000
1000
0010
0000
0010
0001
0000
0001
1000
0010
0000
0010
0100
0010
0100
0000
0100
0001
0000
1000
0000
0000
1020
,
0000
0000
0130
0001
0000
0000
1001
0000
1000
0000
0000
2200
0000
0000
0000
3300
0000
0000
0100
0000
0020
0000
0000
0031
,
1000
0000
1000
0010
0000
0010
0200
0000
0301
0000
0000
0022
0000
0000
0000
0033
0000
0020
0000
0000
0130
1000
0000
1002
,
0000
0000
0000
0000
0103
0000
0010
0000
0000
0000
0010
0000
2000
0000
0000
0000
0000
0000
3001
0000
0000
0000
0200
0000
0000
0000
0000
0000
0000
0000
0310
0000
0000
0000
0000
0000
2M00
0000
3001
0010
0000
0000
020M
0000
13M0
0000
0000
2002
,
0000
3000
0000
0000
0103
0000
0020
0000
0000
0000
1030
0000
0001
0000
1000
0000
0001
0000
0010
0000
0001
0000
0010
0000
0100
0000
0000
0000
0100
0000
1000
0000
0000
0000
1000
0000
0001
0000
0000
0000
0001
0000
0100
0000
0000
0000
0020
0000
,
0000
0000
0130
0001
0000
0001
2000
0000
0000
3200
0000
0000
0310
0000
0010
0001
0000
0001
1000
0000
1000
0010
0000
0200
,
0000
0000
0301
0020
0000
0000
2M30
0000
0000
3020
0000
0000
0031
0000
0001
1000
0000
0020
0000
0000
0130
0001
0000
2000
,
0000
0000
3100
0010
0000
0010
0002
0000
0000
20M3
0000
0000
3010
0000
0000
0200
0000
0000
0320
0000
0000
0032
0000
0000
,
0023
0000
0M00
1030
0000
0001
0010
0100
1000
0002
0000
0103
0010
0000
0010
2000
0000
0000
3002
0000
0000
0013
0000
0100
,
2000
0000
0000
3001
0000
0200
0000
0000
0000
0320
0000
0000
2030
0000
3001
0000
0000
0010
2000
000M
0000
3020
0000
0000
,
0032
0000
0000
1003
0000
0020
0000
0000
0000
0030
0000
0000
0100
0000
0100
0001
0000
0001
1000
0000
0000
0200
0000
0000
,
031M
0000
0200
0000
0000
230M
0000
0000
0000
3000
0000
0000
0001
0000
0001
0200
0000
0000
0302
0000
0200
0000
0000
1000
,
0010
0000
0000
0303
0000
0000
0001
0100
0001
1000
0100
1000
0001
0000
0001
0010
0000
0000
0100
0000
1000
0001
0000
0200
,
0000
0000
0310
1000
0000
0001
0020
0000
0000
0230
0000
0000
2300
0000
3001
0200
0000
0000
0320
0000
1030
0002
0000
0013
,
0200
0000
0000
2300
0000
0000
3002
0000
0103
2000
00M0
0000
320M
0000
0000
0302
0000
1003
0200
0000
0000
0310
0000
0002
,
0000
0000
1003
0010
0000
1000
0002
0000
0000
0023
0000
0000
0230
0000
1300
0002
0000
0000
0203
0000
0000
2300
00MM
0000
,
3200
0000
0000
0301
0000
2000
0000
0000
3100
0010
0001
0010
0200
0000
0000
2300
0000
3001
0200
0000
0000
0320
0000
0000
,
2030
0000
0000
3002
0000
0000
0023
0000
0000
2030
0M0M
0000
3020
0000
0000
0032
0000
0000
0203
0000
0000
2300
00MM
0000
,
3200
0000
0000
0301
0000
2000
0000
0000
0000
3002
0000
0000
0013
0000
0000
0200
0000
0000
1300
0000
0000
0002
0000
0000
,
0013
0000
0000
10MM
0000
0020
0000
0000
0031
0000
0000
0000
1000
0000
0000
0100
0000
0000
0010
0000
0002
0000
0000
2003
,
0000
0000
0000
0000
3100
0010
0002
0000
0000
0003
0000
0MMM
0000
0000
1000
0010
0000
0010
0100
0000
0100
0001
0000
0001
,
1000
0000
1000
0100
0000
0020
0000
0000
0130
1000
0000
1000
0001
0000
0001
0100
0000
0100
0020
0000
0000
1030
0000
0002
,
0000
0003
0000
0000
0000
0000
1000
0010
0100
0010
0100
0010
1000
0000
0002
0000
0003
0010
0100
0000
2000
0000
3000
0001
,
0100
0000
0100
0001
0100
0010
2000
0000
3001
0010
0000
0200
0000
0000
1300
0001
0000
0000
0200
0000
0310
0000
0000
1000
,
0002
0000
0000
0103
0000
0020
0000
0000
1030
0010
0100
0001
1000
0100
0010
0100
1000
0100
0010
0001
0010
0100
0010
0001
,
0010
0100
1000
0001
1000
0010
1000
0001
0010
0001
1000
0100
0010
0000
0010
0100
0000
0100
1000
0100
0010
0001
0000
2000
,
0000
0000
3001
0100
0000
0020
0000
0000
0130
0001
0000
0001
1000
0000
0100
0000
0000
0010
0000
0000
0001
0000
0000
1000
,
0010
0000
0000
0000
0010
0000
0100
0000
0000
0000
0100
0000
0001
0000
0000
0000
0001
0000
1000
0000
0000
0000
0200
0000
0000
0000
0300
0000
0220
0000
0000
0000
0330
0000
0010
0000
0022
0000
0033
0000
0000
0001
0000
0000
2002
0000
0000
0000
,
3003
0000
1000
2020
0000
3030
0010
0000
0210
0000
0000
0301
1000
0000
1000
0100
0000
0100
0010
0000
0010
0100
0000
0100
,
1000
0000
1000
0001
0000
0001
0200
0000
0310
0000
0000
2000
0000
0000
3001
0010
0000
0010
0100
0000
0100
2000
0000
0000
,
3001
0000
0100
0000
0000
0002
0000
0000
0000
0000
0000
1003
0200
0000
0310
0000
0000
0200
1300
0000
0001
0000
0000
2000
,
0000
0000
3001
0100
0000
0100
0010
0000
1000
0001
0000
0020
0000
0000
0130
1000
0000
1000
0001
0000
0001
0100
0000
0002
,
0000
0000
1003
0000
0000
1000
0020
0000
0130
0001
0000
1000
0100
0010
0001
0010
0001
0010
0001
1000
0100
1000
0100
1000
,
0100
1000
0001
0100
0001
0100
0001
0100
0001
2000
0000
3100
0000
0000
0020
0000
0000
0130
1000
0000
1000
0001
0000
0001
,
0200
0000
0000
0000
0310
0000
0000
0000
0000
0000
2000
0000
0000
0000
0000
0000
0000
0000
3001
0000
0000
0000
0000
0000
0021
0000
0000
0230
0000
0000
2300
0000
0000
3002
0000
0000
0023
0000
0130
2000
0000
0000
3002
0000
0000
0203
0000
0301
,
2000
0000
0000
3200
0000
0000
0320
0000
0031
0000
0000
2000
0000
0000
3001
0100
0000
0100
0010
0000
0000
2000
0000
0000
3000
0002
0000
0000
0000
0023
0000
0000
0130
1000
0000
0000
0002
0000
1003
0100
0000
0000
0020
0000
0000
0031
0000
0000
,
2000
0000
3010
0000
0000
0100
0001
0000
1000
0200
0000
0310
0000
0000
0001
0000
0000
1000
0200
0000
1300
0001
0000
0000
0100
0000
0010
2000
0000
0000
3002
0000
0000
0023
0000
0230
0000
0000
1300
0002
0000
0000
0203
0000
0000
0320
0000
0000
,
0230
0000
0000
0302
0000
0000
2003
0000
0000
3200
0000
0000
0310
0000
0001
0000
0010
0000
0001
0000
0000
0000
0001
0000
1000
0000
0001
0000
1000
0000
0010
0000
0000
0000
0010
0000
0200
0000
0000
0000
0001
0000
0000
0000
0000
0000
0310
0000
,
1000
0000
0000
1000
0000
0002
0000
0000
1003
0100
0010
0100
1000
0100
0010
0001
1000
0001
1000
0000
0020
0000
0000
1030
,
0001
0010
0100
2000
0000
3002
0000
0000
1003
0020
0000
0130
0001
1000
0100
0010
0001
1000
0001
0100
0010
0100
0001
1000
,
0400
0040
0000
0000
0000
0000
0000
0000
0000
0330
0000
0010
0000
0000
0012
0000
0000
1003
0010
0000
0010
0100
0001
0100
,
0001
0000
1000
0000
0100
0000
1000
0000
0001
0000
1000
0000
0001
0000
0010
0000
0100
0000
1000
0000
0100
0000
0010
0000
0001
0000
1000
0000
0010
0000
0100
0000
0001
0000
0100
0000
0010
0000
0000
1000
0000
0001
0010
0001
0010
0001
0000
1000
,
0100
0010
0100
0010
0000
0010
0001
0000
0000
2002
0000
3003
1100
0000
0100
0000
0010
0000
0011
0000
0001
0000
1000
0000
1010
0000
0010
0000
0100
0000
0101
0000
0000
0000
0000
0000
2001
0000
0000
0000
3100
0000
0010
0000
0000
0000
0010
0000
,
0001
0000
0001
1000
0000
1000
0020
0000
0130
0000
0000
0101
0000
0000
0001
1000
0000
0000
4000
0400
0000
0000
0000
0000
,
0000
0000
0000
0000
0000
3300
0120
0031
,
2000
0000
0000
3010
0000
0000
0100
0000
0001
0000
0000
2000
0000
0000
3100
0010
0000
0000
0011
0000
0000
0001
0000
1000
,
0000
0010
0000
0100
0000
0000
0001
0000
1000
0000
0000
0100
0010
0001
0010
0200
0000
0000
1300
0000
0100
0001
0000
0100
,
1000
0000
0001
0010
0000
1000
0010
0000
0001
0000
0000
2000
0000
0000
0000
3000
0000
0000
1001
0000
0000
0001
0000
0200
,
0000
0000
0300
0110
0000
0000
2010
0000
0000
3001
0000
0021
0000
0000
0000
0130
0000
0000
1100
0000
1000
0000
0001
0000
,
0101
0000
0100
0000
0010
0000
1010
0000
0000
0000
0000
0000
2002
0000
0000
0000
0000
3003
0011
0000
0010
0100
0000
1000
,
0002
0000
0203
0000
0000
0302
0000
0000
1003
0010
0000
MM01
0020
0000
0000
2030
0000
0000
3002
0000
0103
1000
00MM
0100
,
0002
0000
0000
1003
0000
1200
0000
0000
0310
2000
0000
0000
0002
3000
0000
0203
0000
0300
0110
0000
0010
0001
0000
1000
,
0010
0000
MM01
0010
0000
2000
0000
0000
3001
0010
0000
0001
2000
0000
0000
3020
0000
0030
0210
0000
0000
0302
0000
0000
,
2003
0000
0000
3200
0000
0000
M3M2
0000
0000
0203
0000
1300
0100
0010
0001
0010
0100
1000
0002
0000
0000
1003
0000
0000
,
1010
0000
0000
0020
0000
0030
0210
0000
0000
0301
0000
2000
0000
0000
0000
3001
0000
0000
0011
0000
0000
0020
0000
0030
,
0110
0000
0000
0200
0000
0300
1100
0000
0000
1000
0000
0002
0000
0000
1003
0010
0000
1000
0001
0000
0000
0200
0000
0000
,
0320
0000
0000
0032
MM00
0000
0023
0000
0000
1030
0000
0002
0000
0000
0013
0100
0000
1000
0001
0000
0001
0100
0000
0100
,
0002
0000
2000
0000
0000
0000
0010
0000
0000
3003
0000
0000
0001
0010
0100
1000
0100
0010
0001
0000
1000
0100
0000
M0M1
,
0100
0000
1000
0001
0000
0200
0000
0000
0310
0100
0000
0001
1000
0000
0100
0020
0000
0030
0011
0000
0001
1000
0000
0010
,
MM01
0000
0010
1000
0000
0002
0000
0000
1003
0100
0000
0010
0001
0000
1000
0020
0000
0000
1030
0000
0001
0010
0000
1M0M
,
0010
0000
0001
1000
0000
0020
0000
0000
0130
0001
0000
1000
0200
0000
0000
0320
0000
0030
0012
0000
0000
2000
0000
0003
,
0020
0000
3000
0002
0000
0030
2000
0003
0000
3200
0000
0002
0300
0000
2003
0000
0000
3000
1100
0000
0000
0200
0000
0310
,
0002
0000
0000
2003
0000
3000
1010
0000
0000
0020
0000
0000
0032
MM00
0000
0023
0000
0030
1010
0000
0000
20MM
0000
0000
,
3002
0000
0000
0023
0000
0030
0110
0000
0000
0100
0000
2000
000M
0000
0000
30M0
0000
0000
1M01
0000
0000
0002
0000
0000
,
0023
0000
0000
2030
0M0M
0000
3020
0000
0000
0031
0000
2000
0000
0000
0000
3010
0000
0000
0110
0000
0000
0101
0000
0000
,
1001
0000
1000
0000
0000
1200
0000
0000
0000
0300
0010
0001
2000
0000
0000
3000
0000
0000
0000
0000
0010
0100
0000
0001
,
1000
0000
0100
0010
0000
0001
1000
0000
0010
0100
0000
0202
0300
0000
1003
0100
0000
1000
0001
0000
0100
0010
0000
1000
,
0001
0000
0010
0100
0000
1000
0001
0000
0100
0010
0000
1000
0002
0000
0103
0000
0000
0220
0300
0000
1030
0001
0000
0010
,
0200
0000
2300
0000
3002
0000
0103
0010
0100
0010
2000
0000
0000
0000
3001
0010
0000
0100
1000
0000
0001
0100
0000
0010
,
0100
0000
0001
1000
0000
0001
0010
0000
0100
0010
0000
0022
0000
0033
0000
0002
0000
1003
0010
0000
0220
0030
0000
0301
,
1000
0000
0010
0100
0000
0202
0300
0000
1003
0100
0000
0010
0100
0000
2200
0000
0000
3300
0000
0000
0000
2002
0000
0000
,
3003
0000
0000
0202
0000
0000
0003
0000
0000
0310
1000
0010
1000
0010
1000
0001
0100
0001
0100
0001
0100
0010
0100
0010
,
0100
0010
0100
0001
1000
0001
1000
0001
1000
0100
1000
0100
1000
0100
1000
0001
0100
0001
0100
0001
0100
0010
0100
0010
,
0100
0010
0100
0001
1000
0001
0010
0001
0010
0100
0010
0100
1000
0100
1000
0001
0100
0001
1000
0010
1000
0001
0100
0001
,
1000
0010
1000
0002
0000
0003
0000
0000
0001
1000
0100
0010
0002
0000
0003
1000
0010
0200
0002
0000
0000
0000
0000
0000
,
0303
0000
0000
0000
;

//---------------dance-single - AceOfArrows (2018)----------------
#NOTES:
     dance-single:
     AceOfArrows (2018):
     Hard:
     11:
     0.973,0.709,0.069,1.000,1.000: // measure 1
0000
0000
0000
0000
,  // measure 2
1001
0000
0000
0002
0000
0013
0100
0000
0100
1000
0000
1000
0001
0000
0001
2000
0000
3010
0000
0000
0000
0000
0000
0000
,  // measure 3
0110
0000
0000
0200
0000
0301
1000
0000
1000
0200
0000
0310
0000
0000
0001
0000
0000
0001
0000
0000
0020
0000
0000
0000
,  // measure 4
0130
0000
1000
0001
0000
0001
0100
0000
0100
0010
0000
0010
1000
0000
1000
0002
0000
0403
0000
0000
0000
0000
0300
0000
,  // measure 5
0110
0000
1010
0000
1001
0001
0040
0000
,  // measure 6
0230
0000
1300
0001
0000
0001
0100
0000
0100
0010
0000
0010
2000
0000
3001
0000
0000
0200
0000
0000
0000
0000
0000
0000
,  // measure 7
0302
0000
1003
0100
0000
0100
0010
0000
0010
0001
0000
4000
0000
0000
0000
0000
0000
0000
0000
0000
0000
0000
0000
0000
,  // measure 8
3002
0000
0013
0100
0000
0100
0010
0000
0010
0001
0000
0001
2000
0000
3010
0000
0000
0200
0000
0000
0000
0000
0000
0000
,  // measure 9
0302
0000
1003
0000
0000
0100
0000
0000
0000
0020
0000
0031
0000
0000
1000
0000
0000
0000
0002
0000
0103
0000
0000
0010
,  // measure 10
0000
0000
0000
0200
0000
0301
0000
0000
1000
0000
0000
0000
0002
0000
0013
0100
0000
0100
1000
0000
0000
0002
0000
0000
,  // measure 11
2003
0000
3010
0100
0000
0100
0001
0000
0001
2000
0000
3100
0000
0000
0120
0000
0000
0000
0031
0000
0000
0001
0000
0000
,  // measure 12
2000
0000
3010
0100
0000
0100
0001
0000
0001
1000
0000
0040
0000
0000
0000
0000
0000
0000
0000
0000
0000
0000
0000
0000
,  // measure 13
2030
0000
3001
0010
0000
0010
0100
0000
0100
1000
0000
0001
0000
0000
0000
2001
0000
0000
0000
0000
3020
0000
0000
0000
,  // measure 14
0230
0000
0301
0000
0000
1000
0000
0000
0000
0002
0000
0013
0000
0000
0100
0000
0000
0000
2000
0000
3001
0000
0000
0100
,  // measure 15
0000
0000
0000
0020
0000
0130
0000
0000
0001
0000
0000
0000
2000
0000
3100
0010
0000
0010
0100
0000
0000
1000
0000
0000
,  // measure 16
0002
0000
0000
0000
0403
0000
0000
0000
0000
0000
0000
0000
0320
0000
1030
0001
0000
0001
0010
0000
0010
0100
0000
0100
,  // measure 17
2000
0000
0000
3001
0000
0200
0000
0000
0000
0300
0000
0000
0002
0000
1003
0100
0000
0100
0010
0000
0010
0001
0000
0001
,  // measure 18
2000
0000
0000
3010
0000
0200
0000
0000
0000
0300
0000
0000
0002
0000
1003
0100
0000
0100
0010
0000
0010
0100
0000
0100
,  // measure 19
1000
0000
1000
0001
0000
0001
0200
0000
0000
0310
0000
0000
2000
0000
3001
0010
0000
0010
0001
0000
0001
1000
0000
1000
,  // measure 20
0020
0000
0000
0130
0000
0000
0002
0000
1003
0100
0000
0000
0020
0000
0000
0230
0000
2000
0000
0000
0000
0000
0000
0000
,  // measure 21
0000
0000
0000
0000
0000
0000
0000
0000
0000
3300
0000
0000
0000
0000
0200
0000
0000
0310
0001
0000
0001
1000
0000
1000
,  // measure 22
0020
0000
0000
0130
0000
0002
0000
0000
0003
0000
0000
0000
0000
0000
2000
0000
0000
3001
0010
0000
0010
0001
0000
0001
,  // measure 23
1000
0000
0100
0000
0000
0040
0000
0000
0000
0000
0000
0000
0000
0000
0000
0032
0000
1003
0100
0000
0100
1000
0000
1000
,  // measure 24
0001
0000
0000
0100
0000
0010
0000
0000
0000
0000
0000
0000
0100
0000
0000
0001
0000
0000
2000
0000
0000
3100
0000
0000
,  // measure 25
0020
0000
0000
0031
0000
2000
0000
0000
3010
0100
0000
0000
0002
0000
0000
0M03
0000
0000
2000
0000
000M
3000
0000
0000
,  // measure 26
0200
0000
00M0
0300
0000
0000
0040
0000
M000
0000
0000
0000
0032
0000
1003
0010
0000
0400
0000
0000
0000
0300
0000
0000
,  // measure 27
0002
0000
1003
0100
0000
0040
0000
0000
0000
0030
0000
0000
0200
0000
1300
0001
0000
4000
0000
0000
0000
3000
0000
0000
,  // measure 28
0004
0400
0000
0000
0000
0000
0000
0303
0000
0002
0000
0000
2003
0000
0000
3200
0000
0000
0320
0000
0032
0000
0000
2003
,  // measure 29
0000
0000
3010
0100
0000
0100
0001
0000
0001
2000
0000
0000
3200
0000
0000
0320
0000
0000
0031
0000
2000
0000
0000
3020
,  // measure 30
0000
0000
0000
0430
0000
0000
0000
0300
0000
0000
0000
0000
0000
0000
0010
1000
0000
1000
0001
0000
0001
0010
0000
0010
,  // measure 31
0100
0000
2000
0000
0000
3002
0000
0000
0003
0000
2000
0000
0000
0000
3010
0100
0000
0100
0002
0000
0000
1003
0000
0020
,  // measure 32
0000
0000
0000
0000
0000
0000
0000
0000
0000
0030
0000
0000
0000
0000
0100
0001
0000
0001
1000
0000
1000
0200
0000
0310
,  // measure 33
0000
0000
0001
1000
0000
1000
0010
0000
0010
0200
0000
0301
0000
0000
1000
0100
0000
0100
0010
0000
0010
0100
0000
0100
,  // measure 34
1000
0000
1000
0001
0000
0001
0100
0000
0100
0020
0000
0000
1030
0000
1000
0001
0000
0200
0000
0000
0301
1000
0000
1000
,  // measure 35
0100
0000
0010
0000
0000
0002
0000
0000
0000
0003
0000
0000
1000
0000
1000
0010
0000
0010
0100
0000
0100
0001
0000
0001
,  // measure 36
1000
0000
1000
0100
0000
0020
0000
0000
0000
0030
0000
0000
0100
0000
2000
0000
0000
3001
0100
0000
0100
0010
0000
0010
,  // measure 37
1000
0000
0000
0000
1000
0000
0001
0000
0000
0000
0020
0000
0000
0000
0000
0000
0000
0000
0230
0000
0000
0000
0000
0000
2300
0000
3001
0010
0000
0010
0001
0000
1000
0000
0000
0020
0000
0000
0000
0000
1030
0000
0001
0000
0000
0000
0040
0000
,  // measure 38
0000
0000
0000
0000
0000
0000
0230
0000
1300
0001
0000
0001
0100
0000
0100
0010
0000
2000
0000
0000
3001
0010
0000
0010
,  // measure 39
0200
0000
0000
2300
0000
0000
3002
0000
0103
0010
0000
0010
1000
0000
1000
0001
0000
0020
0000
0000
0130
2000
0000
0000
,  // measure 40
3002
0000
0000
0203
0000
0000
0310
0000
0010
1000
0000
1000
0001
0000
0001
0100
0000
0020
0000
0000
1030
0001
0000
0001
,  // measure 41
0020
0000
0000
0230
0000
0000
2300
0000
0000
3002
0000
0000
0203
0000
0000
0320
0000
0000
2030
0000
0000
3001
0000
0400
,  // measure 42
0000
0000
0000
0000
0000
0000
0300
0000
0000
0020
0000
0000
2030
0000
0000
3002
0000
0000
0023
0000
0000
0130
0000
2000
,  // measure 43
0000
0000
0000
3000
0000
0000
0000
0000
0001
0100
0000
0000
0010
0000
0000
0200
0000
0000
0301
0000
0000
1000
0000
0200
,  // measure 44
0000
0000
0000
0300
0000
0000
0000
0000
0000
0020
0000
0000
0032
0000
0000
2003
0000
0000
3020
0000
0000
0130
0000
0002
,  // measure 45
0000
0000
0000
0003
0000
0000
1000
0000
1000
0100
0000
0100
0010
0000
0001
0000
0000
0000
2002
0000
0000
3003
0000
0000
,  // measure 46
4000
0000
0000
0000
0000
0000
3010
0000
0010
0100
0000
0100
0002
0000
0000
1003
0000
0200
0000
0000
0310
0001
0000
0001
,  // measure 47
2000
0000
3020
0000
0000
0130
0002
0000
0000
2003
0000
0000
3200
0000
0310
0000
0000
0002
0000
0000
1003
0010
0000
0010
,  // measure 48
0200
0000
0000
0302
0000
0000
1003
0000
0200
0000
0000
0310
0001
0000
0001
1000
0000
0020
0000
0000
0130
0001
0000
0001
,  // measure 49
2000
0000
0000
3200
0000
0000
0320
0000
0130
2000
0000
0000
3002
0000
0000
0203
0000
0000
0320
0000
0000
1030
0000
0002
,  // measure 50
0000
0000
0203
0000
0000
0000
0300
0000
0000
0020
0000
0130
0002
0000
0000
2003
0000
0000
3100
0000
0000
0020
0000
0000
,  // measure 51
0230
0000
0000
2300
0000
0000
3001
0000
0000
0200
0000
0000
0320
0000
0000
2030
0000
0000
3002
0000
0000
0013
0000
0200
,  // measure 52
0000
0000
0000
0300
0000
0000
2000
0000
0000
3001
0000
0000
0200
0000
0000
0310
0000
0000
2000
0000
0000
3001
0000
0200
,  // measure 53
0000
0000
0000
0300
0000
0000
0020
0000
0000
1030
0000
0000
0001
0000
0010
0000
0000
0200
0000
0000
0000
0000
4300
0000
,  // measure 54
0000
3000
0000
0000
0000
0000
0000
0000
0001
0100
0000
0100
0010
0000
0010
1000
0000
1000
0001
0000
0001
0100
0000
0020
,  // measure 55
0000
0000
0130
0001
0000
0001
1000
0000
1000
0100
0000
0100
0020
0000
0000
0130
0000
2000
0000
0000
3000
0000
0000
0000
,  // measure 56
2002
0000
0000
3003
0000
0000
0002
0000
0103
0010
0000
0010
0100
0000
0100
0001
0000
0001
2000
0000
3100
0000
0000
0020
,  // measure 57
0000
0000
0000
0000
0000
0000
0032
0000
1003
0010
0000
0010
0100
0000
0100
0001
0000
4000
0000
0000
0000
0000
0000
0000
,  // measure 58
0000
0000
0000
0000
0000
0000
3002
0000
0013
0100
0000
0100
0010
0000
0010
0001
0000
0001
2000
0000
3010
0000
0000
0200
,  // measure 59
0000
0000
0000
0304
0000
0000
2003
0000
3100
0000
0000
0010
0000
0000
0000
0200
0000
1300
0000
0000
0001
0000
0000
0000
,  // measure 60
2000
0000
3010
0000
0000
0100
0000
0000
0000
0002
0000
1003
0000
0000
0100
0000
0000
0000
0020
0000
0031
1000
0000
1000
,  // measure 61
0010
0000
0000
0100
0000
0000
0002
0000
0000
0000
4003
0000
0000
0000
0000
0000
0000
0000
3020
0000
1030
0001
0000
1000
,  // measure 62
0010
0000
1000
0001
0000
1000
0020
0000
0000
0130
0000
0002
0000
0000
0000
0003
0000
0000
2000
0000
3001
0010
0000
0001
,  // measure 63
1000
0000
0001
0100
0000
0001
2000
0000
0000
3100
0000
0020
0000
0000
0000
0030
0000
0000
0001
0000
0010
0001
0000
1000
,  // measure 64
0010
0000
1000
0001
0000
0100
0001
0000
1000
0100
0000
0010
0001
0000
1000
0010
0000
1000
0001
0000
0010
0001
0000
1000
,  // measure 65
0010
0000
0100
0001
0000
1000
0002
0000
0000
0023
0000
0000
0230
0000
1300
0001
0000
0000
2000
0000
0000
3020
0000
0200
,  // measure 66
0000
0000
0000
0000
0000
0000
0000
0000
0000
0000
0000
0000
0000
0000
0000
0330
0000
0000
0000
0000
0010
1000
0000
0001
,  // measure 67
0010
0000
0100
1000
0000
0001
0200
0000
0000
0310
0000
2000
0000
0000
0000
3000
0000
0000
0000
0000
0001
0100
0000
0010
,  // measure 68
0100
0000
0001
0100
0000
0010
1000
0000
0002
0000
0000
0043
0000
0000
0000
0000
0000
0000
0000
0000
0130
1000
0000
0100
,  // measure 69
0010
0000
0100
1000
0000
0100
0020
0000
0000
0031
0000
2000
0000
0000
0000
3000
0000
0000
0001
0000
0000
0200
0000
0000
,  // measure 70
0310
0000
0000
1000
0000
0000
0002
0000
0000
0013
0000
0200
0000
0000
1300
0000
0000
0000
0002
0000
0000
00M3
0000
0000
,  // measure 71
2000
0M00
0000
3000
0000
0000
0020
000M
0000
1030
0000
0000
0004
0M00
0000
0013
0000
0000
0200
0000
1300
0001
0000
0400
,  // measure 72
0000
0000
0000
0300
0000
0000
0020
0000
0130
0001
0000
4000
0000
0000
0000
3000
0000
0000
0002
0000
1003
0100
0000
0040
,  // measure 73
0000
0000
0000
0030
0000
0000
0004
4000
0000
0000
0000
0000
0000
3003
0000
0002
0000
0000
0203
0000
0000
0320
0000
0000
,  // measure 74
1030
0000
0002
0000
0000
0023
0000
0000
0130
1000
0000
0001
0100
0000
0010
1000
0000
0001
0020
0000
0000
0230
0000
0000
,  // measure 75
1300
0000
0002
0000
0000
0203
0000
0000
0340
0000
0000
0000
0000
0030
0000
0000
0000
0000
0000
0000
1000
0001
0000
0001
,  // measure 76
0020
0000
0000
0230
0000
0000
2300
0000
0000
3002
0000
0000
0203
0000
0000
0300
0000
0000
0020
0000
0130
0001
0000
1000
,  // measure 77
0200
0000
0000
0310
0000
0002
0000
0000
0000
0000
0000
0000
0000
0000
0003
0000
0000
0000
0000
0000
1000
0010
0000
1000
,  // measure 78
0001
0000
1000
0200
0000
0310
0000
0000
0001
0010
0000
0001
1000
0000
0001
0200
0000
0310
0000
0000
0100
0001
0000
1000
,  // measure 79
0100
0000
0010
0001
0000
1000
0010
0000
0200
0000
0000
0302
0000
0000
2003
0000
0000
0000
3100
0000
0020
0000
0000
0032
,  // measure 80
0000
0000
1003
0020
0000
0000
0130
0000
0002
0000
0000
2003
0000
0000
0000
3000
0000
0000
0001
0000
0020
0000
0000
0230
,  // measure 81
0000
0000
1300
0001
0000
0100
0010
0000
1000
0000
0000
2002
0000
0000
0000
3003
0000
0000
0002
0000
0013
0100
0000
2000
,  // measure 82
0000
0000
0000
0000
3001
0000
0100
0000
0000
0000
0010
0000
2000
0000
0000
0000
0000
0000
3001
0000
0000
0000
0020
0000
0000
0000
0000
0000
0000
0000
0230
0000
0000
0000
0000
0000
2300
0000
3001
0010
0000
0000
0002
0000
2003
0000
0000
3020
,  // measure 83
0000
0000
0130
0001
0000
4000
0400
0000
0000
0000
3300
0000
1000
0000
0001
0100
0000
0010
1000
0000
0001
0010
0000
0200
,  // measure 84
0000
0000
0310
0001
0000
1000
0020
0000
0000
0230
0000
0000
0301
0000
1000
0100
0000
0010
0002
0000
1003
0000
0000
0020
,  // measure 85
0000
0000
0130
0002
0000
0000
2003
0000
0000
3200
0000
0000
0310
0000
0100
1000
0000
0001
0100
0000
0010
1000
0000
0002
,  // measure 86
0000
0000
1003
0100
0000
0010
0002
0000
0000
2003
0000
0000
3020
0000
0000
0230
0000
0000
0302
0000
0000
2003
0000
0000
,  // measure 87
3200
0000
0000
0310
0000
0002
0000
0000
0000
0003
0000
0000
0000
0000
1000
0020
0000
0000
0230
0000
0000
0301
0000
1000
,  // measure 88
0100
0000
0020
0000
0000
0032
0000
0000
0000
0003
0000
0000
0000
0000
0000
1000
0000
0010
0200
0000
0000
0302
0000
0000
,  // measure 89
2003
0000
0000
3010
0000
0200
0000
0000
0000
0300
0000
0000
0001
0000
1000
0100
0000
0010
0001
0000
0000
2000
0000
3010
,  // measure 90
0100
0000
0002
0000
0000
2003
0000
0000
3000
0000
0000
0000
0001
0000
0010
0200
0000
0000
1300
0000
0002
0000
0000
0103
,  // measure 91
0020
0000
0000
0030
0000
0000
0400
0004
0000
0000
0303
0000
0001
0000
1000
0100
0000
0010
0100
0000
1000
0001
0000
2000
,  // measure 92
0000
0000
3001
0010
0000
0001
2000
0000
0000
3020
0000
0000
0130
0000
0001
1000
0000
0100
0010
0000
0100
1000
0000
0001
,  // measure 93
0010
0000
0100
0020
0000
0000
0032
0000
1003
0020
0000
0000
0230
0000
0000
0302
0000
1003
0200
0000
0000
0310
0000
0002
,  // measure 94
0000
0000
1003
0010
0000
0100
0020
0000
0000
2030
0000
0000
3002
0000
0000
0023
0000
0000
0230
0000
0000
2300
0000
0000
,  // measure 95
3002
0000
0000
1003
0000
0020
0000
0000
0230
0000
0000
0000
0300
0000
0000
0002
0000
1003
0200
0000
0000
0320
0000
0000
,  // measure 96
0032
2003
3020
0230
0302
2003
3200
0320
,  // measure 97
0130
0000
0000
1000
0000
0002
0000
0000
0000
0103
0000
0000
0010
0000
0000
2000
0000
0000
3001
0000
0000
0020
0000
0000
,  // measure 98
0230
0000
0000
1300
0000
0002
0000
0000
0000
1003
0000
0000
0010
0000
0000
0100
0000
0000
0001
0000
1000
0000
0000
0200
,  // measure 99
0000
0000
0000
0000
0340
0000
0000
0000
0030
0000
0000
0000
0000
0000
0001
1000
0000
0010
0100
0000
0010
1000
0000
0001
,  // measure 100
0010
0000
0100
0010
0000
0002
0000
0000
1003
0001
0000
0100
0001
0000
1000
0100
0000
1000
0001
0000
0000
0100
0000
0020
,  // measure 101
0000
0000
0000
0030
0000
0000
4020
0000
0000
0030
0000
0000
3001
0000
0010
0000
0000
0100
0010
0000
0001
0000
0000
1000
,  // measure 102
0010
0000
0010
0400
0000
0000
0301
0000
1000
0100
0000
0020
0000
0000
0130
2000
0000
0000
3001
0000
0200
0000
0000
0310
,  // measure 103
2000
0000
0000
3001
0000
0020
0000
0000
0031
1000
0001
1000
0004
0400
0000
0000
0000
0000
0000
0000
0000
0000
0303
0000
,  // measure 104
0400
0040
0000
0000
0000
0000
0000
0000
0000
0000
0000
0330
0010
0000
1000
0001
0000
0001
0010
0100
1000
0100
0000
0100
,  // measure 105
0010
0000
0010
0002
0000
2003
0000
0000
3010
0100
0000
0001
0200
0000
0320
0000
0000
1030
0002
0000
0023
0000
0000
0130
,  // measure 106
1000
0000
1000
0001
0000
0001
0200
0000
0310
2000
0000
3002
0000
0000
0023
0000
0000
0130
2000
0000
0000
3001
0000
0200
,  // measure 107
0000
0000
0310
2000
0000
0000
3002
0000
0013
0100
0000
0100
2000
0000
3001
0100
0000
0100
0010
0000
0010
1000
0000
1000
,  // measure 108
0001
0000
0010
0100
0000
1000
0002
0000
0103
0000
0000
0020
0000
0000
1030
0000
0000
0001
0010
0000
0000
0002
0000
0000
,  // measure 109
2003
0000
3010
0000
0000
0200
0000
0000
0000
0300
0000
0001
0200
0000
0310
0000
0000
1000
0002
0000
0013
0000
0000
0100
,  // measure 110
0000
0000
1000
0001
0000
1000
0200
0000
0310
0001
0000
0020
0000
0000
0130
1000
0000
0001
0100
0000
0010
1000
0000
0002
,  // measure 111
0000
0000
0023
0000
0000
0130
1000
0000
1000
0001
0000
0001
0040
0400
0000
0000
0000
0000
0000
0000
0000
0000
0330
0000
,  // measure 112
0400
4000
0000
0000
0000
0000
0000
0000
0000
0000
0000
3300
0000
0000
0000
2000
0000
3001
0100
0000
0100
0010
0000
0010
,  // measure 113
2000
0000
0000
0000
3001
0000
0000
0000
0000
0000
0200
0000
0000
0000
0000
0000
0000
0000
0301
0000
0000
0000
0000
0000
2000
0000
0000
3002
0000
0000
0023
0000
0000
0032
0000
0000
2003
0000
3100
0020
0000
0000
0032
0000
0000
1003
0000
0100
,  // measure 114
0020
0000
0000
0230
0000
0000
2300
0000
3001
0000
0000
0200
0000
0000
0310
0100
0000
0100
0002
0000
0000
2003
0000
0000
3000
0002
0000
0000
0000
2003
0000
0000
3100
0010
0000
0000
0002
0000
0000
1003
0100
0000
2000
0000
0000
3001
0000
0000
,  // measure 115
2000
0000
3100
0000
0000
1000
0200
0000
0310
0001
0000
0010
0000
0000
0002
0000
0000
1003
0200
0000
0310
0001
0000
0000
0020
0000
0130
2000
0000
0000
3002
0000
0000
2003
0000
3100
0020
0000
0031
0020
0000
0000
0230
0000
0000
2300
0000
0000
,  // measure 116
3002
0000
0000
0203
0000
0000
0320
0000
0000
2030
0000
0000
3001
0000
0100
0000
0001
0000
0200
0000
0000
0000
0310
0000
1000
0000
0001
0000
1000
0000
0002
0000
0000
0000
0013
0000
0200
0000
0000
0000
0000
0000
1300
0000
0000
0000
0001
0000
,  // measure 117
0020
0000
0000
0031
0000
2000
0000
3040
0400
0000
0000
0000
0000
0000
0000
0000
0330
0000
0020
0000
0430
0004
0000
0000
,  // measure 118
0000
0000
0000
0000
0303
0000
0002
0000
4003
0400
0000
0000
0000
0000
0000
0000
0000
0000
0000
0000
0000
0000
0000
0000
,  // measure 119
0000
0000
0000
0000
0000
0000
0000
0000
0000
0000
0000
0000
3300
0000
2002
0000
3000
0043
0004
0000
0000
0000
0000
0000
,  // measure 120
0000
0000
0000
0000
0000
0000
0000
0000
0000
0000
0000
0000
0000
0000
0000
0000
0000
0000
0000
0000
0000
0000
0000
0000
0000
0000
0000
0000
0000
0000
0000
0000
0033
0000
0000
0000
0002
0000
0000
1003
0000
0001
0010
0001
0010
0001
0000
1000
,  // measure 121
0100
1000
0100
1000
0000
0001
0010
0000
0000
0200
0000
0000
1300
0000
0001
0000
0100
0000
0010
0000
1000
0000
0001
0000
0010
0000
0100
0000
1000
0000
0001
0000
0000
0000
0000
0000
0200
0000
0000
0000
0310
0000
1000
0000
0000
0000
0001
0000
,  // measure 122
0010
0000
0001
1000
0000
0001
0020
0000
0130
0000
0000
1000
0000
0000
0001
0100
0000
0040
0400
0000
0000
0000
0000
0000
,  // measure 123
0000
0000
0000
0000
0000
0000
0000
0000
0330
0101
0000
0000
,  // measure 124
0000
0000
0000
0000
0000
0000
0000
0000
0000
0000
0000
0000
0000
0000
0001
2000
0000
3000
1200
0000
0000
0340
0000
0000
,  // measure 125
0000
0000
0000
0000
0000
0000
0000
0000
0000
0030
0000
0000
0001
0010
0100
2000
0000
0000
3002
0000
0103
0010
0000
0010
,  // measure 126
1000
0000
1000
0001
0000
0001
0010
0000
0200
0000
0000
2300
0000
0000
3000
0000
0000
0000
1001
0000
0000
0001
0000
0200
,  // measure 127
0000
0000
0000
0320
0000
0000
2030
0000
0000
3001
0000
0020
0000
0000
0000
0230
0000
0000
1300
0000
0001
0000
0100
0000
,  // measure 128
0010
0000
1000
0000
0001
0000
2002
0000
0000
3003
0000
0000
2020
0000
0000
0030
0000
0000
3001
0000
0001
0010
0000
0010
,  // measure 129
0100
0000
0100
1000
0000
0002
0000
0000
0103
0010
0000
0010
2000
0000
0000
3002
0000
0000
0013
0000
0010
0100
0000
0100
,  // measure 130
0020
0000
0032
0000
0000
2003
0000
0000
3010
0200
0000
0000
0302
0000
0000
2003
0000
0000
3100
0000
0100
0010
0000
0010
,  // measure 131
0100
0000
0100
1000
0000
0002
0000
0000
0203
0000
0000
0310
2000
0000
0000
3002
0000
0000
0023
0000
0000
0230
0000
0000
,  // measure 132
2300
0000
0000
3002
0000
0000
0203
0000
0000
0310
0000
4000
0000
0000
0000
0000
0000
0000
3000
0000
0000
0020
0000
0000
,  // measure 133
0230
0000
0000
0302
0000
0000
2003
0000
0000
3100
0000
0020
0000
0000
0000
0030
0000
0000
0000
0000
0001
0020
0000
0000
,  // measure 134
0230
0000
0000
2300
0000
0000
3002
0000
0000
1003
0000
0020
0000
0000
0000
0030
0000
0000
0000
0000
0000
0200
0000
0000
,  // measure 135
0302
0000
0000
2003
0000
0000
3200
0000
0000
0310
0000
0002
0000
0000
0000
0003
0000
0000
2000
0000
3010
0100
0000
0100
,  // measure 136
0002
0000
2003
0000
0000
3000
2200
0000
0000
3300
0000
0000
0400
0040
0000
0000
0330
0000
0100
0000
0100
1000
0000
1000
,  // measure 137
0001
0000
0001
0100
0000
0020
0000
0000
1030
0001
0000
0001
0010
0000
0010
0200
0000
0000
0310
0000
0010
0001
0000
0001
,  // measure 138
1000
0000
1000
0010
0000
0200
0000
0000
0301
1000
0000
1000
0200
0000
0000
0320
0000
0000
0031
0000
0001
1000
0000
1000
,  // measure 139
0010
0000
0010
0100
0000
0002
0000
0000
1003
0100
0000
0100
0020
0000
0000
0032
0000
0000
2003
0000
0000
3020
0000
0000
,  // measure 140
0230
0000
0000
0302
0000
0000
1003
0000
0000
0100
0000
0020
0000
0000
0230
0000
0000
0000
0300
0000
0000
2000
0000
3001
,  // measure 141
0200
0320
2030
3002
0023
0230
2300
3002
,  // measure 142
0203
0000
0000
0320
0000
0000
0230
0000
0000
0301
0000
2000
0000
0000
0000
3000
0000
0000
0001
0000
0000
0020
0000
0000
,  // measure 143
0032
0000
0000
2003
0000
0000
3020
0000
0000
0130
0000
0002
0000
0000
0000
2003
0000
0000
3100
0000
0000
0010
0000
0000
,  // measure 144
0100
0000
2000
0000
0000
3002
0000
0000
0000
0000
0403
0000
0000
0000
0300
0000
0000
0000
0000
0000
0010
0100
0000
0001
,  // measure 145
1000
0000
0100
0010
0000
0100
1000
0000
0001
0100
0000
0020
0000
0000
0130
0001
0000
1000
0010
0000
0100
0010
0000
1000
,  // measure 146
0001
0000
0010
0100
0000
0010
0001
0000
1000
0010
0000
0100
0020
0000
1030
0000
0000
0002
0000
0000
1003
0100
0000
1000
,  // measure 147
0002
0000
0023
0000
0230
0000
4300
0000
0000
3001
0000
0200
0000
0000
0310
1000
0000
0001
0010
0000
0100
1000
0000
0001
,  // measure 148
0100
0000
0010
1000
0000
0001
0010
0000
0100
1000
0000
0020
0000
0000
0030
1000
0000
0001
0100
0000
0020
0000
0000
1030
,  // measure 149
0001
0000
1000
0100
0000
0020
0000
0000
0031
1000
0000
0001
0100
0000
0020
0000
0000
0030
0000
0000
0000
2020
0000
0000
,  // measure 150
3030
0000
0000
0202
0000
0000
0300
0000
0000
4003
0400
0000
0000
0000
0000
0000
0000
0000
0000
0000
0000
0000
0000
0000
,  // measure 151
0000
0000
0000
0000
,  // measure 152
0000
0000
0000
0000
,  // measure 153
0000
0000
0000
3300
0000
0000
0000
0000
1000
0001
1000
0100
0020
0000
0000
0030
0001
0010
0200
0000
0000
0000
0000
0000
,  // measure 154
0300
0000
0000
0000
;

//---------------dance-single - AceOfArrows (2018)----------------
#NOTES:
     dance-single:
     AceOfArrows (2018):
     Medium:
     9:
     0.621,0.368,0.034,0.882,0.429:
0000
0000
0000
0000
,
1000
0000
0000
0004
0000
0000
0000
0000
0000
0003
0000
0000
1000
0000
0000
0020
0000
1030
0000
0000
0000
0000
0000
0000
,
0001
0000
0000
0010
0000
0000
0001
0000
0000
2000
0000
3010
0000
0000
0000
0000
0000
0000
0000
0000
0200
0000
0000
0000
,
0301
0000
0000
0000
0000
0001
0000
0000
0000
1000
0000
0000
0100
0000
0000
0010
0000
0400
0000
0000
0000
0300
0000
0000
,
1000
0000
1001
0000
0001
0100
0010
0100
,
0001
0000
0000
1000
0000
0000
0100
0000
0000
0010
0000
0000
0200
0000
1300
0000
0000
0002
0000
0000
0000
0003
0000
0000
,
1000
0000
0000
0010
0000
0000
0100
0000
0020
0000
0000
4030
0000
0000
0000
0000
0000
0000
0000
0000
0000
0000
0000
0000
,
3001
0000
0000
0010
0000
0000
0100
0000
0000
0010
0000
0000
0002
0000
1003
0000
0000
0020
0000
0000
0000
0000
0000
0000
,
0230
0000
0301
0000
0000
1000
0000
0000
0000
0002
0000
1003
0000
0000
0100
0000
0000
0000
2000
0000
3001
0000
0000
0010
,
0000
0000
0000
0002
0000
1003
0000
0000
0010
0000
0000
0000
1000
0000
0000
0001
0000
0000
0100
0000
0000
0010
0000
0000
,
0100
0000
0000
0001
0000
0000
1000
0000
0000
0200
0000
0310
0000
0000
0000
0002
0000
0000
1003
0000
0000
0001
0000
0000
,
0100
0000
0000
0001
0000
0000
1000
0000
0000
0001
0000
0040
0000
0000
0000
0000
0000
0000
0000
0000
0000
0030
0000
0000
,
0001
0000
0000
1000
0000
0000
0100
0000
0000
2000
0000
3001
0000
0000
0000
0200
0000
0000
0000
0000
0320
0000
0000
0000
,
2030
0000
3001
0000
0000
0010
0000
0000
0000
0002
0000
1003
0000
0000
0010
0000
0000
0000
2000
0000
3001
0000
0000
0010
,
0000
0000
0000
0002
0000
1003
0000
0000
0010
0000
0000
0000
0100
0000
0000
0001
0000
0000
1000
0000
0000
0100
0000
0000
,
0020
0000
0000
0000
0034
0000
0000
0000
0000
0003
0000
0000
1000
0000
0000
0010
0000
0000
0100
0000
0000
0001
0000
0000
,
1000
0000
0000
0001
0000
0200
0000
0000
0000
0300
0000
0000
0001
0000
0000
1000
0000
0000
0100
0000
0000
0010
0000
0000
,
0100
0000
0000
1000
0000
0002
0000
0000
0000
0003
0000
0000
1000
0000
0000
0010
0000
0000
0100
0000
0000
0001
0000
0000
,
0100
0010
1000
0001
0010
0100
1000
0001
,
0100
0000
0000
0010
0000
0000
1000
0000
0000
0001
0000
0000
0010
0000
0000
0100
0000
2000
0000
0000
0000
0000
0000
0000
,
0000
0000
0000
3000
0000
0001
0100
0010
,
0200
0000
0000
0000
0301
0000
0000
0000
0000
0000
0000
0000
0000
0000
0000
1000
0000
0000
0100
0000
0000
0010
0000
0000
,
0200
0000
0000
0000
0000
4300
0000
0000
0000
0000
0000
0000
0000
0000
0000
3001
0000
0000
0010
0000
0000
0100
0000
0000
,
0020
0000
0000
0000
0031
0000
0000
0000
0000
0000
0000
0000
1000
0000
0000
0010
0000
0000
0100
0000
0000
0001
0000
0000
,
0200
0000
0000
0310
0000
2000
0000
0000
0000
3001
0000
0000
0010
0000
0000
0000
0000
0000
0100
0000
0000
0000
0000
0000
,
1000
0000
0000
0000
0000
0000
0002
0000
0000
0003
0000
0000
2000
0000
0000
3010
0000
0400
0000
0000
0000
0300
0000
0000
,
0002
0000
0000
1003
0000
0400
0000
0000
0000
0300
0000
0000
0020
0000
0000
0031
0000
4000
0000
0000
0000
3000
0000
0000
,
0040
0000
0000
1030
0001
0010
0001
1000
,
0010
0000
0000
0100
0000
0000
0001
0000
0000
1000
0000
0000
0100
0000
0000
0010
0000
0000
0200
0000
0000
0000
0000
1300
,
0000
0004
0003
0000
0000
1000
0010
0100
,
0002
0000
0000
0000
0000
2003
0000
0000
0000
3000
0000
0000
0100
0000
0000
0010
0000
0000
0002
0000
0000
0000
0000
2003
,
0000
0000
0000
0000
0000
0000
0000
0000
0000
3000
0000
0000
0000
0000
0000
0010
0000
0000
0200
0000
0000
0000
0000
0301
,
0000
0000
0000
1000
0000
0000
0200
0000
0000
0000
0000
0310
0000
0000
0000
0001
0000
0000
0010
0000
0000
0100
0000
0000
,
1000
0000
0000
0001
0000
0000
1000
0000
0000
0010
0000
0000
0100
0000
0000
0000
0000
0002
0000
0000
0000
1003
0000
0000
,
0010
0000
0000
0000
0000
0200
0000
0000
0000
0300
0000
0000
0001
0000
0000
1000
0000
0000
0100
0000
0000
0010
0000
0000
,
0100
0000
0000
0000
0000
2000
0000
0000
0000
3000
0000
0000
0001
0000
0000
0000
0000
0200
0000
0000
0000
0310
0000
0000
,
1000
0000
0000
0000
0000
0000
0000
0000
0000
0000
0002
0000
0000
0000
0000
0000
0000
0000
0013
0000
0000
0000
0000
0000
0100
0000
0000
1000
0000
0000
0100
0000
0000
0000
0000
0020
0000
0000
0000
0000
0030
0000
0000
0000
0000
0000
0004
0000
,
0000
0000
0000
0000
0000
0000
1003
0000
0000
0010
0000
0000
2000
0000
0000
0000
0000
3002
0000
0000
0000
0013
0000
0000
,
0100
0000
0000
2000
0000
0000
3001
0000
0000
0100
0000
0000
0020
0000
0000
0000
0000
2030
0000
0000
0000
3001
0000
0000
,
0020
0000
0000
0130
0000
0000
1000
0000
0000
0001
0000
0000
0200
0000
0000
0000
0000
0320
0000
0000
0000
1030
0000
0000
,
0002
0000
0000
0013
0000
0000
0100
0000
0000
1000
0000
0000
0001
0000
0000
1000
0000
0000
0010
0000
0000
0100
0000
0002
,
0000
0000
0000
0003
0000
0000
0000
0000
0000
1000
0000
0000
0100
0000
0000
0010
0000
0000
0100
0000
0000
1000
0000
0002
,
0000
0000
0000
0003
0000
0000
0000
0000
0000
1000
0000
0000
0010
0000
0000
1000
0000
0000
0001
0000
0000
0010
0000
0200
,
0000
0000
0000
0300
0000
0000
0000
0000
0000
0010
0000
0000
0001
0000
0000
1000
0000
0000
0001
0000
0000
0010
0000
0200
,
0000
0000
0000
0300
0000
0000
1000
0000
0000
0001
0000
0000
1000
0000
0200
0000
0000
0000
0320
0000
0000
0030
0000
0000
,
0400
0000
0000
0000
0000
0000
1300
0000
0000
0001
0000
0000
0200
0000
0000
0000
0000
0320
0000
0000
0000
1030
0000
0000
,
0001
0000
0000
0010
0000
0000
0100
0000
0000
0010
0000
0000
0002
0000
0000
0000
0000
2003
0000
0000
0000
3010
0000
0000
,
0200
0000
0000
0302
0000
0000
1003
0000
0000
0100
0000
0000
0020
0000
0000
0000
0000
0230
0000
0000
0000
1300
0000
0000
,
0001
0000
0000
0200
0000
0000
0310
0000
0000
1000
0000
0000
0001
0000
0000
0010
0000
0000
0100
0000
0000
1000
0000
0002
,
0000
2003
3000
0010
1000
0001
0010
0100
,
1000
0000
0000
0001
0000
0000
0100
0000
0000
0010
0000
0000
0100
0000
0000
0001
0000
0000
1000
0000
0000
0010
0000
0200
,
0000
0000
0000
0300
0000
0000
0001
0000
0000
1000
0000
0000
0100
0000
0000
0010
0000
0000
0100
0000
0000
1000
0000
0002
,
0000
0000
0000
0003
0000
0000
1000
0000
0000
0010
0000
0000
0100
0000
0002
0000
0000
2003
0000
0000
0000
0000
3400
0000
,
0000
0000
0300
0000
0000
0000
0000
0000
0000
0010
0000
0000
0001
0000
0000
1000
0000
0000
0001
0000
0000
0100
0000
0020
,
0000
0000
0000
0130
0000
0000
0001
0000
0000
1000
0000
0000
0010
0000
0000
0100
0000
0001
0000
0000
0000
0000
0000
0000
,
2002
0000
0000
3003
0000
0000
1000
0000
0000
0100
0000
0000
0010
0000
0000
0100
0000
0000
2000
0000
3001
0000
0000
0200
,
0000
0000
0000
0300
0000
0000
0010
0000
0000
1000
0000
0000
0001
0000
0000
0100
0000
0040
0000
0000
0000
0000
0000
0000
,
0000
0000
0000
0000
0000
0000
1030
0000
0000
0001
0000
0000
0010
0000
0000
0100
0000
0000
1000
0000
0001
0000
0000
0200
,
0000
0000
0000
0000
0000
0000
0320
0000
1030
0000
0000
0001
0000
0000
0000
0020
0000
0130
0000
0000
1000
0000
0000
0000
,
0002
0000
0103
0000
0000
0010
0000
0000
0000
2000
0000
3001
0000
0000
0010
0000
0000
0000
0100
0000
0000
1000
0000
0000
,
0001
0000
0000
1000
0000
0000
0020
0000
0000
0000
0430
0000
0000
0000
0000
0000
0000
0000
0301
0000
0000
1000
0000
0000
,
0100
0000
0000
0010
0000
0000
0100
0000
0000
1000
0000
0002
0000
0000
0000
0003
0000
0000
1000
0000
0000
0010
0000
0000
,
0100
0000
0000
0001
0000
0000
0100
0000
0000
0010
0000
2000
0000
0000
0000
3000
0000
0000
0001
0000
0000
0010
0000
0000
,
0100
1000
0100
0010
0001
1000
0010
0100
,
0010
0000
0000
1000
0000
0000
0001
0000
0000
0010
0000
0000
0100
0000
0000
1000
0000
0000
0002
0000
0000
1003
0000
0020
,
0000
0000
0000
0000
0000
0030
0000
0100
,
0001
0000
0000
1000
0000
0000
0100
0000
0000
0000
0000
0010
0000
0000
0000
0000
0000
0000
0000
0000
0000
0001
0000
0000
,
1000
0000
0000
0010
0000
0000
0200
0000
0000
0000
0000
0304
0000
0000
0000
0000
0000
0000
0000
0000
0000
1003
0000
0000
,
0100
0000
0000
0010
0000
0000
0200
0000
0000
0000
0000
1300
0000
0000
0000
0000
0000
0000
0001
0000
0000
1000
0000
0000
,
0010
0000
0000
1000
0000
0000
0001
0000
0000
0010
0000
0200
0000
0000
0000
1300
0000
0000
0001
0000
0000
0000
0000
0000
,
0100
0000
0000
0000
0000
0000
0010
0000
0000
1000
0000
0000
0002
0000
0000
0013
0000
0000
0100
0000
0000
0000
0000
4000
,
0000
0000
0000
0000
3000
0000
0001
0000
0000
0000
0000
0400
0000
0000
0000
0000
0300
0000
0002
0000
0000
0000
0000
4003
,
0000
0000
0000
0000
3000
0000
0400
0000
0000
0000
0000
0000
0000
0300
0000
0010
0000
0000
0001
0000
0000
1000
0000
0000
,
0010
0000
0200
0000
0000
0302
0000
0000
0000
1003
0000
0000
0100
0000
0000
0010
0000
0000
0100
0000
0000
1000
0000
0000
,
0001
0000
0200
0000
0000
0320
0000
0000
4030
0000
0000
0000
0000
3000
0000
0000
0000
0000
0000
0000
0000
0001
0000
0000
,
0010
0000
0000
0100
0000
0000
2000
0000
0000
3001
0000
0200
0000
0000
0000
0300
0000
0000
0010
0000
0000
0100
0000
0000
,
0002
0000
0000
1003
0000
0020
0000
0000
0000
0000
0000
0000
0000
0000
0030
0000
0000
0000
0000
0000
0000
1000
0000
0000
,
0001
0000
0000
0020
0000
0130
0000
0000
0000
0010
0000
0000
0001
0000
0000
2000
0000
3010
0000
0000
0000
0100
0000
0000
,
0010
0000
0000
1000
0000
0000
0001
0000
0020
0000
0000
0230
0000
0000
0000
1300
0000
0000
0001
0000
0200
0000
0000
0320
,
0000
0000
0000
1030
0000
0000
0001
0000
0020
0000
0000
0230
0000
0000
0000
0300
0000
0000
1000
0000
0000
0001
0000
0000
,
0100
0000
0000
0010
0000
0000
0100
0000
0002
0000
0000
2003
0000
0000
0000
3000
0000
0000
0001
0000
0000
0010
0000
0200
,
0000
0000
0000
0000
0000
0000
1300
0000
0000
0000
0000
0000
0002
0000
0000
0000
0000
0000
0000
0000
0000
0000
0203
0000
0000
0000
0000
0000
0000
0000
0310
0000
0000
0000
0000
0000
1000
0000
0000
0001
0000
0000
1000
0000
0000
0000
0000
0020
,
0000
0000
0000
0030
0000
0000
0400
0000
0000
0000
0000
0000
0301
0000
0000
1000
0000
0000
0100
0000
0000
0000
0000
0020
,
0000
0000
0000
0130
0000
0000
2000
0000
0000
3001
0000
0000
0100
0000
0000
0010
0000
0000
0200
0000
0000
0000
0000
0302
,
0000
0000
0000
1003
0000
0000
0200
0000
0000
0310
0000
0000
0001
0000
0000
0010
0000
0000
0200
0000
0000
0000
0000
2300
,
0000
3001
0100
0010
1000
0001
0010
0001
,
1000
0000
0000
0010
0000
0200
0000
0000
0000
0300
0000
0000
0000
0000
0000
0001
0000
0000
1000
0000
0000
0100
0000
0000
,
0010
0000
0200
0000
0000
2300
0000
0000
0000
3000
0000
0000
0000
0000
0000
0001
0000
0000
0100
0000
0000
0010
0000
0000
,
1000
0000
0000
0010
0000
0200
0000
0000
0000
0300
0000
0000
0001
0000
0000
1000
0000
0000
0100
0000
0000
0010
0000
0000
,
0100
0000
0000
0000
0000
2000
0000
0000
0000
3000
0000
0000
0001
0000
0000
1000
0000
0000
0100
0000
0000
0000
0000
0000
,
0020
0000
0000
0030
0000
0000
0004
0000
0000
0000
0000
0000
1003
0000
0000
0010
0000
0000
0100
0000
0000
0001
0000
2000
,
0000
0000
0000
3100
0000
0000
0020
0000
0000
0031
0000
0000
1000
0000
0000
0010
0000
0000
0100
0000
0000
0000
0000
0002
,
0000
0000
0000
1003
0000
0000
0100
0000
0000
1000
0000
0000
0001
0000
0000
0100
0000
0000
0002
0000
0000
0000
0000
2003
,
0000
3100
0010
0002
2003
3010
0200
0301
,
2000
0000
0000
3100
0000
0020
0000
0000
0032
0000
0000
0000
0003
0000
0000
1000
0000
0000
0010
0000
0000
0100
0000
0000
,
0010
1000
0002
0013
0200
1300
0002
0103
,
0010
0000
0000
1000
0000
0002
0000
0000
0013
0000
0000
0000
0100
0000
0000
1000
0000
0000
0001
0000
0000
0100
0000
0000
,
0010
0000
0000
0100
0000
0002
0000
0000
0000
1003
0000
0000
0100
0000
0000
0010
0000
0000
0100
0000
2000
0000
0000
3002
,
0000
0000
0000
0000
0403
0000
0000
0000
0300
0000
0000
0000
0000
0000
0000
0010
0000
0000
0100
0000
0000
0001
0000
0000
,
1000
0000
0000
0100
0000
0020
0000
0000
0000
0130
0000
0000
1000
0000
0000
0001
0000
0000
0200
0000
0000
0310
0000
2000
,
0000
0000
3000
0000
0000
0000
2002
0000
0000
3003
0000
0000
0002
0000
0013
0000
0000
0000
0002
0000
0013
0000
0000
0000
,
0001
0000
4000
0000
0000
0000
3000
0000
0000
0001
0000
0000
1000
0000
0000
0020
0000
0000
0130
0000
0002
0000
0000
0103
,
0020
0000
0000
1030
0000
0002
0000
0000
0023
0000
0000
0000
0430
4000
0000
0000
0000
0000
0000
0000
0000
3300
0000
0000
,
4000
0004
0000
0000
0000
0000
0000
0000
0000
3003
0000
0000
2000
0000
0000
3010
0000
0000
0400
0000
0000
0300
0000
0000
,
0002
0000
0000
1003
0000
0200
0000
0000
0000
0310
0000
0000
0002
0000
0013
0000
0000
0100
0000
0000
1000
0000
0000
0100
,
0000
0000
0010
0000
0000
0001
2000
0000
0000
3010
0000
0200
0000
0000
0000
0301
0000
0000
0001
0000
0000
0000
0000
1000
,
0000
0000
0000
2000
0000
0000
3100
0000
0020
0000
0000
0000
0031
0000
0000
0010
0000
0000
0100
0000
0000
1000
0000
0000
,
0001
0000
0000
1000
0000
0000
0020
0000
0130
0000
0000
0020
0000
0000
0000
1030
0000
0000
0001
0000
0000
0010
0000
0000
,
0002
0000
1003
0000
0000
0200
0000
0000
0000
0300
0000
0000
0020
0000
0031
0000
0000
0000
0020
0000
0031
0000
0000
1000
,
0000
0000
0000
0001
0000
0000
2000
0000
3010
0000
0000
0200
0000
0000
0000
0301
0000
0000
2000
0000
3100
0000
0000
0020
,
0000
0000
0000
0130
0000
1000
0002
0000
0000
2003
0000
0000
3004
0000
0000
0000
0000
0000
0000
0000
0000
0000
0000
0000
,
0403
0000
0000
0000
0300
0020
1030
0001
,
0020
0000
0000
0000
0130
0000
0000
0000
0000
0000
2000
0000
0000
0000
0000
0000
0000
0000
3001
0000
0000
0000
0000
0000
0100
0000
0000
0010
0000
0000
0100
0000
0000
0010
0000
0000
0100
0000
0000
0001
0000
0000
1000
0000
0000
0001
0000
0000
,
1000
0000
0000
0100
0000
0000
0010
0000
0000
0001
0000
0000
0010
0000
0000
0100
0000
0000
1000
0000
0000
0001
0000
0000
0000
0200
0000
0000
0000
0301
0000
0000
0000
1000
0000
0000
0010
0000
0000
0100
0000
0000
0010
0000
0000
1000
0000
0000
,
0001
0000
1000
0000
0000
0000
0002
0000
0000
0013
0000
0100
0000
0000
0020
0000
0000
0000
0031
0000
0000
1000
0000
0000
0100
0000
0000
0010
0000
0000
0001
0000
0000
0010
0000
0200
0000
0000
0000
1300
0000
0000
0001
0000
0000
0010
0000
0000
,
0001
1000
0010
0100
0004
0000
0000
0000
4003
0000
0000
0000
3020
0000
0130
0000
,
0002
0000
0000
0000
0000
2003
0000
0000
0000
3200
0000
0000
0340
0000
0000
0000
0000
0000
0031
0000
0000
2000
0000
0000
,
3002
0203
0320
2030
3004
0000
0043
0000
,
0034
4000
0000
0000
0000
0000
0000
0000
0000
0000
0000
0000
3003
0000
0000
0002
0000
0000
4003
0004
0000
0000
0000
0000
,
0000
0000
0000
0000
0000
3003
0002
4003
,
3400
0000
0000
0310
0000
0000
0001
0010
0100
1000
0100
0010
0001
0010
0100
1000
0000
0000
0000
0000
0000
0001
0000
0000
,
0100
0000
0000
0010
0000
0000
2000
0000
3001
0000
0000
2000
0000
0000
0000
3001
0000
0040
0400
0000
0000
0000
0000
0000
,
0000
0000
0000
0000
0000
0330
1100
0000
,
0000
0000
0000
0000
0000
0000
0000
0000
0000
0000
0000
0000
0000
0000
0000
2000
0000
3000
1001
0000
0000
0004
0000
0000
,
0000
0000
0000
0000
0000
0000
0000
0000
0000
0003
0000
0000
4000
0000
0000
0000
3000
0000
1010
0000
0000
0010
0000
0000
,
0100
0000
0000
0001
0000
0000
2000
0000
0000
0000
0000
3200
0000
0000
0000
0300
0000
0000
0010
0000
0000
0100
0000
2000
,
0000
0000
0000
3001
0000
0000
0100
0000
0000
0001
0000
2000
0000
0000
0000
3002
0000
0000
1003
0000
0100
0000
1000
0000
,
0001
0000
0010
0000
0001
0000
1000
0000
0000
0000
0000
0000
2020
0000
0000
3030
0000
0000
0010
0000
0000
0100
0000
0000
,
0002
0000
0000
1003
0000
0200
0000
0000
0000
0310
0000
0000
0100
0000
0000
2000
0000
0000
3001
0000
0000
0100
0000
0000
,
0020
0000
0000
1030
0000
0002
0000
0000
0000
0013
0000
0000
0100
0000
0000
2000
0000
0000
3001
0000
0000
0010
0000
0000
,
0002
0000
2003
0000
0000
3200
0000
0000
0000
0310
0000
0000
0002
0000
0000
2003
0000
0000
3020
0000
0000
0130
0000
0000
,
0001
0000
0000
1000
0000
0000
0100
0000
0000
0010
0000
0002
0000
0000
0000
0003
0000
0000
0000
0000
0000
1000
0000
0000
,
0010
0000
0000
1000
0000
0000
0001
0000
0000
0010
0000
0200
0000
0000
0000
0300
0000
0000
0000
0000
0000
1000
0000
0000
,
0001
0000
0000
0100
0000
0000
0010
0000
0000
0100
0000
0002
0000
0000
0000
0003
0000
0000
0000
0000
0000
1000
0000
0000
,
0001
0000
0000
0010
0000
0000
0001
0000
0000
1000
0000
0020
0000
0000
0000
0030
0000
0000
0100
0000
0000
0001
0000
0000
,
1000
0000
0200
0000
0000
0300
0220
0000
0000
0330
0000
0000
0040
0000
0000
0000
0000
0000
0031
0000
0000
1000
0000
0000
,
0010
0000
0000
0000
0000
2000
0000
0000
0000
3001
0000
0000
0010
0000
0000
0200
0000
0000
1300
0000
0000
0001
0000
0000
,
0100
0000
0000
0000
0000
0020
0000
0000
0000
1030
0000
0000
0001
0000
0000
0020
0000
0000
0130
0000
0000
1000
0000
0000
,
0001
0000
0000
0000
0000
0200
0000
0000
0000
0310
0000
0000
1000
0000
0000
0001
0000
0000
0010
0000
0000
0001
0000
0000
,
1000
0000
0000
0010
0000
0000
0100
0000
0000
0001
0000
2000
0000
0000
3200
0000
0000
0000
0300
0000
0000
0010
0000
0000
,
0100
2000
3001
0100
0010
2000
3001
0010
,
0100
0000
0000
1000
0000
0000
0001
0000
0000
0100
0000
0020
0000
0000
0000
0030
0000
0000
1000
0000
0000
0001
0000
0000
,
0100
0000
0000
0010
0000
0000
0100
0000
0000
0001
0000
2000
0000
0000
0000
3001
0000
0000
0010
0000
0000
0100
0000
0000
,
0010
0000
0002
0000
0000
2003
0000
0000
0000
0000
3040
0000
0000
0000
0030
0000
0000
0000
0000
0000
0000
1000
0000
0000
,
0001
0000
0000
0010
0000
0000
0100
0000
0000
0010
0000
0002
0000
0000
0000
1003
0000
0000
0010
0000
0000
1000
0000
0000
,
0001
0000
0000
0010
0000
0000
0100
0000
0000
1000
0000
0000
0002
0000
0103
0000
0000
0020
0000
0000
0000
1030
0000
0000
,
0001
0000
0010
0000
0100
0000
2000
0000
0000
3001
0000
0200
0000
0000
0000
0310
0000
0000
1000
0000
0000
0001
0000
0000
,
0010
0000
0000
0100
0000
0000
1000
0000
0000
0002
0000
0013
0000
0000
0000
0100
0000
0000
2000
0000
3001
0000
0000
0000
,
0100
0000
0000
0020
0000
1030
0000
0000
0000
0001
0000
0000
2000
0000
3010
0000
0000
0000
0000
0000
0000
0220
0000
0000
,
0030
0000
0000
0302
0000
0000
0000
0000
0000
4003
0040
0000
0000
0000
0000
0000
0000
0000
0000
0000
0000
0000
0000
0000
,
0000
0000
0000
0000
,
0000
0000
0000
0000
,
0000
0000
0000
3030
0000
0000
0000
0000
1000
0001
1000
0002
0000
0003
0000
0000
0000
0000
0202
0000
0000
0000
0000
0000
,
0303
0000
0000
0000
;

//---------------dance-single - AceOfArrows (2018)----------------
#NOTES:
     dance-single:
     AceOfArrows (2018):
     Easy:
     7:
     0.386,0.236,0.007,0.302,0.021:
0000
0000
0000
0000
,
0001
0040
0000
0000
0000
0000
0030
0000
,
0001
1000
0002
0000
0013
0000
0000
0000
,
0100
0100
1000
4000
,
3001
0000
0001
0000
1000
0100
1000
0000
,
0001
0100
0001
0000
1000
0000
2000
0000
,
3001
0010
0001
0000
4000
0000
0000
0000
,
3010
0100
0010
0000
0100
0000
0200
0000
,
0302
0000
0003
2000
0000
3000
0002
0000
,
0003
2000
0000
3000
0001
0100
0001
0000
,
1000
0001
1000
0000
0100
0000
0010
0000
,
0001
0010
0001
0000
0040
0000
0000
0030
,
0100
1000
0100
0000
0000
0020
0000
0000
,
0032
0000
0003
2000
0000
3000
0002
0000
,
0003
2000
0000
3000
0001
0010
0001
0000
,
2000
0000
3000
0000
0001
0100
0001
0000
,
2000
0000
3000
0000
0010
0100
0010
0000
,
0200
0000
0300
0000
0001
1000
0001
0000
,
0020
0000
0030
0000
0100
0010
0100
0000
,
1000
0001
1000
0000
0001
0010
0002
0000
,
0000
0000
0000
0003
0000
1000
0100
0000
,
0010
0000
0010
0000
0000
0001
1000
0000
,
0010
0040
0030
1000
,
0001
0010
0001
0000
1000
0001
1000
0000
,
0001
0010
0001
0000
0010
0000
0100
0000
,
1000
0001
1000
4000
,
3100
0400
0310
0040
,
0034
0000
0000
0000
1003
0010
1000
0000
,
0001
0010
0001
0000
1000
0100
1000
0000
,
0004
0000
0003
0000
0000
1000
0010
0000
,
0100
0000
0100
0000
0001
1000
0001
0000
,
0020
0000
0000
0030
0000
0001
1000
0000
,
1000
0000
0010
0100
0010
0000
1000
0000
,
0001
0010
0001
0000
0010
0000
0010
0000
,
0100
0000
0100
0000
1000
0100
1000
0000
,
0001
0001
0100
0100
,
0010
1000
0010
0000
0200
0000
0000
0300
,
0000
0000
0001
1000
0001
0000
0010
0100
,
0010
0000
0001
0010
0001
0000
1000
0000
,
0010
0000
0100
0001
0100
0000
0001
1000
,
0001
0000
1000
0100
1000
0000
0001
0000
,
0100
0000
0000
0001
1000
0000
0001
0010
,
0001
0000
0000
1000
0100
0000
0010
0100
,
0010
0000
0000
0001
1000
0000
0100
0010
,
0100
0000
1000
0001
1000
0000
0020
0000
,
0030
0000
0100
0001
0100
0000
0001
1000
,
0001
0000
0010
0100
0010
0000
0001
0010
,
0001
0000
1000
0010
1000
0000
0001
1000
,
0001
0000
1000
0100
1000
0000
0001
0100
,
0002
0000
0003
1000
0200
0000
0310
0100
,
0010
0000
0001
0010
0001
0000
1000
0010
,
1000
0000
0001
1000
0001
0000
1000
0100
,
1000
0000
0001
1000
0001
0000
0200
0000
,
0300
0000
0000
0010
0100
0010
0000
0000
,
2000
0000
3001
0010
0001
0000
1000
0000
,
0200
0000
0310
0001
0010
0000
0001
0000
,
2000
0000
3001
0010
0001
0000
0040
0000
,
0000
0000
0130
1000
0100
0000
1000
0000
,
0002
0000
0023
0000
0030
0200
0000
0300
,
0020
0000
0030
0200
0000
0300
1000
0001
,
1000
0000
0040
0000
0030
0000
1000
0001
,
1000
0000
0010
0000
0200
0000
0301
1000
,
0001
0000
0020
0000
0130
0000
0010
0001
,
0010
0000
0001
1000
0001
0000
0100
0010
,
0100
0000
0010
1000
0010
0000
0100
0000
,
0200
0000
0000
0000
0000
0300
0000
0001
,
1000
0000
0100
0000
0100
0000
0000
0010
,
0001
0000
1000
0010
4000
0000
0000
3001
,
0010
0000
0001
0000
0001
0000
1000
0010
,
1000
0000
0001
0100
0001
0000
1000
0000
,
0100
0010
0001
0010
,
0040
0031
0004
1003
,
4000
0000
3040
0000
0000
0000
0130
0001
,
0100
0000
0001
1000
0001
0000
1000
0100
,
1000
0000
0004
0000
0003
0000
0000
1000
,
0010
0000
1000
0001
1000
0000
0001
0010
,
0001
0000
2000
0000
0000
3000
0000
0001
,
0100
0000
0100
0000
0010
0100
0010
0000
,
1000
0001
1000
0000
0001
0000
0010
0000
,
0001
1000
0001
0000
2000
0000
3010
0000
,
0100
0001
0100
0000
0020
0000
1030
0000
,
0001
0010
0001
0000
2000
0000
3020
0000
,
0000
0030
0000
0000
1000
0001
1000
0000
,
0100
0010
0100
0000
1000
0001
1000
0000
,
0010
0100
0010
0000
1000
0001
1000
0000
,
0001
0100
0001
0000
1000
0100
1000
0000
,
0001
0010
0002
0000
0003
1000
0100
0000
,
0010
0100
0020
0000
0030
0001
1000
0000
,
0001
0100
0002
0000
1003
0100
1000
0000
,
0001
0010
0001
0000
1000
0010
1000
0000
,
0002
0000
0003
0000
0010
0100
0010
0000
,
0001
1000
0001
0000
1000
0010
1000
0000
,
0001
0100
0001
0000
0100
0010
0100
0000
,
0001
1000
0001
0000
1000
0100
1000
0000
,
0001
0010
0002
0000
0003
1000
0010
0000
,
1000
0001
1000
0000
0001
0010
0001
0000
,
0010
0100
0020
0000
0031
1000
0001
0000
,
2000
0000
3010
0000
0100
0001
0100
0000
,
0020
0000
0030
0000
0000
1000
0001
1000
,
0000
0000
0001
0010
0001
0000
0010
0000
,
0100
2000
3001
0001
,
0400
0000
0310
1000
,
0001
0010
0001
0000
4000
0000
0000
0000
,
0000
0000
0000
0000
3000
0004
0000
0000
,
0013
0100
0010
0000
0001
0000
1000
0010
,
1000
0001
0020
0030
,
0200
0000
0300
0000
1000
0100
1000
0000
,
0001
0010
0001
0000
1000
0001
1000
0000
,
0100
0100
0010
0010
,
0001
0010
0001
0000
1000
0010
1000
0000
,
0001
1000
0001
0000
0400
0000
0000
0000
,
0340
0000
0000
0000
0030
1000
0002
0000
,
0013
0000
0000
0000
0200
0000
0000
0000
1300
0100
2000
0000
3001
0010
0002
0000
,
1003
0000
0100
0000
0010
0100
0020
0000
0000
0000
0031
0010
0002
0000
1003
0100
,
2000
0000
3000
0000
0020
0000
0030
0000
1000
0001
2000
0000
3010
0100
0020
0000
,
1030
0001
2000
0000
3004
0000
0000
0000
0000
0000
0000
0000
0013
0000
0000
0000
,
0200
2300
3004
0403
,
0000
0000
0000
0340
,
0000
0000
0030
4000
,
0000
0000
0000
0000
0000
3000
0004
0000
,
0000
0003
1000
0001
2000
3000
0010
0000
,
0100
0000
0001
1000
0001
0000
0040
0000
,
0000
0000
0030
0110
,
0000
0000
0200
4300
,
0000
0000
3000
0000
0002
0000
0103
0010
,
0100
0000
0001
1000
0001
0000
1000
0000
,
0200
0000
0310
0001
0020
0000
0031
1000
,
0001
0000
0100
0000
0020
0000
1030
0001
,
1000
0000
0100
0010
0100
0000
1000
0001
,
1000
0000
0010
0100
0010
0000
1000
0010
,
1000
0000
0001
0010
0001
0000
1000
0100
,
1000
0000
0001
1000
0002
0000
0003
0010
,
0100
0000
1000
0001
2000
0000
3000
0001
,
0100
0000
0010
0100
0020
0000
0030
1000
,
0001
0000
0100
0010
0200
0000
0301
1000
,
0001
0000
0020
0000
0030
0000
0001
1000
,
0001
0000
0010
0100
0010
0000
0001
1000
,
0001
0000
1000
0010
1000
0000
0001
0010
,
0001
0000
1000
0100
1000
0000
0100
0010
,
0100
0000
1000
0001
2000
0000
3000
0001
,
0200
0000
0301
1000
0001
0000
0010
0100
,
0010
0000
0001
1000
0001
0000
1000
0100
,
1000
0000
0100
0010
0100
0000
1000
0100
,
1000
0000
0002
0000
0003
0000
0000
1000
,
0010
1000
0000
0000
0001
1000
0001
0000
,
1000
0100
1000
0000
0002
0000
0013
0100
,
0020
0000
0032
0000
1003
0010
1000
0000
,
0001
0000
0000
1000
0000
0000
0002
0000
0000
0000
0000
0013
0000
0000
0000
0200
0000
0000
0000
0000
0310
0000
0000
0000
,
0002
0000
0000
0000
0000
0013
0000
0000
0000
0200
0000
0000
0000
0000
0310
0000
0000
0000
0000
0000
0000
0002
0000
0000
,
0000
2003
0000
0400
0000
0000
0000
0000
,
0000
0000
0000
0000
,
0000
0000
0000
0000
,
0000
3300
4000
0000
3000
0000
2002
0000
,
3003
0000
0000
0000
;

//---------------dance-single - AceOfArrows (2018)----------------
#NOTES:
     dance-single:
     AceOfArrows (2018):
     Beginner:
     4:
     0.241,0.131,0.014,0.395,0.000:
0000
0000
0000
0000
,
4000
0000
3000
0000
,
0010
0010
0010
0000
,
0100
0100
0000
0000
,
0001
0001
0002
0003
,
1000
1000
2000
3000
,
0010
0000
0010
0000
0040
0000
0000
0030
,
1000
1000
2000
3000
,
0002
0000
0000
0000
,
0000
0000
0003
0000
,
1000
1000
2000
3000
,
0010
0000
0010
0000
0040
0000
0000
0030
,
0100
0100
0200
0300
,
0020
0000
0000
0000
,
0000
0030
1000
1000
,
1000
0000
0001
0001
,
0001
0000
0100
0100
,
0100
0000
0010
0010
,
0020
0030
1000
1000
,
2000
3000
0001
0002
,
0000
0000
0000
0003
0000
0000
1000
0000
,
1000
1000
0000
0010
,
0010
0000
0040
0000
0000
0030
0100
0000
,
0100
0000
0001
0001
,
0002
0003
1000
1000
,
2000
3000
0000
0400
,
0300
0040
0030
0004
,
0000
0003
1000
1000
,
1000
0000
0010
0010
,
0010
0000
0000
0100
,
0200
0300
0001
0001
,
0002
0003
0000
1000
,
1000
2000
3000
0100
,
0200
0300
0010
0010
,
0020
0030
0100
0100
,
0200
0300
1000
1000
,
2000
3000
0002
0003
,
0000
1000
1000
2000
,
3000
0010
0010
0020
,
0030
0100
0100
0200
,
0300
0001
0001
0002
,
0003
0000
1000
2000
,
3000
0000
0100
0100
,
0100
0000
1000
2000
,
3000
0001
0001
0001
,
0000
0100
0100
0200
,
0300
0010
0010
0020
,
0030
1000
1000
2000
,
3000
0001
0001
0002
,
0003
0000
0010
0020
,
0030
0100
0100
0200
,
0300
1000
1000
2000
,
3000
0001
0001
0001
,
0000
0400
0000
0000
,
0300
0010
0010
0020
,
0030
1000
1000
2000
,
3000
0001
0001
0004
,
0000
0003
1000
0000
1000
0000
2000
0000
,
3000
0200
0000
0000
,
0000
0000
0300
0010
,
0010
0040
0030
0001
,
0001
0002
0003
1000
,
1000
2000
3000
0010
,
0010
0020
0030
0100
,
0100
0200
0300
0001
,
0002
0000
0000
0000
0000
0003
0000
0000
,
1000
1000
1000
0000
,
0010
0000
0010
0000
0040
0000
0000
0030
,
0100
0200
0300
0001
,
0001
0002
0003
1000
,
1000
2000
3000
0000
,
0004
0003
4000
3000
,
0040
0000
0030
0100
,
0100
0200
0300
0001
,
0001
0001
0000
0000
,
1000
2000
3000
0010
,
0010
0020
0030
0000
,
0100
0200
0300
0000
,
0001
0002
0003
1000
,
1000
2000
3000
0100
,
0100
0200
0300
0010
,
0010
0020
0030
0002
,
0003
0000
1000
1000
,
2000
3000
0010
0010
,
0020
0030
1000
1000
,
2000
3000
0001
0001
,
0002
0003
0000
0010
,
0020
0030
0000
0100
,
0200
0300
1000
1000
,
2000
3000
0001
0001
,
0002
0003
0100
0100
,
0200
0300
0001
0001
,
0002
0003
1000
1000
,
2000
3000
0010
0010
,
0020
0030
0000
0100
,
0200
0300
0001
0001
,
0002
0003
1000
1000
,
2000
3000
0100
0100
,
0200
0300
0040
0000
,
0000
0030
0001
0001
,
0002
0003
1000
1000
,
2000
3000
0010
0010
,
0020
0030
0400
0000
,
0000
0300
0001
0001
,
0002
0003
1000
1000
,
2000
3000
0100
0100
,
0200
0300
0020
0030
,
0100
0100
0200
0300
,
2000
3000
0001
0001
,
0002
0003
1000
1000
,
2000
3000
0040
0000
,
0000
0000
0030
0100
,
0200
0300
0001
0001
,
0002
0003
1000
1000
,
2000
3000
0100
0200
,
0300
0040
0000
0030
,
0001
0001
0004
0000
,
0000
0003
0000
4000
,
0000
0000
3000
0040
,
0000
0000
0030
0400
,
0000
0300
0001
0000
0002
0000
0003
0000
,
0000
1000
1000
4000
,
0000
0000
3000
2002
,
3003
0000
0000
0220
,
0330
0000
0000
2002
,
3003
0002
0003
1000
,
1000
2000
3000
0010
,
0010
0010
0000
0100
,
0100
0200
0300
0001
,
0001
0002
0003
1000
,
1000
2000
3000
0100
,
0100
0200
0300
0000
,
0010
0020
0030
0000
,
0001
0002
0003
0000
,
1000
2000
3000
0010
,
0010
0020
0030
0100
,
0100
0200
0300
0001
,
0001
0002
0003
1000
,
1000
2000
3000
0100
,
0100
0200
0300
0000
,
0010
0020
0030
0100
,
0100
0200
0300
1000
,
1000
2000
3000
0001
,
0001
0002
0003
0400
,
0000
0000
0300
0010
,
0010
0020
0030
1000
,
2000
3000
0001
0002
,
0003
0040
0000
0000
,
0000
0000
0000
0000
0000
0000
0030
0100
,
0000
0400
0000
0000
0000
0000
0000
0000
,
0000
0000
0000
0000
,
0000
0000
0000
0000
,
0300
4000
3000
2002
,
3003
0000
0000
0000
;
