#TITLE:Star Story;
#SUBTITLE:;
#ARTIST:Miku Hatsune;
#TITLETRANSLIT:;
#SUBTITLETRANSLIT:;
#ARTISTTRANSLIT:;
#GENRE:J-Ballad;
#CREDIT:Ace Of Arrows;
#BANNER:Star Story - Bn.png;
#BACKGROUND:Star Story - Bg.jpg;
#LYRICSPATH:;
#CDTITLE:Ace Of Arrows.png;
#MUSIC:Star Story.ogg;
#OFFSET:3.100;
#SAMPLESTART:68.800;
#SAMPLELENGTH:12.000;
#SELECTABLE:YES;
#BPMS:0.000=70.000;
#STOPS:;
#BGCHANGES:;
#KEYSOUNDS:;

//---------------dance-single - Ace Of Hearts (2015)----------------
#NOTES:
     dance-single:
     Ace Of Hearts (2015):
     Challenge:
     8:
     0.414,0.113,0.048,1.000,0.078:
0000
0000
0000
0000
,
0001
0010
0001
0010
0100
1000
0100
1000
,
0001
0100
0001
0100
0010
1000
0010
1000
,
0001
0010
0001
0010
0100
1000
0100
1000
,
0001
0010
0001
0010
0100
1000
0001
1000
,
0100
1000
0001
0100
0010
1000
0010
1000
,
0001
0010
0001
0010
0100
1000
0100
1000
,
0001
0100
0001
0100
0010
1000
0010
1000
,
0001
0010
0001
0010
0100
1000
0001
0100
,
0002
1003
0100
0020
0032
2003
3020
0230
,
0000
0000
0000
0000
0000
0000
0302
0000
0000
0000
0000
0000
0003
0000
0000
0000
0000
0000
2000
0000
0000
0000
0000
0000
3200
0000
0000
0000
0000
0000
0320
0000
0000
0000
0000
0000
0230
0000
0000
0000
0000
0000
2300
0000
0000
3000
2000
0000
,
0000
0000
3002
0000
0003
0000
2000
0000
3200
0000
0320
0000
0032
0000
0013
0200
,
0000
0000
0320
0000
0032
0000
1003
0020
0000
0000
0230
0000
0301
1000
0002
0000
,
0203
0300
0000
0020
0230
0302
2003
3002
,
0000
0000
0003
2000
3200
0320
0230
2300
,
0000
0000
3002
0000
0003
0000
0020
0000
0230
0000
2300
0000
3002
0000
1003
0200
,
0000
0000
0320
0000
0032
0000
1003
0020
0000
0000
2030
0000
3001
0010
0002
0000
,
2003
0000
3000
0002
0203
0000
0320
2030
,
3002
0000
0000
0000
0023
0000
0130
2000
0000
0000
3002
0000
0000
0003
2000
0000
,
3020
0230
0302
2003
,
3200
0000
0000
0000
2300
0000
0000
0000
3002
0000
0000
0000
0023
0000
0000
0030
,
0220
0030
2000
0300
3002
0203
0320
2000
,
0000
0000
0000
0000
3030
0000
1000
0002
0000
0000
0023
0000
0230
0000
2300
0000
,
3002
0000
0003
0200
0320
2030
3002
0203
,
0302
0000
0003
0000
2000
0000
3010
0200
0000
0000
0300
0000
0002
0000
0000
0003
,
2002
0003
3020
0000
0230
0302
2003
0200
,
0000
0000
0000
0000
3300
0000
0100
0020
0000
0000
0032
0000
2003
0000
3020
0000
,
0230
0000
0300
0002
2003
3200
0320
0032
,
2003
0000
0000
0000
3000
0000
0002
0000
0023
0000
0000
0000
0230
0000
0000
0300
,
2200
0000
0000
0000
0000
0000
0000
0000
0000
0000
0000
0000
3300
0000
0000
1000
,
0002
0000
0013
0000
0100
0000
2000
0000
3001
0010
0001
0000
2000
0000
0000
0000
,
3200
0000
0000
0000
0000
0000
1300
0001
2000
0000
0000
3020
0000
0000
0130
0000
,
0002
0000
1003
0100
2000
0000
3001
0000
0200
0000
0310
0000
1000
0000
0001
0000
,
0020
0000
0000
0000
0230
0000
1300
0001
2000
0000
3010
0200
0000
0301
1000
0100
,
2000
3002
0203
0320
,
2030
0000
0000
3002
0000
0013
0100
1000
0200
0000
0000
0000
0320
0000
0032
0000
,
2003
0000
3100
0100
0020
0000
0032
0000
2003
0000
3020
0000
0230
0000
0302
0003
,
2002
0003
3000
0002
0203
0302
2003
3200
,
0000
0320
0030
0002
2003
3020
0230
0302
,
0000
0000
2003
0000
3000
0000
0020
0000
0230
0000
0302
0000
2003
0000
3010
0200
,
0000
0000
0302
0000
2003
0000
3100
0020
0000
0000
0032
0000
1003
0100
2000
3000
,
2002
3003
0000
0002
0203
0320
0230
0302
,
0000
0000
0000
0000
0000
0000
2003
0000
0000
0000
0000
0000
3000
0000
0000
0000
0000
0000
0002
0000
0000
0000
0000
0000
0203
0000
0000
0000
0000
0000
0320
0000
0000
0000
0000
0000
2030
0000
0000
0000
0000
0000
3002
0000
0000
0003
0002
0000
,
0000
0000
0203
0000
0300
0000
0020
0000
0230
0000
0302
0000
2003
0000
3001
0200
,
0000
0000
0320
0000
2030
0000
3001
0020
0000
0000
0230
0000
2300
0000
3002
0003
,
0202
0000
0303
0200
0320
0000
2030
3002
,
2003
0000
0000
0000
3002
0000
0013
0200
0000
0000
2300
0000
0000
0000
3002
0000
,
0023
0032
2003
3002
,
0023
0000
0000
0000
0230
0000
0000
0000
2300
0000
0000
0000
3002
0000
0000
0003
,
0202
0003
0020
0300
2030
3002
0203
0020
,
0000
0000
0000
0000
0330
0000
0010
2000
0000
0000
3002
0000
0023
0000
0230
0000
,
2300
0000
0000
0000
3000
0000
0001
0100
0002
0000
2003
0000
3200
0000
2300
0000
,
3002
0000
0003
0000
0200
0000
0310
2000
0000
0000
3000
0000
0002
0000
0003
0000
,
0022
0003
0200
0030
2300
3002
0203
0002
,
0000
0000
0000
0000
0303
0000
0001
2000
0000
0000
3200
0000
0320
0000
0230
0000
,
2300
0000
0000
0000
3000
0000
0100
0010
0200
0000
2300
0000
3002
0000
0203
0000
,
0320
0000
0000
0000
0030
0000
0200
0000
0302
0000
0000
0000
2003
0000
0000
3000
,
2200
0000
0000
3300
,
1000
0001
1000
0001
0010
0100
0010
0100
,
1000
0100
1000
0100
0010
0001
0010
0001
,
1000
0010
1000
0010
0100
0001
1000
0010
,
0200
0301
0100
0001
1000
0100
1000
0100
,
0010
0001
0010
0001
1000
0001
1000
0001
,
0100
0010
0100
0010
1000
0001
1000
0001
,
2000
0100
0001
0100
3002
1000
0100
1003
,
2200
3000
0020
0300
0032
2003
3002
0020
,
0000
0000
0000
0000
0033
0000
0010
0200
0000
0000
2300
0000
3002
0000
0203
0000
,
0320
0000
0030
2000
3002
0023
0230
2300
,
3002
0000
0003
0000
2000
0000
3010
0200
0000
0000
0300
0000
0002
0000
0003
0000
,
0022
0003
0200
0030
2300
3002
2003
0020
,
0000
0000
0000
0000
3030
0000
1000
0002
0000
0000
0023
0000
0230
0000
2300
0000
,
3002
0000
0000
0000
0003
0000
0100
0010
0200
0000
0302
0000
2003
0000
3200
0000
,
0320
0000
0000
0000
0030
0000
0200
0000
2300
0000
0000
0000
3002
0000
0000
0003
,
0202
0003
0320
2030
,
3002
0000
0000
0000
0003
0000
1000
0100
2000
0000
3002
0000
0203
0000
0320
0000
,
2030
0000
3001
0010
0200
0000
0320
0000
,
0032
0000
0000
0000
2003
0000
3010
0100
0020
0000
0000
0000
0230
0000
0000
0300
,
0102
2003
3200
0320
,
0032
0000
0000
0000
0003
0000
1000
0001
2000
0000
3001
0000
0010
0000
0100
0000
,
2000
0000
3001
0100
0020
0000
2030
0000
,
3002
0000
0000
0000
0003
0000
0010
0100
0020
0000
0031
2000
0000
0000
3002
0003
,
0202
0000
0000
0000
,
0303
0000
0000
0000
;

//---------------dance-single - Ace Of Hearts (2015)----------------
#NOTES:
     dance-single:
     Ace Of Hearts (2015):
     Hard:
     7:
     0.291,0.085,0.000,0.529,0.041:
0000
0000
0000
0000
,
1000
0100
1000
0000
0001
0100
0001
0000
,
1000
0010
1000
0000
0001
0100
0001
0000
,
1000
0001
1000
0000
0100
0010
0100
0000
,
1000
0100
1000
0000
0001
0010
0100
0000
,
0010
0001
0010
0000
0100
1000
0100
0000
,
1000
0001
1000
0000
0010
1000
0010
0000
,
0100
0001
0100
0000
0010
0100
0010
0000
,
1000
0001
1000
0000
0001
0010
0100
0010
,
0002
0000
0003
1000
0010
1000
0010
0200
,
0000
0302
0003
1000
0100
1000
0100
0020
,
0000
0000
0032
0000
0003
0000
1000
0000
0001
0000
1000
0000
0001
0000
0010
0200
,
0000
0000
0310
0000
0001
0000
0010
0200
0000
0000
2300
0000
3001
0000
0100
0000
,
0002
0003
0000
1000
0010
1000
0010
0200
,
0000
0000
0300
0001
1000
0001
1000
0200
,
0000
0000
0320
0000
0030
0000
0001
0000
0010
0000
0001
0000
0010
0000
0100
2000
,
0000
0000
3001
0000
1000
0000
0001
0020
0000
0000
0031
0000
1000
0000
0002
0000
,
0003
0000
0000
1000
0020
0000
0130
0001
,
0200
0000
0000
0000
0310
0000
1000
0002
0000
0000
2003
0000
0000
0000
3200
0000
,
0320
0230
2300
3002
,
0203
0320
2030
3002
,
0203
0000
0320
0000
1030
0001
1000
0020
,
0000
0000
0000
0000
0030
0000
1000
0002
0000
0000
0013
0000
0100
0000
0010
0000
,
0002
0000
0003
1000
0010
1000
0001
1000
,
0002
0000
0003
0000
0020
0000
0130
2000
0000
0000
3000
0000
0002
0000
0000
0000
,
2003
0000
3020
0000
0130
0001
0100
0002
,
0000
0000
0000
0000
0003
0000
1000
0200
0000
0000
0310
0000
0100
0000
0010
0000
,
0002
0000
0003
1000
0010
1000
0001
1000
,
0002
0000
0003
0010
0200
0000
2300
0000
,
3002
0000
0000
0000
0000
0000
0003
1000
,
0200
0000
0000
0320
0000
0000
0130
0000
2000
0000
0000
0000
3002
0000
0000
0000
,
0203
0000
0000
0000
0000
0000
0310
0000
2000
0000
0000
3002
0000
0000
0013
0000
,
0200
2300
3002
0203
,
0320
0000
0000
0000
1030
0000
0001
0000
2000
0000
0000
3200
0000
0000
0310
0000
,
0002
2003
3020
0230
,
0302
0000
0000
1003
0000
0000
0001
0000
0200
0000
0000
0000
0310
0000
1000
0000
,
0020
0000
0000
0230
0000
0000
0301
0000
1000
0000
0100
0000
1000
0000
0001
0000
,
0200
0000
0300
0010
1000
0010
1000
0002
,
0000
0203
0300
0010
1000
0001
1000
0002
,
0000
0000
0023
0000
0030
0000
0100
0000
1000
0000
0100
0000
1000
0000
0001
0020
,
0000
0000
0031
0000
1000
0000
0010
0200
0000
0000
0301
0000
1000
0000
0001
0000
,
0200
0000
0300
0001
1000
0001
1000
0200
,
0000
0320
0030
0001
1000
0001
1000
0020
,
0000
0000
0230
0000
0300
0000
0001
0000
0100
0000
0001
0000
1000
0000
0001
2000
,
0000
0000
3001
0000
0010
0000
0100
2000
0000
0000
3001
0000
0100
0000
0002
0000
,
0003
0000
0000
1000
0200
0000
0310
0001
,
0020
0000
0000
0000
0130
0000
0010
0200
0000
0000
2300
0000
0000
0000
3001
0000
,
0200
0302
2003
3200
,
0320
0230
2300
3002
,
0203
0000
0320
0000
1030
0001
0100
0020
,
0000
0000
0000
0000
0030
0000
1000
0002
0000
0000
0013
0000
0100
0000
1000
0000
,
0002
0000
0003
1000
0010
0100
0010
1000
,
0002
0000
0003
0000
1000
0000
0001
0020
0000
0000
0030
0000
0200
0000
0300
0000
,
2000
0000
3002
0000
0103
0010
1000
0002
,
0000
0000
0000
0000
0003
0000
1000
0200
0000
0000
0310
0000
0001
0000
0010
0000
,
0200
0000
0300
1000
0001
0100
0001
1000
,
0020
0000
0030
1000
0002
0000
0023
0000
,
0230
0000
0000
0300
,
1000
0100
1000
0000
0001
0100
0001
0000
,
1000
0001
1000
0000
0100
1000
0100
0000
,
0010
0001
0010
0000
0001
1000
0100
1000
,
0002
0000
0003
0000
1000
0100
1000
0000
,
0010
1000
0010
0000
0100
0001
0100
0000
,
0001
1000
0001
0000
0010
0100
0010
0000
,
0001
0010
0001
0000
1000
0010
1000
0001
,
0020
0000
0230
0000
1300
0001
0100
0020
,
0000
0000
0000
0000
0030
0000
1000
0002
0000
0000
0013
0000
0100
0000
1000
0000
,
0002
0000
0003
1000
0010
0100
0010
1000
,
0002
0000
0003
0000
2000
0000
3100
0020
0000
0000
0030
0000
0002
0000
0003
0000
,
2000
0000
3020
0000
0130
0001
1000
0002
,
0000
0000
0000
0000
0003
0000
0010
0200
0000
0000
1300
0000
0001
0000
0100
0000
,
0020
0000
0030
0100
0001
1000
0100
0010
,
0002
0000
0003
1000
0020
0000
0230
0000
,
0302
0000
2003
3020
,
0230
0000
0000
0301
1000
0100
1000
0001
,
0020
0230
2300
3002
,
0203
0000
0000
0310
2000
0000
3002
0000
,
0203
0320
2030
3002
,
2003
0000
0000
3010
0100
0001
0100
0010
,
2000
0000
3001
0010
0002
0000
2003
0000
,
3200
0000
0000
0310
0002
0000
2003
0000
,
3002
0000
0000
0000
,
0003
0000
0000
0000
;

//---------------dance-single - Ace Of Hearts (2015)----------------
#NOTES:
     dance-single:
     Ace Of Hearts (2015):
     Medium:
     5:
     0.248,0.085,0.000,0.449,0.000:
0000
0000
0000
0000
,
0001
1000
0001
0000
1000
0001
1000
0000
,
0010
0100
0010
0000
0100
0010
0100
0000
,
0001
0100
0001
0000
0100
0001
0100
0000
,
0001
1000
0001
0000
1000
0001
1000
0000
,
0002
0000
0003
0000
1000
0100
1000
0000
,
0100
1000
0100
0000
0010
0001
0010
0000
,
0001
0010
0001
0000
1000
0001
1000
0000
,
0001
1000
0001
0000
0010
0100
0010
0000
,
0200
0000
0300
1000
0001
0000
1000
0002
,
0000
0003
0000
0010
0100
0000
0010
0200
,
0000
0300
0000
0010
0002
0003
1000
0100
,
1000
0000
0001
1000
0001
0000
1000
0100
,
2000
3000
0000
0001
0010
0000
0001
0020
,
0000
0030
0000
0100
1000
0000
0100
2000
,
0000
3000
0000
0001
0200
0000
0310
0100
,
0010
0000
1000
0001
1000
0000
0001
0100
,
0002
0000
0003
1000
0200
0000
0310
0100
,
0020
0000
0031
1000
0002
0003
0000
1000
,
0020
2030
3002
2003
,
3200
0320
0032
0023
,
0230
0000
2300
0000
3001
1000
0001
2000
,
0000
0000
3000
0000
0001
0010
0001
0000
,
2000
0000
3000
0000
0020
0000
0130
0010
,
0100
0000
0001
0100
0002
0000
1003
0000
,
0200
0000
2300
0000
3100
0010
0100
0020
,
0000
0000
0030
0000
0001
0010
0001
0000
,
2000
0000
3000
0000
0001
0100
0001
0000
,
2000
0000
3000
0001
0020
0000
0230
0000
,
2300
0000
3001
1000
,
0010
0000
0100
0001
0200
0000
0320
0000
,
0230
0000
0000
0301
2000
0000
3001
0010
,
0002
2003
3002
0023
,
0032
0000
0000
1003
0200
0000
1300
0001
,
2000
3020
2030
3002
,
0203
0000
0310
0000
2000
0000
3001
0010
,
0002
0000
1003
0100
2000
0000
3001
0100
,
0002
0000
0003
1000
0010
0000
1000
0002
,
0000
0003
0000
1000
0100
0000
1000
0002
,
0000
0003
0000
1000
0020
0000
1030
0001
,
1000
0000
0001
0010
0001
0000
1000
0100
,
2000
3000
0000
0001
0100
0000
0001
2000
,
0000
3000
0000
0001
0010
0000
0001
2000
,
0000
3000
0000
0010
0200
0000
0301
1000
,
0001
0000
1000
0100
1000
0000
0001
0010
,
0002
0000
0003
1000
0200
0000
1300
0000
,
0002
0000
1003
0010
2000
3000
0000
0001
,
2000
3002
2003
3002
,
0203
0320
0230
0302
,
2003
0000
3200
0000
0310
0001
0020
0002
,
0000
0000
0033
0000
0010
0100
0010
0000
,
0002
0000
0003
0000
1000
0010
1000
0000
,
0002
0000
0103
0010
0200
0000
0302
0003
,
2000
0000
3002
0000
1003
0010
2000
0020
,
0000
0000
3030
0000
1000
0001
1000
0000
,
0200
0000
0300
0000
0010
0001
0010
0000
,
0200
0000
0300
0010
0002
0000
2003
0000
,
3200
0000
0000
0300
,
0010
0100
0010
0000
0100
0010
0100
0000
,
1000
0001
1000
0000
0001
1000
0001
0000
,
1000
0100
1000
0000
0001
0010
0001
0000
,
2000
0000
3000
0000
0001
0100
0001
0000
,
1000
0010
1000
0000
0001
0010
0001
0000
,
1000
0100
1000
0000
0001
0100
0001
0000
,
1000
0001
1000
0000
0010
0100
0020
0000
,
2030
0000
3002
0000
1003
0100
2000
0002
,
0000
0000
3003
0000
1000
0100
1000
0000
,
0002
0000
0003
0000
1000
0010
1000
0000
,
0002
0000
0103
0010
0200
0000
0302
0000
,
2003
0000
3200
0000
0310
0001
0020
0200
,
0000
0000
0330
0000
0010
0001
0010
0000
,
0200
0000
0300
0000
1000
0001
1000
0000
,
0020
0000
0030
1000
0002
0000
2003
0000
,
3200
0000
0320
0230
,
2300
0000
3000
0000
0001
0010
0001
0000
,
2000
0000
3000
0001
0200
0000
0320
0000
,
0230
0000
0000
0301
2000
0000
3002
0000
,
2003
3020
2030
3002
,
0203
0000
0300
0000
0001
1000
0001
0000
,
2000
0000
0000
3001
0200
0000
0320
0000
,
2030
0000
0000
3001
0020
0000
0230
0000
,
2300
0000
0000
0000
,
3000
0000
0000
0000
;

//---------------dance-single - Ace Of Hearts (2015)----------------
#NOTES:
     dance-single:
     Ace Of Hearts (2015):
     Easy:
     3:
     0.155,0.057,0.000,0.301,0.000:
0000
0000
0000
0000
,
2000
3000
0020
0030
,
0200
0300
0002
0003
,
2000
3000
0002
0003
,
0020
0030
0200
0000
,
0300
0000
2000
3000
,
0002
0003
0200
0300
,
0020
0030
2000
3000
,
0002
0003
0020
0000
,
0030
0000
0100
0100
,
0200
0300
1000
1000
,
2000
3000
0001
0001
,
1000
1000
0001
0001
,
0002
0003
0010
0010
,
0020
0030
0001
0001
,
0002
0003
1000
1000
,
0010
0010
1000
2000
,
3000
0000
0010
0010
,
0020
0000
0030
0000
,
0100
0100
0001
0001
,
1000
1000
0010
0010
,
0200
0302
1003
1000
,
2000
3000
0001
0001
,
0002
0003
0100
0100
,
0100
0010
0020
0030
,
2000
3002
0013
0010
,
0020
0030
0100
0100
,
0200
0300
1000
1000
,
2000
3000
0001
0001
,
0002
0000
0000
0003
,
2000
0000
3100
0100
,
0200
0000
0310
0010
,
0020
0000
0031
0001
,
0002
0000
1003
1000
,
2000
0000
3010
0010
,
0020
0000
2030
0000
,
3002
0000
0203
0000
,
0300
0000
0010
0010
,
0020
0030
1000
1000
,
2000
3000
0001
0001
,
0010
0010
0100
0100
,
0200
0300
0010
0010
,
0020
0030
0001
0001
,
0002
0003
1000
1000
,
0010
0010
0100
0200
,
0300
0000
0001
0001
,
0001
1000
2000
3000
,
0100
0100
0010
0010
,
0100
0100
1000
1000
,
0002
2003
3010
0010
,
0020
0030
0100
0100
,
0200
0300
0001
0001
,
0001
1000
2000
3000
,
0010
0010
0100
0100
,
0200
0300
0010
0010
,
0020
0030
1000
1000
,
2000
3000
0001
0001
,
0002
0000
0000
0003
,
2000
3000
0020
0030
,
0200
0300
0002
0003
,
2000
3000
0002
0000
,
0003
0000
0020
0030
,
0200
0300
2000
3000
,
0002
0003
0200
0300
,
0020
0030
2000
3000
,
0002
0023
0130
0100
,
0200
0300
1000
1000
,
2000
3000
0001
0001
,
0001
0100
0200
0300
,
0010
0010
1000
1000
,
2000
3000
0001
0001
,
0002
0003
0010
0010
,
0020
0030
0100
0100
,
0200
0000
1300
1000
,
2000
0000
3001
0001
,
0002
0000
0013
0010
,
0020
0000
0130
0100
,
1000
1000
0001
0001
,
0002
0000
0103
0100
,
0200
0000
0310
0010
,
0020
0000
1030
1000
,
2000
0000
0000
0000
,
3000
0000
0000
0000
;

//---------------dance-single - AceOfHearts (2015)----------------
#NOTES:
     dance-single:
     AceOfHearts (2015):
     Beginner:
     1:
     0.091,0.028,0.000,0.135,0.000:
0000
0000
0000
0000
,
0001
0000
0001
0000
,
0001
0000
1000
0000
,
1000
0000
1000
0000
,
0010
0000
0020
0000
,
0030
0000
0100
0000
,
0100
0000
0001
0000
,
0001
0000
0001
0000
,
1000
0000
2000
0000
,
3000
0000
0001
0000
,
0002
0003
1000
0000
,
2000
3000
0010
0000
,
0010
0000
0010
0000
,
0020
0030
0100
0000
,
0200
0300
0001
0000
,
0002
0003
1000
0000
,
1000
0000
2000
0000
,
3000
0000
0001
0000
,
0001
0000
0001
0000
,
0020
0030
0020
0030
,
0020
0030
0020
0030
,
0002
0003
2000
0000
,
0000
3000
0100
0000
,
0100
0000
0010
0000
,
0010
0000
0002
0003
,
2000
3000
0200
0000
,
0000
0300
1000
0000
,
1000
0000
0001
0000
,
0001
0000
0100
0000
,
0200
0000
0000
0300
,
0010
0000
0010
0000
,
1000
0000
0001
0000
,
0001
0000
0100
0000
,
0200
0300
0001
0000
,
0001
0000
1000
0000
,
1000
0000
0100
0000
,
0100
0000
2000
0000
,
3000
0000
0001
0000
,
0001
0000
0100
0000
,
0100
0000
0010
0000
,
0010
0000
0010
0000
,
0020
0030
1000
0000
,
1000
0000
0001
0000
,
0001
0000
0100
0000
,
0100
0000
0200
0000
,
0300
0000
0010
0000
,
0010
0000
0010
0000
,
2000
3000
2000
3000
,
2000
3000
2000
3000
,
0002
0003
0020
0000
,
0000
0030
0100
0000
,
0100
0000
1000
0000
,
1000
0000
0001
0000
,
0200
0300
0020
0000
,
0000
0030
0100
0000
,
0100
0000
0001
0000
,
0001
0000
1000
0000
,
2000
0000
0000
3000
,
0001
0000
0001
0000
,
0010
0000
0010
0000
,
0001
0000
0002
0000
,
0003
0000
1000
0000
,
0010
0000
0010
0000
,
0100
0000
0100
0000
,
0001
0000
0001
0000
,
2000
0000
0002
0000
,
0000
3003
1000
0000
,
1000
0000
0010
0000
,
0010
0000
2000
3000
,
0020
0000
0200
0000
,
0000
0330
0010
0000
,
0010
0000
1000
0000
,
1000
0000
0001
0000
,
0002
0000
0000
0000
,
0003
0000
1000
0000
,
1000
0000
0100
0000
,
0100
0000
1000
0000
,
0001
0000
0001
0000
,
0001
0000
1000
0000
,
1000
0000
0010
0000
,
0010
0000
0100
0000
,
0200
0000
0000
0000
,
0300
0000
0000
0000
;
