#TITLE:Shokuza Belladonna;
#SUBTITLE:;
#ARTIST:ave-new feat. Saori Sakura;
#TITLETRANSLIT:;
#SUBTITLETRANSLIT:;
#ARTISTTRANSLIT:;
#GENRE:;
#CREDIT:Ace Of Arrows;
#BANNER:Shokuza Belladonna - Bn.png;
#BACKGROUND:Shokuza Belladonna - BG.jpg;
#LYRICSPATH:;
#CDTITLE:Ace Of Arrows.png;
#MUSIC:Shokuza Belladonna.ogg;
#OFFSET:2.910;
#SAMPLESTART:116.300;
#SAMPLELENGTH:12.000;
#SELECTABLE:YES;
#BPMS:0.000=78.000,20.000=84.000,46.000=78.000,48.000=85.000,60.000=156.000,180.000=78.000,218.000=156.000,302.000=78.000,338.000=156.000,370.000=78.000,397.000=156.000,417.000=78.000,423.000=156.000,467.000=78.000,485.000=156.000;
#STOPS:;
#BGCHANGES:;
#KEYSOUNDS:;

//---------------dance-single - Ace Of Arrows (2017 to 2018)----------------
#NOTES:
     dance-single:
     Ace Of Arrows (2017 to 2018):
     Challenge:
     12:
     0.840,0.000,0.222,1.000,0.746:
0000
0000
0000
0000
,
0000
0000
0000
0000
,
0000
0000
0000
0000
,
0000
0000
0000
0000
,
0000
0000
0000
0000
,
0002
0013
0100
1000
0002
1003
0010
0100
,
0001
2000
0000
3001
0040
0000
0031
1000
,
0020
0000
0000
0130
0002
1003
0100
0010
,
0200
0000
0000
0000
0000
0000
0000
0000
0000
0000
0000
0000
0000
0000
0000
0300
0400
0000
0000
0000
0000
0000
0000
0000
0000
0000
0000
0000
0300
0000
0000
0000
,
2000
3001
0100
0010
2000
3001
0010
0100
,
0010
0002
0000
1003
0040
0030
1000
0001
,
0020
0130
1000
0001
0200
0000
0302
2003
,
0020
0000
0000
0000
,
0000
0000
0000
0000
0000
0000
0000
0000
0000
0000
0000
0000
0000
0000
0000
0030
0040
0000
0000
0000
0000
0000
0000
0000
0000
0000
0000
0000
0000
0000
0000
0000
,
3030
0000
0000
0000
,
1000
0001
2000
0000
3010
0100
0001
0100
0010
1000
0001
0010
0100
0010
0001
1000
,
0002
0000
0013
0100
1000
0100
0010
0000
0002
0000
1003
0000
0010
0000
0200
0000
,
0000
0000
0301
1000
0200
0000
0310
0001
1000
0001
0100
0000
0020
0000
1030
0000
,
0002
0000
0013
0100
2000
0000
3001
0100
0010
0100
0001
0000
1000
0000
0200
0000
,
0000
0000
0310
0001
0010
0000
0100
0000
2000
0000
3001
0100
0010
0000
1000
0000
,
0002
0000
0013
0100
1000
0100
0010
0000
0002
0000
1003
0000
0010
0000
0200
0000
,
0000
0000
0301
1000
0100
1000
0001
0000
0100
0010
0100
0010
1000
0001
0020
0000
,
0230
0000
1300
0001
0100
0001
1000
0000
0100
0000
0010
0000
0100
0000
2000
0000
,
0000
0000
3001
0000
0200
0000
0310
0000
2000
0000
3001
0010
0100
1000
0100
0010
,
0002
0000
1003
0010
0100
0000
0001
0000
1000
0000
0100
0000
0010
0000
0012
0000
,
0000
0000
1003
0000
0010
0000
0100
0000
0104
0000
0000
0000
2003
0000
3100
0010
,
0002
0000
1003
0010
0400
0000
0301
1000
,
1200
0000
0000
0320
0000
0000
0031
0000
1000
0010
0100
0001
0100
0010
1000
0000
,
1002
0000
0103
0010
1000
0000
0001
0000
0010
0000
0001
0000
1000
0000
1020
0000
,
0000
0000
0130
0000
0001
0000
1000
0000
1400
0000
0000
0000
0310
0000
0001
1000
,
0020
0000
0000
0000
0130
0000
0001
0000
2001
0000
0000
3200
0000
0000
0310
0000
,
0011
0000
0001
0000
1001
0000
1000
0000
1020
0000
0000
0200
0030
0000
0301
1000
,
0200
0000
0310
0000
0002
0000
1003
0000
0020
0000
1030
0001
0100
0001
1000
0010
,
2000
0000
3100
0002
0000
0103
2000
0000
3001
0200
0000
2300
0000
3100
0001
1000
,
0200
0000
0310
0002
0000
0000
2003
0000
3010
0002
0000
0023
0000
1030
0002
0000
,
0023
0000
0130
2000
0000
3100
0002
0000
0203
0000
1300
0001
1000
0200
0000
0000
,
0310
0001
1000
0010
0100
0001
2000
0000
3001
0010
0100
0010
0001
0000
1001
0000
,
0201
0000
0010
0000
0302
0000
1003
0100
0010
0000
0001
0000
1000
0000
1200
0000
,
0000
0000
0310
0000
0001
0000
0201
0000
0000
0000
0310
0000
1000
0000
0001
0010
,
0200
2300
0000
3001
0200
0010
0301
2000
,
0000
0000
3100
0000
0001
0000
0100
0010
0001
0010
0100
0000
1000
0000
0001
0100
,
0020
0000
0000
0000
0000
0000
1030
0001
0010
0000
0100
0000
1000
0000
1020
0000
,
0000
0000
0130
0000
0010
0000
0002
0000
0000
0000
0023
0000
0030
0000
1000
0001
,
2000
0000
3001
0000
0100
0000
1000
0100
0010
0000
0001
0000
0000
0000
0041
0000
,
0000
0000
0030
0000
0200
0000
1000
0301
1000
0001
0010
0000
0002
0000
0000
0003
,
0201
0000
0000
0000
0310
0000
2000
0000
0000
0000
3001
0000
0040
0000
0000
0000
0030
0000
0000
0000
0200
0000
0000
0000
2300
0000
0000
3002
0000
0000
0203
0000
,
0320
0000
0000
0000
1030
0000
0200
0000
0000
0000
0310
0000
0004
0000
0000
0000
0003
0000
0000
0000
2000
0000
0000
0000
3020
0000
0000
0230
0000
0000
0301
0000
,
4000
0000
3000
0100
0020
0000
0030
0000
0200
0000
1300
0002
0000
0000
0200
0000
,
0020
0000
0000
0000
0000
0000
0000
0000
0000
0000
0000
0000
0000
0000
0000
0000
0333
0000
0000
0000
0002
0000
0000
0000
2003
0000
0000
0000
3400
0000
0000
0300
,
0120
0000
0031
2000
0000
0000
3010
0100
0002
0000
1003
0400
0000
0300
0010
0001
,
2000
0000
3010
0200
0000
0000
0304
0000
2003
0000
0000
3400
0000
0300
0010
0100
,
2000
0000
0000
0000
0000
3000
0004
0000
0203
0000
0000
0340
0000
0000
2030
0000
,
0002
0000
0000
0000
3000
0000
0000
0000
0023
0000
0130
0100
1000
1000
0001
0001
,
0100
0000
0000
0000
0000
0000
0000
0000
0000
0000
0000
0000
0100
0000
0000
0000
0000
0000
0000
0000
0000
0000
0000
0000
0001
0000
0000
0000
0000
0000
0000
0000
0000
0000
0000
0000
1000
0000
0000
0000
0000
0000
0100
0000
0000
0000
0000
0000
1000
0000
0000
0000
0000
0000
0000
0000
0000
0000
0000
0000
0001
0000
0000
0000
0000
0000
0010
0000
0000
0000
0000
0000
0100
0000
0000
0000
0000
0000
0010
0000
0000
0000
0000
0000
0001
0000
0000
0000
0000
0000
0000
0000
0000
0000
0000
0000
4000
0000
0000
0000
0400
0000
0000
0000
0000
0000
0000
0000
0000
0000
0000
0000
0000
0000
0000
0000
0000
0000
0000
0000
0000
0000
0000
0000
0000
0000
0000
0000
0000
0000
0000
0000
0000
0000
0000
0000
0000
0000
0000
0000
0000
0000
0000
0000
0000
0000
0000
0000
0000
0000
0000
0000
0000
0000
0000
0000
0000
0000
0000
0000
0000
0000
0000
0000
0000
0000
0000
0000
3300
0000
0000
0000
0000
0000
0000
0000
0000
0000
0000
0000
0000
0000
0000
0000
0000
0000
0000
0000
0000
0000
0000
0000
,
0000
0000
1000
0001
1000
0000
0001
0010
0100
1000
0100
0010
0001
0000
1000
0000
1020
0000
0000
0000
0130
0000
0001
0000
1000
0000
0000
0000
0100
0000
0000
0000
,
0010
0001
1000
1020
0000
0130
0001
1000
,
1400
0000
0000
0000
0310
0000
0001
1000
0020
0000
0000
0000
0130
0000
0001
0000
,
0021
0000
0130
1000
0001
0000
1000
0010
0200
0000
0000
0302
0000
0000
1003
0100
,
0020
0000
0130
1000
0001
0000
0100
0010
2000
0000
3001
0010
0100
0000
0010
0000
,
0012
1003
0010
0210
0000
0301
0100
1000
,
0400
0000
0000
0000
0301
0000
1000
0001
0020
0000
0000
0000
0230
0000
0000
0000
,
0302
0000
0000
2003
0000
0000
3010
0000
0001
0000
0100
0000
1000
0000
0100
0001
,
2000
0000
3100
0010
0001
0000
1000
0010
0200
0000
0301
1000
0100
0010
0100
1000
,
0002
0000
0000
0023
0000
0000
0130
0000
1000
0002
0000
0203
0000
0310
2000
0000
,
3002
0000
0013
2000
0000
3010
0001
1000
0002
0000
0103
2000
0000
3100
0002
0000
,
1003
0200
0000
0320
0000
0031
1000
0010
0200
0000
0301
1000
0002
0000
0013
0100
,
2000
0000
3010
0100
0002
0000
2003
0000
3100
0010
0100
1000
0001
0100
0020
0000
,
2030
3000
1001
0000
0001
0010
0100
0010
0001
1000
0001
0000
1000
0000
0001
0100
,
0010
0100
0001
1000
0010
0000
1000
0001
1000
0000
0100
0000
0110
0000
0010
0001
,
1000
0010
0100
0010
1000
0000
0001
0010
0001
0000
0100
0000
0110
0000
0010
1000
,
0001
1000
0010
0100
0010
0000
1000
0001
0100
0001
1000
0000
0100
0000
0010
0001
,
1000
0001
0010
0100
1000
0001
0200
0000
0010
0000
0302
0000
0000
0000
1003
0100
,
0010
0000
0001
0000
1000
0000
1020
0000
0130
0000
0001
1000
0100
0000
0010
0100
,
1000
0000
0100
0010
0001
0000
1000
0010
0200
0000
0301
0000
1000
0000
0100
0001
,
0100
0000
2000
0000
3000
0000
0001
0100
0010
0100
0001
0000
1000
0000
0100
0010
,
0001
0000
1000
0000
0010
1000
0001
1000
0020
0000
1030
0002
0000
0013
0400
0000
,
0300
0000
0000
0000
1000
0000
0000
0000
0002
0000
0000
0203
0000
0000
0310
0000
2010
0000
0000
0000
3001
0000
0020
0000
0000
0000
0031
0000
4000
0000
0000
0000
,
3000
0000
0000
0000
0002
0000
0000
0000
0203
0000
0000
0320
0000
0000
1030
0000
1002
0000
0000
0000
0000
0000
0103
0000
0040
0000
0000
0000
0030
0000
0000
0000
,
2000
0000
3001
2000
0000
0000
0200
0000
0020
0000
0000
0000
0000
0000
0000
3330
,
0000
0000
0000
0000
2000
0000
0000
0000
3002
0000
0000
0000
0403
0000
0000
0300
0120
0000
0000
0000
1030
0000
0002
0000
0000
0000
0000
0000
1003
0000
0100
0000
,
0020
0000
0000
0000
0130
0000
4000
0000
0000
3000
0000
0000
0001
0000
0100
0000
0120
0000
0000
0000
0130
0000
0002
0000
0000
0000
0000
0000
4003
0000
0000
0000
,
3020
0000
0000
0000
0000
0000
0430
0000
0000
0000
0300
0000
0002
0000
0000
0003
2002
0000
0000
0000
0000
0000
0000
0000
0003
0000
3000
0000
0002
0000
0000
0000
,
0023
0000
0000
0430
0000
0000
2300
0000
3002
0000
0013
0100
1000
1000
0001
0001
,
0100
0000
0100
0000
0010
0000
0010
0000
1000
0000
1000
0000
0001
0000
0001
0000
1000
0100
0010
0000
0100
0000
0010
0001
1000
0000
0001
0010
0100
1000
0100
0010
,
0004
4000
0000
0000
0000
0000
0000
0000
0000
0000
0000
0000
0000
0000
0000
0000
0000
0000
0000
0000
0000
3003
0000
0000
1200
0000
0000
0000
0000
0000
0310
0000
0000
0001
0000
0000
2000
0000
0000
0000
0000
0000
3001
0000
0000
0100
0000
0000
,
0010
0100
0001
0000
1000
0100
0010
0100
1000
0001
1000
0000
0010
0000
0210
0000
,
0000
0000
0301
0000
1000
0000
0100
0000
0120
0000
0031
1000
0010
0000
0100
0010
,
1000
0010
0100
0000
0001
0000
2001
0000
0000
0000
3100
0010
0001
0000
1000
0000
,
0020
0000
0130
0001
1000
0000
0100
0000
0010
0100
1000
0000
0001
0000
0010
0100
,
1000
0100
0010
0000
0001
0000
2001
0000
0000
0000
3010
0100
0001
0000
1000
0000
,
0100
0010
0001
0010
0100
0000
1000
0000
1002
0000
0103
0010
1000
0000
0001
0000
,
0010
0100
1000
0000
0001
0000
0201
0000
0000
0000
0310
1000
0001
0000
0010
0000
,
0110
0100
1000
0001
2001
0000
3100
0102
,
0000
0000
0000
1003
0000
0010
0002
0000
0000
2003
0000
0000
3010
0000
0000
0410
0000
0000
0301
0000
1000
0100
0000
0000
,
0120
0000
0000
0000
0000
0000
0031
0000
1000
0020
0000
0000
0130
0000
0001
1000
0000
0000
0200
0000
0000
0301
0000
0100
,
1000
0000
0000
1002
0000
0103
0010
0000
0000
1000
0000
0000
1200
0000
0000
0000
0000
0310
0001
0000
1000
0002
0000
0000
,
0103
0000
1000
0100
0000
0001
2000
0000
0000
3100
0000
0010
0001
0010
0100
2000
0000
0000
3002
0000
0013
1000
0000
0000
,
1020
0000
0000
0000
0000
0031
1000
0000
0000
1020
0000
0000
0230
0000
0301
1000
0000
0000
1200
0000
0310
0002
0000
0000
,
1003
0000
0000
0000
0000
0000
1020
0000
0000
0000
0000
0000
0000
0000
0000
0000
0130
0000
0001
0000
0000
0000
0000
0000
4000
0000
0000
0000
0000
0000
0000
0000
0000
0000
0000
0000
3001
0000
0010
0000
0100
0000
0040
0004
0000
0000
0000
0000
,
0000
0000
0000
0033
1001
0000
1000
0010
0100
0000
0001
1000
0100
1000
0001
0000
,
0100
0000
0010
0100
0001
0000
1000
0000
0100
0010
0001
0010
0100
1000
0001
0000
,
1000
0010
0100
0001
2000
0000
3001
0010
0100
0000
0010
0001
1000
0000
0010
0000
,
0100
0001
1000
0000
0100
0000
0010
0001
1000
0000
0001
0100
0010
0000
0100
0000
,
0001
1000
0100
0010
0200
0000
1300
0001
0100
0000
0010
1000
0001
1000
0100
0000
,
0020
0000
0030
0000
0200
0000
1300
0002
0000
0000
2003
3000
2220
3300
0130
0002
,
1003
0000
1200
0000
0320
0000
0031
0000
2001
0000
3010
0000
0200
0000
0301
0000
1000
0100
0010
0001
0010
0100
1000
0001
1000
0000
0100
0000
0010
0000
0000
0000
,
0001
0000
1000
0010
0200
0000
0301
0000
1000
0100
0010
0000
0100
0000
1000
0001
,
0100
0000
0010
0100
0001
0000
1000
0000
0100
0010
0001
0010
0200
0000
1300
0001
,
0100
0000
0010
1000
0001
0000
0010
0000
0100
1000
0001
0000
0200
0000
0310
1000
,
0001
0000
0010
0100
1000
0100
0010
0000
0001
1000
0010
0000
0210
0000
0301
1000
,
0100
0000
0010
0100
1000
0100
0020
0000
0031
1000
0010
0000
0100
0001
1000
0000
,
0100
0010
0001
0000
2000
0000
3010
0100
0001
0000
1000
0100
0020
0000
0130
0000
,
1000
0000
1002
0000
0103
0000
0010
0000
2010
0000
3001
0000
0021
0000
0130
1000
,
0002
0000
0103
0010
1000
0001
0010
0100
0010
0001
1000
0000
0001
0100
0010
0000
,
1000
0000
0000
0001
0000
0000
0010
0000
0000
0100
0000
0000
0010
0000
0000
0001
0000
0000
1000
0000
0000
0010
0000
0000
0100
0000
0000
0001
0000
0000
1000
0000
0000
0000
0000
0000
0001
0000
0100
0000
0001
0000
0100
0000
0001
0000
0100
0000
,
0010
0000
0100
0000
0010
0000
0100
0000
0010
0000
0100
0000
0001
0000
0100
0000
0001
0000
0100
0000
0001
0000
0100
0000
0020
0000
0000
0000
0000
0000
0000
0000
0000
0000
0000
0000
1030
0000
0000
0001
0000
0000
0200
0000
0000
0000
0000
0000
,
0301
0000
1000
0000
0100
0000
0010
0000
0001
0000
0000
0000
1001
0000
0000
0000
1000
0000
0010
0000
0100
0000
0001
0000
2000
0000
3001
0010
0100
0000
0010
0000
,
0001
1000
0010
0002
0000
0013
1000
0001
0040
0000
0030
0100
2000
0000
3001
0100
,
4000
0000
0000
0000
3000
0000
0001
0000
0020
0000
0000
2030
0000
0000
3001
0000
0200
0000
0000
0000
0300
0000
0000
0000
0002
0000
1003
0100
0010
0000
0001
0000
,
1000
0000
0010
0000
0001
0000
0020
0000
0000
0000
1030
0000
0100
0000
0001
0000
0400
0000
1300
0001
1000
0000
0100
0000
0020
0000
0000
0000
0031
0000
1000
0000
,
0020
0000
0000
0230
0000
0000
0301
0000
1000
0000
0100
0000
0001
0000
0100
0000
2000
0000
3001
0010
0002
0000
1003
0100
0010
0001
0010
0100
2000
0000
3001
0100
,
0010
0100
0001
1000
0001
0010
0100
1000
0002
0000
0000
0000
1003
0000
0010
0000
0100
0000
0000
0000
0001
0000
0000
0000
1000
0000
0000
0000
0100
0000
0000
0000
,
0010
0000
0012
0000
0000
0000
1003
0000
0010
0000
0100
0000
0102
0000
1003
0100
,
0010
0000
0001
1000
0020
0000
0130
0001
1000
0000
0100
0010
0001
0010
0100
0000
,
1000
0000
0001
0100
0020
0000
0000
2030
0000
0000
3002
0000
0013
0100
1000
0100
,
0010
0000
0100
1000
0002
0000
1003
0010
0100
0000
0001
0000
1000
0000
0001
0000
,
0010
0000
0210
0000
0000
0000
1300
0000
0001
0000
0100
0010
1000
0010
0100
0000
,
0001
0000
1000
0100
0020
0000
0000
0000
2000
0000
0030
0000
0002
3000
0000
0200
,
0003
0000
1300
0000
0001
0000
0100
0000
1000
0000
0100
0001
1000
0001
0100
0000
,
0110
0000
0010
1000
0001
1000
0020
0000
0230
0000
0301
1000
0200
0000
0000
0320
,
0000
0000
0031
1000
0002
0000
0013
2000
0000
3010
0002
0000
1003
0020
0000
0130
,
0002
0000
2003
0000
3100
0002
0000
0203
0000
1300
0001
0100
0010
2000
0000
3002
,
0000
0103
2000
0000
3200
0000
0301
1000
0200
0000
0320
0000
0031
1000
0010
1000
,
0002
0000
0103
0010
1000
0001
0010
0100
0010
0001
1000
0010
0100
0010
1000
0001
,
0010
0100
1000
0001
0200
0000
0000
0000
0000
0000
0020
0300
0002
0000
0000
0000
,
0000
0030
2000
0003
0200
3000
0002
0300
2000
0003
0200
3000
0002
0000
0000
0000
,
0300
0000
0000
0000
2003
0000
3010
0001
1000
0000
0010
0000
0200
0000
0000
0000
,
0302
0000
0000
0000
2003
0000
3100
0010
0002
0000
2003
0000
3010
0100
0001
0000
,
1000
0000
0100
0010
0002
0000
0000
0000
1003
0000
0010
0000
0200
0000
0000
0000
,
0302
0000
2003
0000
3200
0000
0310
0001
2000
0000
3020
0000
0230
0000
0000
0000
,
0302
0000
1003
0100
0020
0000
0000
0000
0230
0000
2300
0000
3002
0000
0103
0010
,
2000
0000
3002
0000
0013
0100
1000
0001
0100
0001
1000
0100
0020
0000
0130
1000
,
0001
0100
0020
0000
0130
0001
1000
0100
0010
0100
1000
0000
2020
0000
0000
0000
,
3030
0000
0000
0000
;

//---------------dance-single - AceOfArrows (2018)----------------
#NOTES:
     dance-single:
     AceOfArrows (2018):
     Hard:
     10:
     0.599,0.000,0.024,1.000,0.279: // measure 1
0000
0000
0000
0000
,  // measure 2
0000
0000
0000
0000
,  // measure 3
0000
0000
0000
0000
,  // measure 4
0000
0000
0000
0000
,  // measure 5
0000
0000
0000
0000
,  // measure 6
2000
3001
0100
0001
2000
3100
0010
0001
,  // measure 7
0010
0200
0000
1300
0004
0000
1003
0100
,  // measure 8
0020
0000
0000
0130
1000
0001
1000
0100
,  // measure 9
0020
0000
0000
0000
0000
0000
0000
0000
0000
0000
0000
0000
0000
0000
0000
0030
0040
0000
0000
0000
0000
0000
0000
0000
0000
0000
0000
0000
0030
0000
0000
0000
,  // measure 10
0002
1003
0010
0100
0020
1030
0001
0010
,  // measure 11
0100
2000
0000
3001
0400
0300
0010
1000
,  // measure 12
0002
0013
0100
1000
0002
0000
1003
0200
,  // measure 13
0020
0000
0000
0000
,  // measure 14
0000
0000
0000
0000
0000
0000
0000
0000
0000
0000
0000
0000
0000
0000
0000
0030
0040
0000
0000
0000
0000
0000
0000
0000
0000
0000
0000
0000
0000
0000
0000
0000
,  // measure 15
0330
0000
0000
0000
,  // measure 16
0001
0010
0001
0000
1000
0000
0010
0000
0100
0000
0001
0000
1000
0100
0010
0100
,  // measure 17
2000
0000
3001
0100
0001
0000
1000
0000
0100
0000
0010
0000
0100
0000
2000
0000
,  // measure 18
0000
0000
3001
0000
1000
0000
0100
0010
0100
0000
1000
0000
0001
0000
0100
0000
,  // measure 19
0020
0000
1030
0001
1000
0000
0100
0000
1000
0000
0001
0000
0010
0000
0200
0000
,  // measure 20
0000
0000
0310
0001
0010
0000
0100
0000
1000
0000
0001
0000
0100
0000
0010
0000
,  // measure 21
2000
0000
3001
0010
0001
0000
1000
0000
0010
0000
1000
0000
0001
0000
0020
0000
,  // measure 22
0000
0000
0130
0010
0100
0000
1000
0000
0001
0100
0010
0100
0001
0000
1000
0000
,  // measure 23
0200
0000
1300
0001
1000
0000
0010
0000
0100
0000
0001
0000
1000
0000
0002
0000
,  // measure 24
0000
0000
0013
0000
0100
0000
1000
0000
0001
0000
0100
0010
0100
0000
0001
0000
,  // measure 25
2000
0000
3100
0010
0100
0000
1000
0000
0001
0000
0100
0000
0010
0000
2000
0000
,  // measure 26
0000
0000
3001
0000
0010
0000
0100
0000
4000
0000
0000
0000
3000
0000
0001
0100
,  // measure 27
0002
0000
1003
0100
0040
0000
0030
0100
,  // measure 28
2000
0000
0000
3002
0000
0000
0013
0000
0200
0000
0000
0000
0300
0000
0000
0000
,  // measure 29
2000
0000
3001
0100
0001
0000
1000
0000
0100
0000
0010
0000
0100
0000
2000
0000
,  // measure 30
0000
3001
0100
0010
4000
0000
3000
0000
,  // measure 31
0020
0000
0000
0000
0130
0000
0001
0000
2000
0000
0000
3200
0000
0000
0310
0000
,  // measure 32
0001
0000
1000
0000
0001
0000
0100
0000
0020
0000
0000
2030
0000
0000
3001
0010
,  // measure 33
0002
0000
1003
0000
0010
0000
0100
0000
0002
0000
0000
2003
0000
0000
3100
0000
,  // measure 34
2000
0000
3001
0020
0000
0000
0031
0000
1000
0200
0000
2300
0000
3001
0200
0000
,  // measure 35
0320
0000
1030
0002
0000
0000
2003
0000
3010
0200
0000
0302
0000
1003
0200
0000
,  // measure 36
0320
0000
0031
1000
0002
0000
0203
0000
0320
0000
1030
0001
2000
0000
3200
0000
,  // measure 37
0310
0001
1000
0001
0020
0000
0230
0000
2300
0000
0000
0000
3000
0000
0000
0000
,  // measure 38
1002
0000
0000
0000
0000
0000
1003
0010
1000
0000
0001
0000
0010
0000
0200
0000
,  // measure 39
0000
1300
0001
0020
0000
0031
1000
0200
,  // measure 40
0000
2300
0000
3001
0100
0010
1000
0002
,  // measure 41
0000
0013
0100
4000
0000
3000
0000
1002
,  // measure 42
0000
0000
0000
0000
0000
0000
1003
0010
1000
0000
0001
0000
0010
0000
0200
0000
,  // measure 43
0000
0310
0001
2000
0000
3020
0000
0230
,  // measure 44
0000
0301
1000
0100
0010
0001
0000
4002
,  // measure 45
0000
3003
2000
0000
3020
0000
0230
0000
,  // measure 46
0302
0000
0000
0000
1003
0000
0200
0000
0000
0000
0310
0000
0004
0000
0000
0000
0003
0000
0000
0000
2000
0000
0000
0000
3200
0000
0000
0320
0000
0000
0031
0000
,  // measure 47
2000
0000
0000
0000
3010
0000
0200
0000
0000
0000
0301
0000
4000
0000
0000
0000
3000
0000
0000
0000
0002
0000
0000
0000
2003
0000
0000
3020
0000
0000
0130
0000
,  // measure 48
0002
0000
0000
1003
0200
0000
0300
0000
0020
0000
0130
2000
0000
0000
3002
0000
,  // measure 49
0020
0000
0000
0000
0033
0002
2003
3020
,  // measure 50
0230
0000
0301
2000
0000
0000
3100
0010
0200
0000
1300
0004
0000
0003
1000
0001
,  // measure 51
2000
0000
3100
0020
0000
0000
0430
0000
2300
0000
0000
3004
0000
0003
2000
0000
,  // measure 52
0020
3000
0000
0000
0000
0000
0000
0000
0000
0000
0000
0000
0430
0000
0000
0000
0302
0000
0000
0000
0000
0000
4003
0000
0000
0000
0000
0000
3020
0000
0000
0000
,  // measure 53
0230
0000
0000
0000
0000
0300
0002
2003
,  // measure 54
3200
0000
0000
0000
0340
0000
0000
0030
,  // measure 55
0000
0004
0000
0000
0000
0000
0000
0000
2003
0000
3010
0100
0010
0000
1000
0000
,  // measure 56
0001
0010
0100
2000
0000
3001
0100
0010
,  // measure 57
0400
0000
0000
0000
0300
0000
0001
1000
0002
0000
0000
0000
0013
0000
0100
0000
,  // measure 58
4000
0000
0000
0000
3000
0000
0001
0000
0200
0000
0000
0320
0000
0000
1030
0000
,  // measure 59
0002
0000
0000
0000
0003
0000
0000
0000
2000
0000
3001
0010
0001
0000
1000
0000
,  // measure 60
0010
1000
0001
0020
0000
0130
1000
0001
,  // measure 61
0400
0300
0020
2030
,  // measure 62
3002
0000
0000
0023
0000
0000
0130
0000
1000
0000
0001
0000
0100
0000
0010
0000
,  // measure 63
2000
0000
0000
3002
0000
0000
0013
0100
0020
0000
0031
0000
1000
0000
0010
0000
,  // measure 64
0200
0000
0000
0320
0000
0000
1030
0000
0002
0000
1003
0200
0000
0000
1300
0000
,  // measure 65
0001
0020
0000
0032
0000
1003
0020
0000
0230
0000
0301
2000
0000
0000
3002
0000
,  // measure 66
0103
0020
0000
2030
0000
3001
0020
0000
0230
0000
1300
0001
2000
0000
3020
0000
,  // measure 67
0230
0000
0301
1000
0002
0000
0023
0000
0130
1000
0001
1000
0200
0000
0320
0000
,  // measure 68
0031
0000
1000
0000
0100
0010
0100
0000
2100
0000
0000
0000
0000
0000
3001
0100
,  // measure 69
0001
1000
0100
0020
0000
0130
1000
0002
,  // measure 70
0000
1003
0010
0200
0000
0301
1000
0010
,  // measure 71
0100
0001
1000
0200
0000
0310
0100
4000
,  // measure 72
0000
0000
0000
0000
3000
0000
1002
0000
0000
0000
0000
0000
0000
0000
0103
0010
,  // measure 73
0100
0001
1000
0200
0000
0310
0001
2000
,  // measure 74
0000
3040
0000
0230
0000
0301
1000
0100
,  // measure 75
0010
0002
0003
2002
0000
3003
0002
0000
,  // measure 76
0203
0000
0000
0000
0302
0000
0000
0000
2003
0000
3100
0020
0000
0130
4000
0000
,  // measure 77
3000
0000
0000
0000
0002
0000
0000
0000
0203
0000
0000
0320
0000
0000
1030
0000
0002
0000
0000
0000
0013
0000
0200
0000
0000
0000
1300
0000
0004
0000
0000
0000
,  // measure 78
0003
0000
0000
0000
2000
0000
0000
0000
3020
0000
0000
0230
0000
0000
0301
0000
2000
0000
0000
0000
0000
0000
3001
0000
0040
0000
0000
0000
0030
0000
0000
0000
,  // measure 79
0200
0000
1300
0002
0000
0000
2003
0000
0020
0000
0000
0000
0000
0000
0000
3030
,  // measure 80
0000
0000
2000
0000
3002
0000
0023
0000
0230
0000
1300
0002
0000
0000
1003
0100
,  // measure 81
2000
0000
3001
0400
0000
0300
0001
1000
0002
0000
0013
0200
0000
0000
4300
0000
,  // measure 82
3002
0000
0000
0403
0000
0300
0020
0000
2030
0000
0000
0000
0000
0000
3002
0000
,  // measure 83
0203
0000
0000
0340
0000
0000
0230
0000
0302
0000
0000
0000
0000
0000
0000
0000
,  // measure 84
0000
0003
2000
3100
0020
0000
0000
0000
,  // measure 85
0400
0000
0000
0000
0030
0000
0000
0000
2300
0000
3001
0010
0001
0000
1000
0100
,  // measure 86
0010
0100
1000
0000
0001
0000
0200
0000
0000
0000
0301
0000
1000
0000
0200
0000
,  // measure 87
0000
0000
0310
0000
0001
0000
2000
0000
0000
0000
0000
0000
0000
0000
3001
0100
,  // measure 88
0001
0000
1000
0000
0100
0000
0020
0000
0000
0000
0130
1000
0100
0000
0010
0000
,  // measure 89
0001
0000
1000
0000
0010
0000
0100
0000
0001
0000
1000
0100
1000
0000
0001
0000
,  // measure 90
0100
0000
0010
0000
1000
0000
0004
0000
0000
0000
0000
0000
0000
0000
1003
0010
,  // measure 91
1000
0000
0001
0000
0010
0000
0100
0000
0020
0000
0031
1000
0001
0000
0100
0000
,  // measure 92
0010
0000
1000
0000
0001
0000
0020
0000
0000
0000
0130
1000
0100
0000
0010
0000
,  // measure 93
0001
1000
0010
0100
0002
0000
1003
0020
,  // measure 94
0000
0230
0302
2003
3020
0430
0000
0300
,  // measure 95
0002
0000
2003
3200
0000
0320
0230
2300
,  // measure 96
3002
0203
0320
0030
2000
0000
3002
0023
,  // measure 97
0000
0000
0000
0032
0000
0000
2003
0000
0000
3020
0000
0000
0230
0000
0000
0302
0000
0000
2003
0000
3100
0040
0000
0000
,  // measure 98
0230
0000
2300
3002
0023
0000
0032
2003
,  // measure 99
3020
0230
0000
0000
0000
0000
0300
0002
,  // measure 100
2003
3200
0320
0000
0130
2000
0000
3001
,  // measure 101
0400
0000
0000
0000
0300
0000
0000
0000
0020
0000
0000
0000
2030
0000
0000
3002
,  // measure 102
0000
0013
0200
0000
1300
0002
0000
1003
,  // measure 103
0400
0000
0000
0000
0300
0000
0000
0000
2000
0000
0000
0000
3002
0000
0000
0203
,  // measure 104
0000
0310
2000
0000
0000
3001
0020
0000
,  // measure 105
0030
0000
0000
0000
0002
0000
1003
0020
0000
0000
0230
0000
0002
0000
0000
0000
,  // measure 106
0000
0000
0000
0303
0000
0000
0200
0000
0320
0000
2030
0000
3002
0000
0000
0000
,  // measure 107
0013
0200
0000
0000
1300
0001
0200
0000
,  // measure 108
0310
4000
0000
3000
0001
0010
0200
0000
,  // measure 109
0310
0002
0000
0000
4003
0000
3020
0000
,  // measure 110
0000
0430
0000
0300
0001
1000
0200
0000
,  // measure 111
0000
0000
0320
0032
,  // measure 112
0000
4003
0000
0000
3020
0000
0230
0000
,  // measure 113
0000
0000
0000
0000
0000
0000
0000
0000
0000
0000
0000
0000
0000
0000
0000
0300
0400
0000
0000
0000
0000
0000
0000
0000
0000
0000
0000
0000
0300
0000
0000
0000
,  // measure 114
0000
0002
2003
3020
,  // measure 115
0000
0000
0000
4030
,  // measure 116
3004
0000
0000
0000
0043
0000
0000
0000
0230
0000
0000
0000
1300
0001
1000
0000
,  // measure 117
0100
0000
0000
0000
0010
0000
0001
0000
1000
0000
0001
0000
0010
0000
0000
0000
0100
0000
0000
0000
1000
0000
0000
0000
0002
0000
1003
0100
1000
0000
0001
0000
,  // measure 118
0100
0010
0100
0002
0000
1003
0100
0010
0400
0000
0300
1000
0002
0000
1003
0100
,  // measure 119
4000
0000
0000
0000
3000
0000
0001
0000
0200
0000
0000
0320
0000
0000
1030
0000
0002
0000
0000
0000
0003
0000
0000
0000
2000
0000
3001
0010
0001
0000
1000
0000
,  // measure 120
0100
0010
0001
0020
0000
0130
1000
0001
4000
0000
3000
0000
0002
0000
0103
0010
,  // measure 121
0200
0000
0000
0302
0000
0000
1003
0000
0100
0000
1000
0000
0001
0000
0010
0000
0002
0000
0000
4003
0000
0000
0000
0000
0000
0000
0000
0000
0000
0000
0000
0000
,  // measure 122
3400
0000
0000
0000
0320
0000
0031
1000
0001
0000
0100
0000
0010
0000
1000
0000
,  // measure 123
0001
0020
0000
0031
1000
0010
0400
0000
,  // measure 124
0300
0000
0001
0100
0002
0000
0000
0000
1003
0000
0100
0000
0040
0000
0000
0000
,  // measure 125
0030
0000
0001
0000
2000
0000
0000
3020
0000
0000
0130
0000
0002
0000
0000
0000
,  // measure 126
0003
0000
0000
0000
2000
0000
3100
0010
0100
0000
1000
0000
0001
0000
0100
0000
,  // measure 127
0010
2000
0000
3001
0100
0010
0400
0000
,  // measure 128
0300
0000
0000
0000
0002
0000
0000
0000
2003
0000
0000
0000
3200
0000
0000
0320
,  // measure 129
0000
0000
0130
0000
1000
0000
0001
0000
1000
0000
0010
0000
0200
0000
0000
0302
,  // measure 130
0000
0000
1003
0100
2000
0000
3001
0000
0100
0000
0010
0000
2000
0000
0000
3002
,  // measure 131
0000
0000
0013
0000
0002
0000
1003
0200
0000
0000
1300
0000
0001
0020
0000
0032
,  // measure 132
0000
1003
0020
0000
0230
0000
0301
2000
0000
0000
3002
0000
0103
0020
0000
2030
,  // measure 133
0000
3001
0020
0000
0230
0000
1300
0001
2000
0000
3020
0000
0230
0000
0301
1000
,  // measure 134
0002
0000
0023
0000
0130
1000
0001
1000
0200
0000
0320
0000
0031
1000
0100
1000
,  // measure 135
0001
0100
0020
0000
0000
0130
0002
0000
,  // measure 136
0000
1003
0100
0010
0100
1000
0002
0000
,  // measure 137
0000
0000
0000
0000
2003
0000
3100
0010
0100
0000
1000
0000
0002
0000
0000
0000
,  // measure 138
0203
0000
0310
1000
0001
0010
0200
0000
,  // measure 139
0000
0000
2300
0000
3001
0010
0200
0000
,  // measure 140
0320
0000
0000
0000
0031
0000
1000
0010
1000
0000
0001
0000
0020
0000
0000
0000
,  // measure 141
0130
0000
1000
0000
0002
0000
0000
0000
0103
0000
0010
0000
1000
0000
0001
0100
,  // measure 142
0001
0000
1000
0000
0020
0000
0000
0000
0000
0000
0000
0000
1030
0000
0001
0100
,  // measure 143
0001
0000
1000
0000
0001
0010
0100
1000
0100
0010
0001
0000
2002
0000
0000
0000
,  // measure 144
3003
0000
0000
0000
;

//---------------dance-single - AceOfArrows (2018)----------------
#NOTES:
     dance-single:
     AceOfArrows (2018):
     Medium:
     8:
     0.494,0.000,0.000,0.880,0.147:
0000
0000
0000
0000
,
0000
0000
0000
0000
,
0000
0000
0000
0000
,
0000
0000
0000
0000
,
0000
0000
0000
0000
,
0002
0013
0100
1000
0200
0310
0001
1000
,
0001
0020
0000
0130
4000
0000
3001
0010
,
0002
0000
0000
1003
0010
1000
0001
0010
,
0200
0000
0000
0000
0000
0000
0000
0000
0000
0000
0000
0000
0000
0000
0000
0300
0400
0000
0000
0000
0000
0000
0000
0000
0000
0000
0000
0000
0300
0000
0000
0000
,
2000
3001
0010
0100
0020
0031
1000
0001
,
0100
0002
0000
1003
0400
0300
1000
0001
,
0010
0100
1000
0001
0200
0000
0301
1000
,
0020
0000
0000
0000
,
0000
0000
0000
0000
0000
0000
0000
0000
0000
0000
0000
0000
0000
0000
0000
0030
0040
0000
0000
0000
0000
0000
0000
0000
0000
0000
0000
0000
0000
0000
0000
0000
,
0030
0000
0000
0000
,
4000
0000
0000
3000
,
0001
0010
0100
1000
0100
0010
0001
2000
,
0000
3001
0100
0002
0000
1003
0100
0010
,
0001
0010
0100
1000
0001
0100
0010
0200
,
0000
0301
0100
0001
1000
0001
0020
0000
,
0130
1000
0001
1000
0010
1000
0001
0200
,
0000
0310
0100
0001
1000
0100
0020
0000
,
0130
1000
0100
0010
0001
1000
0001
0200
,
0000
0301
1000
0100
0010
0100
1000
0001
,
0010
0100
0010
0001
1000
0010
0100
0002
,
0000
1003
0100
0010
0400
0000
0300
1000
,
0002
0000
0013
0100
4000
0000
3000
0001
,
0200
0000
0000
0320
0000
0000
1030
0000
0002
0000
0000
0000
0003
0000
0000
0000
,
1000
0100
0010
0001
0010
0100
1000
0002
,
0000
1003
0010
0100
0004
0000
0003
0000
,
2000
0000
0000
0000
3100
0000
0010
0000
0002
0000
0000
2003
0000
0000
3010
0000
,
0100
0000
0010
0000
1000
0000
0001
0000
0020
0000
0000
0230
0000
0000
4300
0000
,
0000
0000
0000
0000
3000
0000
0001
0000
0200
0000
0000
0320
0000
0000
1030
0000
,
0002
0000
0000
0023
0000
0000
0130
0000
2000
0000
0000
3002
0000
0000
0103
0000
,
0020
0000
0000
2030
0000
0000
3001
0000
0020
0000
0000
0230
0000
0000
1300
0000
,
0004
0000
4003
0000
,
3001
0010
0100
0010
0002
0000
0003
0000
,
2000
0000
0000
3010
0100
0010
1000
0002
,
0000
1003
0100
0020
0000
0130
1000
0002
,
0000
2003
0000
3010
0200
0000
0301
2000
,
0000
3100
0010
0004
0000
0003
0000
2000
,
0000
0000
0000
3001
0100
0010
0100
0002
,
0000
1003
0100
0020
0000
0032
0000
2003
,
0000
3010
0100
0010
1000
0002
0000
0043
,
0000
0030
0002
0000
2003
0000
3020
0000
,
0230
0000
0000
0000
0301
0000
2000
0000
0000
0000
3001
0000
0040
0000
0000
0000
0030
0000
0000
0000
0002
0000
0000
0000
2003
0000
0000
0200
3000
0000
0310
0000
,
0002
0000
0000
0000
0013
0000
0200
0000
0000
0000
1300
0000
0004
0000
0000
0000
0003
0000
0000
0000
2000
0000
0000
0000
3020
0000
0000
0230
0000
0000
0301
0000
,
2000
0000
0000
3100
0020
0000
0030
0000
0002
0000
1003
0020
0000
0000
0230
0000
,
0002
0000
0000
0000
0303
0002
2003
3200
,
0310
0000
0001
2000
0000
0000
3010
0100
0020
0000
1030
0004
0000
0003
1000
0100
,
2000
0000
3001
0200
0000
0000
0340
0000
2030
0000
0000
3004
0000
0003
2000
0000
,
3200
0000
0000
0000
0000
0000
0340
0000
0032
0000
0000
4003
0000
0000
3200
0000
,
0320
0000
0000
0000
0000
0030
0200
2300
,
3002
0000
0000
0000
4003
0000
0000
3000
,
0000
0004
0000
0000
0000
0000
0000
0000
1003
0000
0010
0000
1000
0000
0001
0000
,
0010
0100
1000
0002
0000
0103
0010
0100
,
0004
0000
0003
1000
0200
0000
0310
0100
,
4000
0000
0000
0000
3000
0000
0001
0000
0200
0000
0000
0320
0000
0000
1030
0000
,
0002
0000
0003
0000
1000
0100
0010
0001
,
0010
0100
1000
0002
0000
1003
0010
0100
,
0004
0003
2000
3200
,
0320
0000
0000
0032
0000
0000
1003
0000
0010
0000
0100
0000
0001
0000
0100
0000
,
0020
0000
0000
2030
0000
0000
3004
0000
0000
0000
0000
0000
0003
0000
1000
0000
,
0020
0000
0000
0230
0000
0000
0301
0000
2000
0000
0000
3200
0000
0000
0310
0000
,
0002
0000
0000
2003
0000
0000
3010
0000
0200
0000
0000
0302
0000
0000
1003
0000
,
0200
0000
0000
0320
0000
0000
0031
0000
4000
0000
0000
0000
0000
0000
0000
0000
,
3040
0000
0000
0000
0130
0001
1000
0100
,
0020
0000
0030
0000
0002
0000
0000
1003
,
0010
0100
0010
2000
0000
3001
0010
0200
,
0000
1300
0001
0200
0000
0301
1000
0100
,
0010
0001
0010
0200
0000
1300
0001
4000
,
0000
3000
0000
0020
0000
0000
0000
0130
,
0001
1000
0100
0020
0000
0130
1000
0002
,
0000
2003
0000
3020
0000
1030
0001
0010
,
0100
1000
0000
0002
0000
0003
2000
0000
,
3020
0000
0000
0000
0230
0000
0000
0000
0302
0000
1003
0200
0000
0310
0004
0000
,
0003
0000
0000
0000
2000
0000
0000
0000
3020
0000
0000
0230
0000
0000
0301
0000
2000
0000
0000
0000
3100
0000
0020
0000
0000
0000
0031
0000
4000
0000
0000
0000
,
3000
0000
0000
0000
0020
0000
0000
0000
0230
0000
0000
0302
0000
0000
1003
0000
0200
0000
0000
0000
0000
0000
0310
0000
0004
0000
0000
0000
0003
0000
0000
0000
,
2000
0000
3001
0200
0000
0000
0320
0000
2000
0000
0000
0000
0000
0000
0000
3030
,
0000
0000
2000
0000
3002
0000
0203
0000
0320
0000
1030
0002
0000
0000
0013
0100
,
2000
0000
3001
0040
0000
0030
0100
0010
0200
0000
1300
0002
0000
0000
0403
0000
,
0320
0000
0000
4030
0000
3000
0002
0000
0023
0000
0000
0000
0000
0000
0130
0000
,
2000
0000
0000
3004
0000
0000
2003
0000
3200
0000
0000
0000
0000
0000
0000
0000
,
0000
0300
0010
0001
2000
0000
0000
0000
,
3004
0000
0000
0000
1003
0010
1000
0001
,
0010
0100
1000
0002
0000
1003
0010
0200
,
0000
0301
1000
0100
0010
0001
0010
0100
,
1000
0001
1000
0200
0000
0310
0100
1000
,
0001
1000
0010
0100
0001
1000
0001
0010
,
0100
1000
0001
0200
0000
0310
1000
0001
,
0010
0001
2000
0000
3010
0100
0001
1000
,
0001
0010
0100
2000
0000
3001
0100
0010
,
0100
0001
1000
0001
0020
0000
0130
2000
,
0000
3001
0200
0310
1000
0004
0000
0003
,
2000
0000
3100
0020
0000
0130
2000
3001
,
1000
0001
0200
0300
0002
0000
1003
0200
,
0000
0310
0001
1000
0001
0100
0040
0000
,
2030
0000
3001
0010
0200
0000
1300
0001
,
0100
0002
0000
0000
0000
0000
0003
2000
,
3200
0320
0032
0000
1003
0020
0000
0130
,
0004
0000
0000
0000
0003
0000
0000
0000
2000
0000
0000
0000
3200
0000
0000
0320
,
0000
0031
2000
0000
3001
0200
0000
0310
,
4000
0000
0000
0000
3000
0000
0000
0000
0002
0000
0000
0000
0023
0000
0000
0230
,
0000
1300
0002
0000
0000
1003
0020
0000
,
0030
0000
0000
0000
0200
0000
0301
2000
0000
0000
3002
0000
0020
0000
0000
0000
,
0000
0000
0000
0033
0000
0000
0020
0000
0230
0000
2300
0000
3002
0000
0000
0000
,
1003
0020
0000
0000
1030
0001
0200
0000
,
0301
2000
0000
3000
0001
0010
0200
0000
,
1300
0002
0000
0000
4003
0000
3020
0000
,
0000
0430
0000
0300
0002
0000
2003
0000
,
0000
0000
3200
0320
,
0000
0034
0000
0000
2003
0000
3020
0000
,
0000
0000
0000
0000
0000
0000
0000
0000
0000
0000
0000
0000
0000
0000
0000
0030
0040
0000
0000
0000
0000
0000
0000
0000
0000
0000
0000
0000
0030
0000
0000
0000
,
0000
2000
3002
0023
,
0000
0000
0000
0430
,
0000
0000
0300
4000
,
0000
0000
0000
0000
0000
0000
0000
0000
3000
0000
0000
0000
0001
0010
0001
0010
,
0100
1000
0100
2000
0000
3001
0010
0100
0040
0000
0030
0001
2000
0000
3100
0010
,
0400
0000
0000
0000
0300
0000
1000
0000
0002
0000
0000
0023
0000
0000
0130
0000
2000
0000
0000
0000
3000
0000
0000
0000
0001
0000
0100
0000
0001
0000
0100
0000
,
0010
1000
0010
2000
0000
3001
0010
0100
4000
0000
3000
0000
0002
0000
1003
0010
,
2000
0000
0000
3002
0000
0000
0013
0000
0100
0000
0010
0000
0001
0000
0010
0000
0100
0000
0000
4000
0000
0000
0000
0000
0000
0000
0000
0000
0000
0000
0000
0000
,
3004
0000
1003
0010
1000
0001
0010
0100
,
1000
0002
0000
1003
0010
0100
0004
0000
,
0003
1000
0200
0000
0310
0001
4000
0000
,
3000
0000
0010
0000
0200
0000
0000
0302
0000
0000
1003
0000
0200
0000
0000
0000
,
0300
0000
0010
0100
1000
0001
1000
0010
,
0100
0002
0000
1003
0100
0010
0004
0000
,
0003
0000
0000
0000
2000
0000
0000
0000
3020
0000
0000
0000
0230
0000
0000
0302
,
0000
0000
1003
0000
0100
0000
0010
0000
0001
0000
0010
0000
0200
0000
0000
2300
,
0000
0000
3004
0000
0000
0000
0000
0000
0003
0000
1000
0000
0020
0000
0000
0230
,
0000
0000
0301
0000
2000
0000
0000
3200
0000
0000
0310
0000
0200
0000
0000
2300
,
0000
0000
3001
0000
0200
0000
0000
0320
0000
0000
1030
0000
0002
0000
0000
0023
,
0000
0130
4000
0000
0000
0000
3004
0000
,
0000
0000
0103
0010
1000
0001
0020
0000
,
0030
0000
0200
0000
0000
1300
0002
0000
,
0000
1003
0010
0100
0010
1000
0002
0000
,
0000
0000
1003
0100
0010
0100
2000
0000
,
3002
0000
0013
0100
1000
0100
0020
0000
,
0000
0000
0032
0000
1003
0010
0200
0000
,
0302
0000
1003
0100
0010
0100
2000
0000
,
3001
0100
0020
0000
1030
0001
0010
0100
,
0010
0001
2000
0000
0000
0000
3001
0100
,
0001
0000
1000
0000
0200
0000
0000
0320
0000
0000
0130
0000
2000
0000
0000
0000
,
3000
0000
0000
0000
;

//---------------dance-single - AceOfArrows (2018)----------------
#NOTES:
     dance-single:
     AceOfArrows (2018):
     Easy:
     6:
     0.404,0.000,0.000,0.869,0.024:
0000
0000
0000
0000
,
0000
0000
0000
0000
,
0000
0000
0000
0000
,
0000
0000
0000
0000
,
0000
0000
0000
0000
,
0001
1000
0002
0000
1003
0100
2000
0000
,
3001
0200
0000
0301
4000
0000
3001
0100
,
0002
0000
0000
1003
0200
0000
1300
0001
,
2000
0000
0000
0000
0000
0000
0000
3000
,
0001
0010
0002
0000
1003
0001
2000
0000
,
3001
0020
0000
0130
4000
0000
3001
0010
,
0002
0000
1003
0100
2000
0000
3001
1000
,
0002
0000
0000
0000
,
0000
0000
0000
0000
0000
0000
0000
0000
0000
0000
0000
0000
0000
0000
0000
0003
0004
0000
0000
0000
0000
0000
0000
0000
0000
0000
0000
0000
0000
0000
0000
0000
,
0003
0000
0000
0000
,
0040
0000
0000
0030
,
0001
0000
1000
0000
0001
0000
1000
0200
,
0000
1300
0001
2000
0000
0000
3000
0000
,
0001
0000
0100
0000
0001
0000
1000
0020
,
0000
0430
0000
0000
0300
0000
0000
0000
,
0001
0000
1000
0000
0001
0000
0010
0200
,
0000
0310
0001
0020
0000
0000
0030
0000
,
0001
0000
1000
0000
0010
0000
1000
0002
,
0000
0043
0000
0000
0030
0000
0000
0000
,
0001
1000
0001
0000
0100
0000
0010
0200
,
0000
0000
0301
1000
0004
0000
0003
0000
,
2000
0000
3001
0100
0004
0000
0003
1000
,
0200
0000
0000
0310
0200
0000
0300
0000
,
1000
0001
1000
0000
0010
0000
0100
0002
,
0000
0000
1003
0100
4000
0000
3000
0000
,
0002
0000
0013
0100
0020
0000
0000
0031
,
2000
0000
3001
0100
0002
0000
0000
4003
,
0000
0000
3000
0001
0020
0000
0000
0031
,
2000
3020
0230
0302
,
2003
3200
0320
0032
,
4003
0000
3040
0000
,
1030
0001
1000
0000
0200
0000
0300
0000
,
0020
0000
0000
0031
2000
0000
3001
0200
,
0000
0302
0000
2003
0000
3001
0100
0002
,
0000
2003
0000
3001
0020
0000
0130
2000
,
0000
3001
0100
0004
0000
0000
0003
2000
,
0000
0000
0000
3001
0020
0000
0031
2000
,
0000
3001
0100
0002
0000
2003
0000
3200
,
0000
0310
0002
0000
1003
0020
0000
4030
,
0000
3000
0002
0000
0023
0000
0032
0000
,
2003
0000
0000
3200
0000
0000
0340
0000
0030
0000
0100
0000
2000
0000
0000
0000
,
3002
0000
0000
0023
0000
0000
0430
0000
0300
0000
0010
0000
0002
0000
0000
0000
,
2003
0000
0000
0000
3020
0000
0000
0000
0230
0000
0000
0302
0000
0000
2003
0000
,
3020
0000
0000
0000
0000
0000
0000
0000
0000
0030
1000
0000
0002
0000
0000
0000
,
1003
0010
2000
0000
3001
0100
0002
0003
,
2000
0000
3010
0100
0020
0000
4030
0000
,
3002
0000
0000
0013
0200
0000
1300
0001
,
2000
0000
0000
0000
3000
0000
0001
0010
,
0002
0000
0000
0000
4003
0000
0000
3000
,
0040
0000
0030
0000
1000
0010
1000
0000
,
0001
0000
1000
0200
0000
0000
1300
0001
,
4000
0000
3000
0010
0200
0000
0301
1000
,
0004
0000
0003
1000
0020
0000
1030
0001
,
2000
0000
3000
0000
0001
0100
0001
0000
,
1000
0000
0100
0020
0000
0000
0031
1000
,
0004
0003
2000
3200
,
0320
0000
0230
0000
1300
0001
2000
0000
,
3002
0000
0023
0000
0430
0000
0000
1300
,
0002
0000
0000
1003
0020
0000
0230
0000
,
0302
2003
3200
0320
,
0032
2003
3040
0000
,
0430
0000
0000
0000
0301
1000
0001
0000
,
0020
0030
0002
0000
,
1003
0000
0010
0200
0000
0301
1000
0002
,
0000
1003
0100
2000
0000
3001
0200
0000
,
0302
0000
1003
0200
0000
1300
0001
4000
,
0000
3000
0000
0002
0000
0000
0000
1003
,
0010
0000
1000
0002
0000
1003
0100
2000
,
0000
3002
0000
0023
0000
0031
1000
0000
,
0001
0200
0000
0320
0000
0030
2000
0000
,
3002
0000
0000
0000
0023
0000
0000
0000
0230
0000
0000
2300
0000
0000
3004
0000
,
0003
0000
2000
0000
3020
0000
0230
0000
0302
0000
0000
2003
0000
0000
3400
0000
,
0300
2000
3002
2003
3200
0000
0340
0030
,
0002
0000
0000
2003
0000
0000
3001
0000
0020
0000
0000
0000
0000
0000
0000
0030
,
0000
0000
0002
0000
2003
0000
3020
0000
2030
0000
0000
3002
0000
0000
0023
0000
,
0230
0000
0000
2300
0000
0000
3002
0000
0203
0000
0000
0302
0000
0000
4003
0000
,
3020
0000
0000
0430
0000
0300
0002
0000
2003
0000
0000
0000
0000
0000
3001
0000
,
0020
0000
0000
0430
0000
0000
2300
0000
3002
0000
0000
0000
0000
0000
0000
0000
,
0000
0003
2000
3200
0320
0000
0000
0000
,
0034
0000
0000
0000
1003
0100
1000
0000
,
0001
0000
1000
0020
0000
1030
0001
2000
,
0000
0000
3000
0000
0001
0100
0001
0000
,
1000
0000
0001
0020
0000
0000
0031
1000
,
0002
0000
0003
0000
1000
0010
1000
0000
,
0001
0000
0010
0200
0000
1300
0100
2000
,
0000
0000
3002
0000
0013
0100
0010
0000
,
0001
0000
1000
0020
0000
0000
1030
0001
,
2000
0000
3200
0000
0320
0000
0130
2000
,
0000
3001
0020
0000
0031
4000
0000
3000
,
0002
0000
0103
0020
0000
1030
0002
0000
,
0013
0200
0300
0000
2000
0000
3001
0200
,
0000
0310
2000
0000
3001
0100
0004
0003
,
2000
0000
3100
0010
0200
0000
2300
0000
,
3001
0200
0000
0000
0000
0000
0300
0002
,
2003
3200
0320
0000
0130
2000
0000
3001
,
0400
0300
0001
2000
,
0000
3100
0020
0000
0130
2000
0000
3001
,
0400
0300
0002
2003
,
3001
0010
0002
0000
0000
1003
0020
0000
,
0030
0000
0000
0000
2000
0000
0000
3002
0000
0000
0203
0000
0320
0000
0000
0000
,
0000
0000
0000
0030
0000
0000
2000
0000
3002
0000
0043
0000
0230
0000
0000
0000
,
1300
0002
0000
0000
1003
0010
2000
0000
,
3001
0200
0000
0300
0010
0100
0020
0000
,
1030
0002
0000
0000
0043
0000
0230
0000
,
0000
4300
0000
3000
0002
0000
0203
0000
,
0000
0000
0320
2030
,
0000
3004
0000
0000
0023
0000
0230
0000
,
0000
0000
0000
0000
0000
0000
0000
0000
0000
0000
0000
0000
0000
0000
0000
0300
0400
0000
0000
0000
0000
0000
0000
0000
0000
0000
0000
0000
0300
0000
0000
0000
,
0000
2000
3002
0023
,
0000
0000
0000
0034
,
0000
0000
0003
4000
,
0000
0000
3000
0000
0000
0000
0001
0010
,
0001
0000
0000
2000
0000
0000
3001
0000
0400
0000
0300
0000
0010
0000
1000
0000
,
0040
0030
1000
0001
2000
3000
0001
0100
,
0001
0000
0000
2000
0000
0000
3100
0000
0040
0000
0030
0000
0001
0000
1000
0000
,
0002
0000
1003
0010
4000
0000
0000
0000
,
3000
0000
0001
0010
0001
0000
1000
0000
,
0001
0200
0000
0000
0301
1000
0004
0000
,
0003
0000
2000
0000
3100
0010
0400
0000
,
0300
0000
2000
0000
3001
0100
0002
0000
,
0003
0000
0010
0100
0010
0000
0001
0000
,
1000
0020
0000
0000
1030
0001
4000
0000
,
3000
0020
2030
3002
,
0023
0000
0230
0000
1300
0001
2000
0000
,
0000
3040
0000
0000
0030
1000
0002
0000
,
1003
0100
2000
0000
3002
0000
0203
0000
,
0320
2030
3002
0023
,
0230
4300
0000
3004
,
0000
0000
1003
0010
1000
0000
0002
0000
,
0003
0000
0020
0000
0000
0130
2000
0000
,
0000
3001
0200
0000
0301
1000
0002
0000
,
0003
0000
1000
0100
1000
0000
0002
0000
,
2003
0000
3010
0100
0010
0000
2000
0000
,
3000
0000
0020
0000
0130
0001
0200
0000
,
0302
0000
1003
0100
2000
0000
3002
0000
,
0203
0000
0320
0000
2030
0000
3001
1000
,
0002
0000
0023
0000
0000
0000
0031
1000
,
0002
0000
2003
0000
3010
0100
0020
0000
,
0030
0000
0000
0000
;

//---------------dance-single - AceOfArrows (2018)----------------
#NOTES:
     dance-single:
     AceOfArrows (2018):
     Beginner:
     4:
     0.233,0.000,0.000,0.332,0.000:
0000
0000
0000
0000
,
0000
0000
0000
0000
,
0000
0000
0000
0000
,
0000
0000
0000
0000
,
0000
0000
0000
0000
,
1000
1000
1000
1000
,
2000
0000
3000
0010
,
0020
0030
0100
0100
,
0200
0000
0000
0300
,
0001
0001
0001
0001
,
0002
0000
0003
1000
,
1000
1000
1000
0010
,
0020
0000
0000
0000
,
0000
0000
0000
0000
,
0030
0000
0000
0000
,
4000
0000
3000
0000
,
0001
0001
0001
0000
,
0020
0000
0030
0000
,
0100
0100
0100
0000
,
2000
0000
3000
0000
,
0001
0001
0001
0000
,
0200
0000
0300
0000
,
0010
0010
0010
0000
,
2000
0000
3000
0000
,
0001
0001
0001
0000
,
0020
0000
0030
0000
,
0100
0100
0100
0000
,
1000
1000
1000
0000
,
0001
0001
0001
0000
,
0100
0100
0400
0300
,
0010
0010
0010
0000
,
1000
1000
2000
0000
,
3000
0000
0001
0001
,
1000
1000
2000
3000
,
0100
0100
0200
0300
,
0040
0000
0000
0030
0004
0000
0000
0003
,
4000
0000
3000
0000
,
0020
0030
1000
1000
,
2000
3000
0002
0003
,
0010
0010
0010
0000
,
0100
0100
0400
0300
,
2000
3000
0001
0001
,
0002
0003
2000
3000
,
0100
0100
0200
0300
,
0010
0000
0001
0001
,
2000
0000
0000
0000
3000
0000
4000
0000
0000
3000
0000
0000
0010
0000
0000
0000
,
0010
0000
0000
0000
0100
0000
0400
0000
0000
0300
0000
0000
0001
0000
0000
0000
,
0002
0000
0003
0000
1000
0000
0001
0001
,
0002
0000
0003
0000
,
0010
0010
0010
0000
0100
0100
0100
0000
,
1000
1000
1000
0000
0002
0000
0003
0000
,
0200
0000
0300
0000
0001
0000
1000
1000
,
2000
0000
0000
0000
3000
0000
0001
0001
,
0002
0000
0003
0000
,
4000
0000
0000
3000
0001
0000
0001
0000
,
0001
0000
0010
0010
,
0040
0030
0001
0001
,
0004
0003
1000
1000
,
2000
3000
0010
0010
,
0010
0000
0100
0100
,
0400
0300
0001
0001
,
0002
0003
1000
1000
,
2000
0000
3000
0000
,
0100
0100
0010
0010
,
0020
0030
0001
0001
,
0002
0000
0003
0000
4000
0000
0000
3000
,
0040
0000
0000
0030
0400
0000
0000
0000
,
0300
0000
0002
0003
,
1000
1000
2000
3000
,
0200
0300
0010
0010
,
0020
0030
0001
0001
,
0004
0003
2000
3000
,
0010
0010
0020
0030
,
0200
0300
0001
0001
,
0002
0003
1000
1000
,
1000
0000
1000
0000
0010
0000
0010
0040
,
0000
0030
0000
0000
0100
0000
0000
0000
0001
0000
0000
0000
0001
0000
0004
0000
,
0000
0003
0000
0000
1000
0000
1000
0000
2000
0000
0000
0000
3000
0000
0000
0000
,
0100
0000
0010
0010
0020
0000
0000
0000
,
0030
0000
0001
0000
1000
1000
1000
0000
,
0010
0010
0010
0000
0100
0100
0100
0000
,
0002
0003
2000
3000
,
0001
0000
0010
0010
0020
0000
0000
0000
,
0030
0000
0100
0100
0200
0000
0000
0000
,
4300
3000
0001
0001
,
0001
0000
0100
0100
,
0200
0300
0010
0010
,
0010
0000
1000
1000
,
2000
3000
0001
0001
,
0001
0000
0010
0010
,
0020
0030
0100
0100
,
0100
0000
1000
1000
,
2000
0000
3000
0000
0002
0000
0003
0002
,
0000
0003
2000
0000
3000
4000
0000
3000
,
0020
0000
0030
0020
0000
0030
2000
0000
,
3000
2000
0000
3000
0002
0000
0003
0002
,
0000
0003
0200
0000
0300
0400
0000
0300
,
0020
0000
0030
0020
0000
0030
2000
0000
,
3000
2000
0000
0000
0000
0000
3000
0000
,
0001
0002
0003
1000
,
4000
3000
0000
0020
,
0030
2000
3000
0001
,
0004
0003
0000
0020
,
0030
0200
0300
2000
,
3000
0000
0001
0000
0010
0010
0020
0000
,
0000
0000
0000
0030
0000
0000
0000
0000
0100
0000
0100
0000
0200
0000
0000
0000
,
0300
2000
3000
0001
,
0001
0004
0003
0100
,
0100
0200
0300
0002
,
0003
0004
0003
2000
,
0000
3000
0000
0002
,
0003
0010
0010
0020
,
0000
0000
0000
0000
0000
0000
0000
0030
,
0000
0100
0100
0200
,
0000
0000
0000
4300
,
0000
0000
0000
3000
,
0000
0000
0000
0000
0000
0000
0001
0001
,
0001
0000
0000
0000
0100
0000
0100
0000
0400
0000
0000
0300
0010
0000
0010
0000
,
0040
0000
0000
0030
1000
0000
1000
0000
2000
0000
3000
0000
0001
0000
0001
0000
,
0001
0000
0000
0000
0100
0000
0100
0000
0400
0000
0000
0300
0010
0000
0010
0000
,
0010
0000
1000
1000
2000
0000
3004
0000
,
0003
0010
0010
0020
,
0030
0100
0100
0400
,
0300
1000
1000
4000
,
3000
0001
0001
0002
,
0003
0010
0010
0020
,
0030
0100
0100
0400
,
0300
1000
1000
2000
,
3000
0001
0001
0002
,
0000
0003
0000
1000
,
1000
0010
0010
0020
,
0030
0100
0100
0200
,
0300
0004
0003
4000
,
3000
0400
0000
0300
,
0000
0020
0030
0002
,
0003
1000
1000
2000
,
3000
0100
0100
0200
,
0300
1000
1000
2000
,
3000
0001
0001
0002
,
0003
0100
0100
0200
,
0300
0001
0001
1000
,
1000
2000
3000
0001
,
0001
1000
1000
0020
,
0030
0000
0000
0000
;
