#TITLE:Sailor Moon;
#SUBTITLE:;
#ARTIST:Nicole & Bynne Price;
#TITLETRANSLIT:;
#SUBTITLETRANSLIT:;
#ARTISTTRANSLIT:;
#GENRE:Pop;
#CREDIT:Ace Of Arrows;
#BANNER:Sailor Moon - Bn.png;
#BACKGROUND:Sailor Moon - bg.jpg;
#LYRICSPATH:Sailor Moon Lyrics.lrc;
#CDTITLE:Ace Of Arrows.png;
#MUSIC:Sailor Moon.ogg;
#OFFSET:1.685;
#SAMPLESTART:13.653;
#SAMPLELENGTH:12.000;
#SELECTABLE:YES;
#BPMS:0.000=140.220;
#STOPS:;
#BGCHANGES:3.750=Sailor Moon Video.avi=1.000=1=0=0=StretchNoLoop==CrossFade==,
99999=-nosongbg-=1.000=0=0=0 // don't automatically add -songbackground-
;
#KEYSOUNDS:;

//---------------dance-single - Ace Of Hearts (2014 Rewrite)----------------
#NOTES:
     dance-single:
     Ace Of Hearts (2014 Rewrite):
     Challenge:
     10:
     0.731,0.029,0.760,0.835,0.305: // measure 1
0000
0000
0000
0000
,  // measure 2
0004
0000
0000
0000
,  // measure 3
20M3
0000
00M0
3200
,  // measure 4
000M
0000
000M
0000
,  // measure 5
M000
0320
M000
0000
,  // measure 6
0M00
0000
0M32
0000
,  // measure 7
00M0
0000
0000
0000
0000
0000
0000
0000
00M0
0000
0000
0000
2003
0000
0000
3000
,  // measure 8
1200
0000
0310
0000
0001
0010
0100
0010
0002
0000
0000
0003
2001
0000
3010
0000
,  // measure 9
0210
0301
0102
1003
0000
0100
0110
0010
,  // measure 10
0012
0000
1003
0010
1000
0000
1002
0000
0000
0000
0013
0000
0100
0000
1000
0000
,  // measure 11
1002
0103
0110
0010
1000
0001
0011
0010
,  // measure 12
0210
0000
1300
0001
1000
0000
1020
0000
0000
0000
0130
0000
0001
0000
1000
0000
,  // measure 13
1200
0310
0001
1000
0010
0100
0101
0001
,  // measure 14
2001
0000
3100
0010
0100
0000
2100
0000
0000
0000
3001
0000
0100
0000
0010
0000
,  // measure 15
1010
1000
1001
0000
0000
0001
0010
0100
,  // measure 16
1100
0000
1001
0000
0201
0310
0000
1010
,  // measure 17
0000
0000
0000
0000
0000
0000
1000
0000
0000
0001
0000
0000
2000
0000
0000
0000
0000
0000
3001
0000
0010
0000
0100
0000
1000
0000
0000
0000
0000
0000
0001
0000
0000
0000
0000
0000
0100
0000
0000
0000
0000
0000
0120
0000
0000
0000
0000
0000
,  // measure 18
0000
0000
1030
0001
1000
0000
0100
0000
0110
0000
0010
0000
0001
0000
2001
0000
,  // measure 19
0000
3020
0130
0001
1000
0100
0110
0020
,  // measure 20
0000
0000
0031
1000
0001
0000
0200
0000
0000
0000
0310
0000
2000
0000
0000
0000
,  // measure 21
3M01
0010
0001
0010
010M
1000
0100
1000
00M1
0100
0001
0100
0001
0000
1000
0000
,  // measure 22
1200
0000
0310
0001
0010
0000
0200
0000
0000
0000
2300
0000
0000
0000
3001
0000
,  // measure 23
0100
0010
0100
0000
0101
0000
0000
0000
0000
0000
0001
0000
1000
0000
0100
0000
,  // measure 24
0110
0000
0011
0000
2001
0200
0000
0000
,  // measure 25
0000
0000
0000
0000
3300
0000
0200
0310
,  // measure 26
0012
0000
1003
0000
0M0M
0M0M
0M0M
0M0M
00M0
0000
0000
0000
2000
0000
3010
0000
,  // measure 27
0210
0000
0001
0000
0301
0000
M0M0
MMM0
M0M0
M0M0
M0M0
0000
0002
0000
1003
0000
,  // measure 28
2200
0000
0000
0000
3300
0000
0M0M
0MMM
0M0M
0M0M
0M0M
0000
0002
0000
1003
0000
,  // measure 29
2100
0000
3001
0000
0002
0000
0000
0000
01M3
00M1
M1M0
M0M0
1M01
0000
0000
0000
,  // measure 30
1200
0000
0310
0001
0010
0000
0210
0000
0000
0000
1300
0000
0001
0000
0100
0000
,  // measure 31
0010
1000
0010
0000
0110
0000
0000
0000
0000
0000
0100
0000
0001
0000
1000
0000
,  // measure 32
1100
0000
0011
0000
2001
3010
0000
0110
,  // measure 33
0000
0000
0000
0000
0000
0000
0100
0000
0000
0001
0000
0000
0200
0000
0000
0000
0000
0000
0301
0000
0100
0000
0010
0000
1000
0000
0000
0000
0000
0000
0001
0000
0000
0010
0000
0000
0100
0000
0000
1000
0000
0000
0100
0000
0000
0010
0000
0000
,  // measure 34
0002
0000
1000
0000
0100
0100
1000
0000
,  // measure 35
2003
0000
0000
3200
0000
0000
0320
0000
0230
0000
0000
0000
0000
0000
2300
0000
,  // measure 36
3002
0000
1000
0000
0100
0100
1000
0000
,  // measure 37
10M3
0100
1000
0100
M010
0001
0010
0001
1M00
0010
1000
0010
010M
0001
0100
0001
,  // measure 38
2000
0000
0100
0000
0001
0001
0100
0000
,  // measure 39
3002
0000
0000
0203
0000
0000
0320
0030
1010
0000
0000
1000
0000
0000
1001
0000
,  // measure 40
0021
0000
0130
1000
0100
0000
0000
0000
0120
0000
0031
0000
0000
0000
1000
0010
,  // measure 41
0100
0010
2000
0000
3002
0000
0013
0000
0000
0000
0000
0000
1110
0000
0000
0000
,  // measure 42
2100
0000
3001
0100
0001
0000
2001
0000
0000
0000
3100
0000
0010
0000
0001
0000
,  // measure 43
2001
0000
3010
0100
0001
1000
1100
0100
,  // measure 44
0120
0000
0031
1000
0001
0000
0201
0000
0000
0000
0310
0000
1000
0000
0001
0000
,  // measure 45
0021
0000
0130
1000
0001
0100
0110
0010
,  // measure 46
2010
0000
3001
0010
0001
0000
2000
0000
0000
0000
3100
0000
0010
0000
0001
0000
,  // measure 47
1001
0000
0101
0000
0000
0100
0010
1000
,  // measure 48
1001
0000
0011
0000
0210
1300
0000
1001
,  // measure 49
0000
0000
0001
0010
0001
0000
1000
0000
1010
0000
0010
0000
0100
0000
0001
0000
,  // measure 50
1001
0000
1100
0000
1002
0103
0000
0110
,  // measure 51
0000
0000
0000
0000
0000
0000
0010
0000
0000
1000
0000
0000
0020
0000
0000
0000
0000
0000
1030
0000
0010
0000
0100
0000
0001
0000
0000
0000
0000
0000
1000
0000
0000
0000
0000
0000
0001
0000
0000
0000
0000
0000
0010
0000
0000
0000
0000
0000
,  // measure 52
0200
1300
1001
0001
0000
2000
3010
0220
,  // measure 53
0000
0330
02M2
0000
M000
0000
00M0
0000
,  // measure 54
M000
0000
0000
0000
00M0
0000
0000
0000
0300
1003
0010
2000
0000
0000
0000
0000
,  // measure 55
3000
0000
0000
0000
;

//---------------dance-single - Ace Of Hearts (2014 Rewrite)----------------
#NOTES:
     dance-single:
     Ace Of Hearts (2014 Rewrite):
     Hard:
     8:
     0.491,0.029,0.300,0.739,0.027:
0000
0000
0000
0000
,
4000
0000
0000
0000
,
3002
0000
0000
0023
,
0000
0000
0000
0000
,
0000
0230
0000
0000
,
0000
0000
2300
0000
,
0000
0000
0000
3002
,
1003
0010
0000
0010
1000
0000
0001
0010
,
0100
0010
0002
1003
0000
0001
0100
0001
,
2001
0000
0000
0000
3100
0000
0020
0000
0000
0000
0130
0000
2000
0000
0000
3000
,
1002
0000
0103
0000
0010
0100
0010
0000
,
2010
0000
0000
0000
3001
0000
0020
0000
0000
0000
0000
0000
0230
0000
0000
0300
,
2100
0000
3001
0000
1000
0010
1000
0000
,
1002
0000
0013
0200
0000
1300
0100
0010
,
0100
0000
1100
0000
0000
1000
0001
0100
,
0001
0000
0000
0000
1001
0000
0000
0000
1000
0000
0200
0000
0000
0300
0110
0000
,
0000
0010
0001
0040
0000
0031
1000
0002
,
0000
1003
0010
0100
0001
0100
0010
2000
,
0000
3002
0000
0013
0000
0100
1000
0200
,
0000
0000
0310
0002
0000
1003
0020
0000
,
0430
0004
0000
0000
0000
0000
0000
0000
0303
0000
0001
0000
1000
0000
0001
0000
,
0020
0000
0130
2000
0000
3002
0000
0103
,
0020
0000
0000
0030
1010
0000
0000
0000
0000
0000
1000
0000
0001
0000
0100
0000
,
0001
0000
1001
0000
2000
0020
0000
0000
,
0000
0000
0000
0000
3030
0000
1000
0001
,
0020
0130
0000
0000
0000
0000
0010
0001
,
2000
3100
0100
0000
0000
0000
0010
0001
,
2002
0000
3003
0000
0000
0000
1000
0010
,
0200
0301
0002
0000
0003
0000
0000
0000
,
2001
0000
3100
0020
0000
0031
0010
0100
,
0010
0001
1000
0000
0000
0001
0100
0010
,
0100
0000
0000
0000
0101
0000
0000
0000
0001
0000
2000
0000
0000
3000
1100
0000
,
0000
1000
0001
4000
0000
3000
0002
0000
,
0023
0000
0000
0000
,
0230
0000
0000
2300
0000
0000
3002
0000
0203
0000
0000
0000
0000
0000
0320
0000
,
2030
0000
0000
0000
,
0000
3002
0000
0013
0100
0010
0002
0000
,
2003
0000
0000
0000
,
3200
0000
0000
0320
0000
0000
0032
0000
1003
0000
0000
0100
0000
0000
1000
0000
,
0001
0100
0001
0000
2000
3100
0000
0010
,
0001
0010
0100
1000
0000
0000
1001
0000
,
0201
0000
0310
2000
0000
3010
0100
0000
,
0102
0000
1003
0000
0100
0010
0100
0000
,
2100
0000
0000
0000
3001
0000
0200
0000
0000
0000
0000
0000
0320
0000
0000
0030
,
2010
0000
3001
0000
1000
0001
1000
0000
,
1200
0000
0310
0002
0000
1003
0100
0010
,
0100
0000
1100
0000
0000
1000
0001
0010
,
0001
0000
0000
0000
1001
0000
0000
0000
1000
0000
0020
0000
0000
0030
0110
0000
,
0000
0100
0001
0100
0000
0010
1000
0001
,
1000
0000
0000
0000
1010
0000
0000
0000
0010
0000
0200
0000
0000
0300
0101
0000
,
0000
0001
1000
0004
0000
1003
0100
0010
,
0002
0013
0100
1000
0000
0001
1000
2020
,
0000
3030
0202
0000
0000
0000
0000
0000
,
0000
0000
0000
0000
0000
0000
0000
0000
0000
0303
0000
1001
0000
0000
0000
0000
;

//---------------dance-single - Ace Of Hearts (2014 Rewrite)----------------
#NOTES:
     dance-single:
     Ace Of Hearts (2014 Rewrite):
     Medium:
     6:
     0.355,0.029,0.021,0.696,0.000:
0000
0000
0000
0000
,
0004
0000
0000
0000
,
2003
0000
0000
3200
,
0000
0000
0000
0000
,
0000
2300
0000
0000
,
0000
0000
3002
0000
,
0000
0000
0000
2003
,
3001
0010
0000
0000
0000
0000
0001
1000
,
0001
0000
0010
0100
0000
0000
0000
0000
,
2000
0000
3001
0020
0000
0031
2000
0000
,
3002
0103
0000
0000
,
0020
0000
0130
0002
0000
0000
2003
0000
,
3002
0013
0000
0000
,
0200
0000
1300
0002
0000
1003
0010
0000
,
1000
0000
0001
0000
0000
1000
0100
0000
,
0010
0000
0100
0000
0010
0002
0000
1003
,
0000
0000
0040
0000
0030
1000
0000
0002
,
0000
0000
1003
0001
1000
0000
0100
0020
,
0000
0032
0000
0003
0000
1000
0000
0020
,
0000
0000
1030
0002
0000
1003
0200
0000
,
2300
0000
3002
0000
0003
1000
0000
0001
,
0020
0000
0031
2000
0000
3002
0000
1003
,
0020
0000
0130
0000
0000
0001
0100
0000
,
0010
0000
0100
0000
0001
2000
0000
0000
,
0000
0000
0000
0000
3000
0000
0010
0100
,
0020
0030
0000
0000
0000
0000
1000
0001
,
2000
0000
3100
0000
0000
0000
0010
0001
,
0020
0000
0030
0000
0000
0000
0100
0010
,
0200
2300
3000
0000
,
0002
0000
1003
0020
0000
1030
0001
0000
,
0020
0000
0130
0000
0000
0010
0001
0000
,
1000
0000
0010
0000
1000
0002
0000
0103
,
0000
0040
0030
2000
,
3002
0000
0000
0000
,
0023
0000
0230
0000
2300
0000
0000
3002
,
0023
0000
0000
0000
,
0430
0000
0000
0000
,
2300
0000
0000
0000
,
3002
0203
0320
0000
,
1030
0001
1000
0000
0001
0010
0000
0001
,
2000
0000
3001
0100
0000
0000
0110
0000
,
0020
0000
1030
0002
0000
1003
0200
0000
,
0320
0031
0000
0000
,
2000
0000
3001
0200
0000
0000
0302
0000
,
2003
3100
0000
0000
,
0020
0000
0130
2000
0000
3001
0100
0000
,
0010
0000
1000
0000
0000
0001
0010
0000
,
0001
0000
1000
0000
0001
0200
0000
0310
,
0000
0000
0000
0000
0000
1000
0001
0000
,
0010
0000
0100
0000
0010
0002
0000
1003
,
0000
0000
0040
0000
0030
1000
0001
0000
,
0010
0000
0000
0000
0000
0001
1000
0002
,
0000
0003
2002
0000
0000
0000
0000
0000
,
0000
0000
0000
0000
0000
0000
0000
0000
0000
0000
0000
3003
0000
0000
0000
0000
;

//---------------dance-single - Ace Of Hearts (2014 Rewrite)----------------
#NOTES:
     dance-single:
     Ace Of Hearts (2014 Rewrite):
     Easy:
     4:
     0.225,0.000,0.011,0.321,0.000:
0000
0000
0000
0000
,
0000
0000
0000
0000
,
0002
0000
0000
2003
,
0000
0000
0000
0000
,
0000
3020
0000
0000
,
0000
0000
0230
0000
,
0000
0000
0000
0302
,
1003
0000
0000
0100
,
0100
0100
0000
0000
,
0010
0000
0000
0020
0000
0000
0031
0000
,
0001
0001
0000
0000
,
1000
0000
0000
2000
0000
0000
3010
0000
,
0010
0010
0000
0000
,
0100
0000
0000
0200
0000
0000
0301
0000
,
0001
0001
0000
1000
,
0100
0000
0100
0000
0200
0000
0000
0310
,
0000
0000
0000
0000
0000
0001
0000
0002
,
0000
0000
1003
0000
1000
0000
0000
0020
,
0000
0000
0030
0000
0000
0100
0000
0200
,
0000
0000
0000
0301
0000
0000
1000
0000
,
1000
1000
0000
0001
,
0002
0000
0000
1003
0000
1000
0000
0000
,
0100
0100
0000
0010
,
0001
0001
0002
0000
,
0000
0000
0003
1000
,
2000
3000
0000
0010
,
0010
0010
0000
0100
,
0200
0300
0000
0001
,
0001
0001
0000
0000
,
1000
0000
0000
2000
0000
0000
3100
0000
,
0100
0100
0000
0010
,
0100
0000
0100
0000
0200
0000
0000
1300
,
0000
0000
0000
0000
,
0002
0000
0000
0000
,
1003
1000
2000
0000
,
3020
0000
0000
0000
,
0430
0000
0000
0000
,
0302
0000
0000
0000
,
1003
1000
2000
0000
,
3100
0100
0100
0000
,
0010
0010
0010
0000
,
0001
0000
0000
0002
0000
0000
1003
0000
,
1000
1000
0000
0000
,
0010
0000
0000
0020
0000
0000
0130
0000
,
0100
0100
0000
0000
,
0001
0000
0000
0002
0000
0000
1003
0000
,
1000
1000
0000
0001
,
0010
0000
0010
0000
0020
0000
0000
0130
,
0000
0000
0000
1000
,
0001
0000
0001
0000
0002
0000
0000
0103
,
0000
0000
0000
0010
,
0010
0000
0000
0000
0000
1000
0000
1000
,
0000
2002
0000
0000
,
0000
0000
0000
0000
0000
0000
0000
0000
0000
0000
0000
3003
0000
0000
0000
0000
;

//---------------dance-single - Ace Of Hearts (2014 Rewrite)----------------
#NOTES:
     dance-single:
     Ace Of Hearts (2014 Rewrite):
     Beginner:
     2:
     0.118,0.000,0.054,0.107,0.000:
0000
0000
0000
0000
,
0000
0000
0000
0000
,
0000
0000
0000
0000
,
0000
0000
0000
0000
,
0000
0000
0000
0000
,
0000
0000
0000
0000
,
0000
0000
0000
0000
,
0001
0000
0000
0002
,
0000
0003
0000
0000
,
0010
0000
0010
0000
,
0010
0000
0000
0000
,
0100
0000
0100
0000
,
0100
0000
0000
0000
,
1000
0000
1000
0000
,
1000
0000
0000
0000
,
0001
0000
0001
0000
,
0001
0000
0000
0000
,
0010
0000
0010
0000
,
0010
0000
0000
0000
,
0100
0000
0100
0000
,
0100
0000
0000
0000
,
1000
0000
1000
0000
,
1000
0000
0000
0000
,
0001
0000
0002
0000
,
0000
0000
0003
0000
,
1001
0000
0000
0000
,
0110
0000
0000
0000
,
1001
0000
0000
0000
,
0101
0000
0000
0000
,
0001
0000
0001
0000
,
0001
0000
0000
0000
,
1000
0000
1000
0000
,
1000
0000
0000
0000
,
0200
0000
0300
0000
,
0010
0000
0010
0000
,
0020
0000
0030
0000
,
0400
0000
0300
0000
,
2000
0000
3000
0000
,
0002
0000
0003
0000
,
0010
0000
0010
0000
,
0020
0000
0030
0000
,
0001
0000
0001
0000
,
0001
0000
0000
0000
,
1000
0000
1000
0000
,
1000
0000
0000
0000
,
0010
0000
0010
0000
,
0010
0000
0000
0000
,
0100
0000
0100
0000
,
0100
0000
0000
0000
,
0001
0000
0001
0000
,
0001
0000
0000
0000
,
2000
0000
0000
0000
,
3000
2002
0000
0000
,
0000
0000
0000
0000
0000
0000
0000
0000
0000
0000
0000
3003
0000
0000
0000
0000
;
