#TITLE:Recall;
#SUBTITLE:;
#ARTIST:ClariS;
#TITLETRANSLIT:;
#SUBTITLETRANSLIT:;
#ARTISTTRANSLIT:;
#GENRE:;
#CREDIT:Ace Of Arrows;
#BANNER:Recall - Bn.png;
#BACKGROUND:Recall - BG.jpg;
#LYRICSPATH:;
#CDTITLE:Ace Of Arrows.png;
#MUSIC:Recall.ogg;
#OFFSET:1.540;
#SAMPLESTART:54.800;
#SAMPLELENGTH:12.000;
#SELECTABLE:YES;
#DISPLAYBPM:63.000:126.000;
#BPMS:0.000=126.000,63.500=252.000,64.500=126.000,111.500=252.000,112.500=126.000,124.000=63.000,124.250=252.000,124.750=126.000,132.000=63.000,132.250=252.000,132.750=126.000,156.000=63.000,156.250=252.000,156.750=126.000,164.000=63.000,164.250=252.000,164.750=126.000,192.000=252.000,194.000=126.000,235.500=252.000,236.500=126.000,283.500=252.000,284.500=126.000,296.000=63.000,296.250=252.000,296.750=126.000,304.000=63.000,304.250=252.000,304.750=126.000,328.000=63.000,328.250=252.000,328.750=126.000,336.000=63.000,336.250=252.000,336.750=126.000,425.500=63.000,425.750=252.000,426.250=126.000,427.000=63.000,427.250=252.000,427.750=126.000,431.000=63.000,431.125=252.000,431.375=126.000,433.500=63.000,433.625=252.000,433.875=126.000,435.000=63.000,435.250=252.000,435.750=126.000,459.000=63.000,459.250=252.000,459.750=126.000,467.000=63.000,467.250=252.000,467.750=126.000,484.000=63.000,493.000=126.000,506.000=252.000,508.000=126.000;
#STOPS:63.500=0.060
,63.750=0.060
,64.000=0.060
,64.250=0.060
,111.500=0.060
,111.750=0.060
,112.000=0.060
,112.250=0.060
,192.000=0.238
,193.000=0.238
,235.500=0.060
,235.750=0.060
,236.000=0.060
,236.250=0.060
,283.500=0.060
,283.750=0.060
,284.000=0.060
,284.250=0.060
,424.500=0.476
,506.000=0.238
,507.000=0.238
;
#BGCHANGES:;
#KEYSOUNDS:;

//---------------dance-single - Ace Of Arrows (2017)----------------
#NOTES:
     dance-single:
     Ace Of Arrows (2017):
     Challenge:
     10:
     0.776,0.404,0.201,1.000,0.617: // measure 1
0000
0000
0000
0000
0000
0000
0000
0000
0000
0000
0000
0000
0000
0000
0000
0000
0000
0000
0000
0000
0000
1000
0100
0010
,  // measure 2
0001
0000
1000
0000
0100
0010
0000
0100
0000
1000
0001
0000
1000
0000
0010
0000
,  // measure 3
0100
0000
0001
2000
0000
0000
3001
0000
0100
0000
0010
0200
0000
0000
0301
0000
,  // measure 4
2000
0000
0000
3100
0000
0010
0100
1000
,  // measure 5
0001
0000
0100
0020
0000
0000
1030
0000
0010
0000
0100
0000
0001
1000
0010
0000
,  // measure 6
1020
0000
0000
0000
0000
0000
0000
0000
0000
0000
0000
0000
0000
0000
0000
0000
0000
0000
0130
0000
0000
0000
0000
0000
0001
0000
0100
0000
0010
0000
1000
0000
0000
0001
0000
0000
0010
0000
0000
0100
0000
0000
1000
0000
0000
0001
0000
0000
,  // measure 7
0200
0000
0310
1000
0001
0010
0002
0000
0000
0000
1003
0000
0010
0000
1000
0001
,  // measure 8
1000
0000
0010
0000
0100
0010
0100
0000
0001
1000
0002
0000
0013
0000
0100
0010
,  // measure 9
0002
0000
0003
0000
000M
0000
0M20
0000
0030
0000
00M0
0000
M000
0000
0100
1000
,  // measure 10
10M1
0000
0000
M011
0010
0100
110M
0000
0000
40M0
0000
0000
,  // measure 11
3002
0000
0013
0200
0000
0000
2300
0000
0000
0000
3001
0000
1000
0000
0200
0000
,  // measure 12
0320
0000
0000
0031
1000
0000
0200
0000
0000
1300
0001
0000
0100
0000
0010
0100
,  // measure 13
0020
0000
1030
0002
0000
0000
0203
0000
0000
0000
0310
0000
0100
0000
0001
0000
,  // measure 14
4000
0000
0000
0000
3010
0000
0400
0000
0000
0301
1000
0000
0200
0000
0300
0000
,  // measure 15
0120
0000
0031
0010
0001
0000
2000
0000
0000
0000
3010
0000
0100
0000
0001
1000
,  // measure 16
0001
1000
0100
0000
0010
0000
0100
1000
0100
1000
0001
0000
1000
0000
0M01
1000
,  // measure 17
0010
010M
0040
0000
0030
0000
0200
0000
0000
0000
0301
0000
1000
0000
0010
0000
,  // measure 18
M110
0100
0000
00M1
0000
1000
0000
110M
0000
0100
0010
0000
M022
0000
0033
0000
,  // measure 19
2002
0000
0003
3010
0100
0000
0102
0000
0000
0000
1003
0001
1000
0000
0200
0000
,  // measure 20
0320
0000
0000
0031
1000
0000
0200
0000
0320
0000
0031
0000
1000
0000
0010
0000
,  // measure 21
0210
0000
0000
0301
1000
0000
0200
0000
0000
0000
0310
0000
0001
0000
1000
0000
,  // measure 22
1020
0000
0000
0130
0001
0000
2000
0000
0000
3100
0010
0000
0200
0000
1300
0100
,  // measure 23
0010
M000
0100
0010
0001
0M00
1000
0010
0100
000M
0010
0100
0001
0M00
1000
0001
,  // measure 24
0040
M000
0031
1000
0200
000M
0300
0000
00M0
0000
0220
0300
M002
0030
2000
0003
,  // measure 25
00M2
0000
0000
0000
0000
0000
0M00
0000
0000
0000
0000
0000
00M0
0000
0000
0000
0000
0000
0M03
0000
0000
3001
0010
0100
,  // measure 26
100M
0000
0001
0000
010M
0010
0000
M110
0000
0100
0001
1000
0200
0000
0010
0000
,  // measure 27
2300
0000
3001
0200
0000
0000
0310
1000
0020
0000
0130
0000
0001
0000
4000
0000
,  // measure 28
3200
0000
0310
0001
0020
0000
0430
0000
1300
0001
1000
0000
0020
0000
M130
0010
,  // measure 29
1000
0000
0000
00M1
0000
0000
2000
0000
0000
0000
0000
0000
3000
0000
0000
0000
0000
0000
0200
0000
0000
0000
0000
0000
0000
0000
0000
0000
0000
0000
0310
0000
0000
0000
0000
0000
0001
0000
0000
0000
0000
0000
100M
0000
0100
0000
0010
0000
,  // measure 30
0001
1M00
0000
M010
0000
010M
0000
0M01
0000
10M0
0100
0010
0200
0000
1300
0000
,  // measure 31
10M2
0000
0000
0203
0000
0000
0310
0000
2M00
0000
3001
0200
0000
0000
0302
0000
,  // measure 32
M023
0000
0000
2030
3020
0000
013M
0000
0M00
0000
1000
0000
0001
0000
0100
0000
,  // measure 33
M020
0000
0130
0002
0000
0000
1003
0000
020M
0000
0310
0000
0001
0000
0100
0000
,  // measure 34
20M0
0000
0000
310M
0000
0001
2000
3100
,  // measure 35
0020
0000
0130
1000
0002
0000
2003
0000
3020
0000
0130
0001
2000
0000
3100
0000
,  // measure 36
0020
0000
0130
0000
1000
0000
0001
0000
0200
0000
0301
0000
1000
0000
0100
1000
,  // measure 37
00M2
0000
0000
0000
0000
0000
1003
0000
0000
0001
0000
0000
0M20
0000
0000
0000
0000
0000
0130
0000
0000
0010
0000
0000
M002
0000
0000
0000
0000
0000
0013
0000
0000
0001
0000
0000
10M0
0000
0000
0000
0100
0000
0000
0000
1000
0000
0000
0000
,  // measure 38
0M02
0000
1003
0100
0040
0000
M00M
0000
0130
1000
0001
0000
1000
0000
0010
0000
,  // measure 39
M210
0000
0301
2000
0000
0000
3100
0000
00M2
0000
0103
2000
0000
0000
3100
0000
,  // measure 40
M002
0000
0000
0103
0002
0000
1M03
0000
0000
0000
0010
0000
0001
0000
1000
0000
,  // measure 41
0M20
0000
0130
0002
0000
0000
0013
0000
100M
0000
0010
0000
0001
0010
2000
0000
,  // measure 42
3M02
0000
0000
01M3
0000
1000
0001
0100
,  // measure 43
0020
0000
1030
0001
0020
0000
0230
0000
0320
0000
0031
1000
0002
0000
0203
0000
,  // measure 44
0320
0000
0002
0030
2000
0003
0200
3000
0004
0300
0000
0000
0003
0000
1000
0100
,  // measure 45
0020
0000
0030
0000
0022
0000
0030
0000
2003
0000
3020
0000
0230
0000
0302
1003
,  // measure 46
0200
0000
0310
0002
0000
0000
1003
0000
0020
0000
0130
0002
0000
0000
1003
0000
,  // measure 47
0020
0000
0000
0130
0000
0001
0100
0010
,  // measure 48
2000
0000
3001
0020
0000
0000
0130
0000
2000
0000
3001
0200
0000
0000
0310
0000
,  // measure 49
1M10
000M
10M1
M000
0M21
0130
1000
0001
,  // measure 50
0200
0000
0310
2000
0000
3001
0020
0000
0000
0031
1000
0000
0010
0000
0100
0000
,  // measure 51
0002
0000
1003
0100
1000
0000
0001
0000
0020
0001
0000
0000
0031
0000
1000
0010
,  // measure 52
0100
0000
0000
0000
M101
0000
0M00
0000
10M1
0000
1000
0000
0200
0000
0310
0001
,  // measure 53
1000
0010
1000
0010
0400
0000
0000
0000
M3M0
0000
0000
0000
0002
0000
0000
0000
,  // measure 54
2003
0000
3100
0020
0000
0000
0230
0000
0000
0000
1300
0000
0002
0000
0200
0000
,  // measure 55
0000
0000
0000
0000
0000
0000
0303
0000
0222
0333
0000
0000
0000
0000
0001
1000
,  // measure 56
0200
0000
0310
0200
0000
0000
2300
0000
0000
0000
3001
0000
0100
0000
0020
0000
,  // measure 57
0000
0030
0200
0302
0000
0000
0003
0000
,  // measure 58
2001
0000
3100
0020
0000
0000
0230
0000
0000
0000
1300
0000
0001
0000
0200
0000
,  // measure 59
0000
0000
0000
0000
0320
0000
1030
0000
2220
3330
0000
0000
0000
0000
1000
0001
,  // measure 60
0010
0000
0000
0001
0000
0000
2000
0000
0000
0000
0000
0000
3000
0000
0000
0000
0000
0000
0002
0000
0000
0000
0000
0000
0000
0000
0000
0000
0000
0000
1003
0000
0000
0000
0000
0000
0100
0000
0000
0000
0000
0000
1000
0000
0100
0000
0010
0000
,  // measure 61
M001
1000
0000
0M10
0000
0100
0000
01M1
0000
0001
1000
0000
220M
0000
3300
0000
,  // measure 62
2000
0000
0000
3001
0010
0000
0200
0000
0000
0310
0001
0000
1000
0000
0010
0000
,  // measure 63
0210
0000
0000
0301
1000
0000
0200
0000
0000
1300
0001
0000
0100
0000
0010
0000
,  // measure 64
2010
0000
0000
3001
0010
0000
0200
0000
0000
0000
1300
0000
0001
0000
1000
0000
,  // measure 65
1200
0000
0000
0310
0001
0000
4000
0000
0000
3010
0100
0000
0002
0000
2003
0000
,  // measure 66
32M0
0000
0320
0000
M032
0000
1003
0010
020M
0000
0310
0100
M002
0000
0103
0001
,  // measure 67
2M00
0000
3001
1000
002M
0000
0030
0000
MM00
0000
0200
0000
M020
0300
0200
0030
,  // measure 68
002M
0000
0000
0000
0000
0000
0000
0000
0000
0000
0000
0000
M000
0000
0000
0000
0000
0000
0000
0000
0000
0000
0000
0000
000M
0000
0000
0000
0000
0000
0000
0000
0000
0000
0000
0000
M300
0000
0000
0030
0000
0000
0100
0000
0001
0000
1000
0000
,  // measure 69
0M10
0000
100M
0000
0M01
0010
0000
M110
0000
0100
10M0
0001
0100
0010
0200
0000
,  // measure 70
0302
0000
1003
0100
0010
0000
0200
0000
0000
0000
1300
0000
0001
0000
0100
0000
,  // measure 71
0120
0000
1030
0001
1000
0000
0100
0010
0001
0010
0100
0000
1000
0000
0001
1000
,  // measure 72
0010
0000
0000
1000
0000
0000
0002
0000
0000
0003
0000
0000
0000
0000
0000
0000
0000
0000
0020
0000
0000
0M0M
0000
0000
0030
0000
0000
0000
0000
0000
0100
0000
0000
00M0
0000
0000
1000
0000
0000
0000
0000
0000
0001
0000
0010
0000
0100
0000
,  // measure 73
10M0
0001
0000
M101
0000
0100
0000
001M
0000
1000
0001
0000
M021
0000
0130
0000
,  // measure 74
21M0
0000
3001
0200
0000
0000
0310
0000
M200
0000
0301
2000
0000
0000
3100
0000
,  // measure 75
00M2
0000
0000
0103
0002
0000
1M03
0000
0000
0000
0010
0000
0001
0000
1000
0000
,  // measure 76
002M
0000
0130
0002
0000
0000
1003
0000
02M0
0000
0301
0000
0100
1000
0010
0000
,  // measure 77
M002
0000
0000
10M3
0000
0100
0001
1000
,  // measure 78
0200
0000
0310
0001
2000
0000
3010
0000
0200
0000
0301
1000
0100
0000
0010
0000
,  // measure 79
0200
0000
1300
0000
0001
0000
0100
0000
0020
1000
0000
0000
1030
0000
1000
0001
,  // measure 80
0M20
0000
0000
0000
0000
0000
0031
0000
0000
0010
0000
0000
M200
0000
0000
0000
0000
0000
0310
0000
0000
0100
0000
0000
200M
0000
0000
0000
0000
0000
3100
0000
0000
1000
0000
0000
00M1
0000
0000
0000
0100
0000
0000
0000
0010
0000
0000
0000
,  // measure 81
100M
0100
0010
0100
4000
00MM
0000
0000
3001
0010
0200
0000
0310
0001
1000
0000
,  // measure 82
102M
0000
0130
0002
0000
0000
1003
0000
020M
0000
0310
2000
0000
0000
3001
0000
,  // measure 83
02M0
0000
0000
0301
0200
0000
M310
0000
0000
0000
0001
0000
1000
0000
0010
0000
,  // measure 84
M200
0000
0301
2000
0000
0000
3100
0000
00M2
0000
0103
0000
1000
0001
0100
0000
,  // measure 85
200M
0000
0000
3M01
0000
0010
1000
0001
,  // measure 86
0020
0000
0130
1000
0002
0000
0013
0000
0200
0000
0310
0001
1000
0000
0010
0000
,  // measure 87
0200
0000
0301
0000
1000
0000
0100
0000
0020
0001
0000
0000
0031
0000
1000
0010
,  // measure 88
0100
0000
00M0
0000
0002
0000
M000
0000
0023
0000
0130
0000
1000
00M0
0001
0100
,  // measure 89
0020
0000
0000
2030
0000
3002
0000
0103
0020
0000
0000
2030
0000
3200
0000
0310
,  // measure 90
0002
0000
0000
2000
0000
0003
0020
0000
3000
0002
0000
0030
2000
0000
0000
0003
,  // measure 91
0200
0000
3000
0302
0000
2000
0000
0003
0200
0000
3000
0002
0300
2000
0003
3010
,  // measure 92
0002
0000
0000
0000
0000
0000
0000
0000
0000
2003
0000
0000
0000
0000
0000
3000
0000
0000
0020
0000
0000
0000
0000
0000
0000
0000
0000
0230
0000
0000
0000
0000
0000
0000
0000
0000
0301
0000
0000
0000
0000
0000
1000
0000
0100
0000
0010
0000
,  // measure 93
0002
0000
1003
0020
0000
0230
0000
0301
2000
0000
3100
0020
0000
0230
0000
1300
,  // measure 94
0002
0000
0000
0023
0000
0000
0230
0000
0000
2300
0000
0000
3001
0010
0001
0000
,  // measure 95
1M00
0000
001M
0000
0100
M001
0100
0010
0000
1M00
0000
00M1
0000
M010
0100
000M
,  // measure 96
0010
0M00
0001
00M0
1000
0000
001M
M100
0000
00M1
0M00
1000
0001
0100
0010
0100
,  // measure 97
0002
0000
0000
0000
0000
0000
0000
0000
0000
0100
0000
0000
0000
0000
0000
0000
0000
0000
2003
0000
0000
0000
3200
0000
0000
0000
0000
0000
0000
0000
0000
0000
0000
0010
0000
0000
0000
0000
0000
0000
0000
0000
2300
0000
0000
0000
0000
0000
,  // measure 98
3002
0000
0103
0020
0000
0000
4000
0000
0000
0000
3030
0000
1000
0100
0010
0100
,  // measure 99
2000
0000
0000
0000
0000
0000
0000
0000
0000
0001
0000
0000
0000
0000
0000
0000
0000
0000
3200
0000
0000
0000
0340
0000
0000
0000
0000
0000
0000
0000
0000
0000
0000
0130
0000
0000
0000
0000
0000
0000
0000
0000
1000
0000
0000
0002
0000
0000
,  // measure 100
0000
0000
0000
0000
0000
0000
1003
0000
0000
0020
0000
0000
0000
0000
0000
0000
0000
0000
0230
0000
0000
0000
0000
0000
0301
0000
0100
0000
0010
0000
1000
0000
0000
0000
0000
0000
0002
0000
0000
MMM0
0000
0000
0003
0000
0000
0000
0000
0000
,  // measure 101
0021
0000
0130
2000
0000
3010
0000
0100
0002
0000
0013
0200
0000
1300
0000
0010
,  // measure 102
0200
0000
0000
0302
0000
0000
0023
0000
0000
0230
0000
0000
4300
0000
3000
0000
,  // measure 103
0001
0010
0001
0010
0100
1000
0100
1000
0001
0100
0001
0100
0010
1000
0010
1000
,  // measure 104
0001
0000
0000
0010
0000
0000
0001
0000
0000
0010
0000
0000
0400
0000
4000
0000
0000
0000
0000
0000
0000
0000
0000
0000
0000
0000
0000
0000
0000
0000
0000
0000
0000
0000
0000
0000
3300
0000
0000
0000
0000
0000
0000
0000
0000
0000
0000
0000
,  // measure 105
10M0
0000
0000
0001
0000
0000
0000
0000
0000
M101
0000
0000
0000
0000
0000
0100
0000
0000
0000
0000
0000
011M
0000
0000
0000
0000
0000
0010
0000
0000
1M00
0000
0000
0001
0000
0000
0010
0000
0000
0000
0000
0000
0001
0000
0010
0000
0100
0000
,  // measure 106
10M0
0001
0000
1M01
0000
1000
0000
101M
0000
0010
M200
0000
0302
0000
2003
3000
,  // measure 107
2200
3300
MM00
0000
0000
0000
0202
M3M3
0000
1M01
0000
0000
102M
0000
0000
0031
,  // measure 108
0020
0000
103M
0000
0000
0000
0001
0000
0020
0000
1030
0000
M020
0000
0031
2000
,  // measure 109
0000
0000
3010
0000
M200
0000
0301
0000
1000
0100
0020
0000
2M30
0000
0000
0000
,  // measure 110
0000
0000
30M1
0000
0000
0000
0100
0000
1000
0000
0001
0000
02M0
0000
0310
1000
,  // measure 111
0M04
0000
0013
0000
M200
0000
0310
0001
2M00
0000
3010
0000
02M0
0000
0301
0000
,  // measure 112
1000
0000
0100
0000
0040
0000
0M0M
0000
0030
0000
0001
0010
M200
0000
0310
0001
,  // measure 113
2M00
0000
0000
0000
0000
0000
3001
0000
0000
0100
0000
0000
002M
0000
0000
0000
0000
0000
0030
0000
0000
0000
0000
0000
10M0
0000
0000
0000
0001
0000
0000
0000
0010
0000
0000
0000
0100
0000
0000
0010
0000
0000
0001
0000
0000
0010
0000
0000
,  // measure 114
0400
0000
M0M0
0000
1300
0001
0100
0000
0010
0000
1000
0000
120M
0000
0310
0002
,  // measure 115
0000
0000
1003
0000
1M20
0000
0230
0000
0301
0010
0100
0000
0M02
0000
0000
0000
,  // measure 116
0000
0000
M103
0000
0000
0000
1000
0000
0001
0000
0100
0000
012M
0000
1030
0002
,  // measure 117
0000
0000
0013
0000
M200
0000
1300
0000
0001
0100
1000
0000
M002
0000
0000
0000
,  // measure 118
0000
0000
0M13
0000
0000
0000
1000
0000
0001
0000
0010
0000
0210
0000
1300
0001
,  // measure 119
0200
0000
0310
0000
2000
0000
3001
0010
0200
0000
1300
0000
0002
0000
0103
0000
,  // measure 120
0001
0000
0100
0000
0040
0000
0000
0000
0030
0000
1000
0001
0020
0000
0030
0000
,  // measure 121
02M0
0000
0000
0000
0000
0000
0000
0000
0000
0000
0000
0000
0000
0000
0000
0000
2300
0000
0000
0000
0000
0000
0000
0000
3001
0000
0000
0000
0000
0000
0000
0000
0200
0000
0000
0000
0000
0000
0000
0000
0310
0000
0000
0000
2000
0000
0000
0000
0000
0000
0000
0000
0000
0000
0000
0000
0000
0000
0000
0000
0000
0000
0000
3000
,  // measure 122
4000
0000
0000
0000
3000
0000
0001
0000
0010
0000
0001
0000
2000
0000
3010
0400
0000
0000
0000
0300
0000
0000
0002
0000
1003
0000
0100
0000
0020
0000
0130
0000
,  // measure 123
1000
0000
0001
0000
0020
0000
0000
0000
0000
0000
0000
0000
0000
0000
0000
0000
0000
0000
0030
0000
0000
0000
0000
0000
0000
0000
0001
0100
0001
0000
0000
0000
,  // measure 124
2000
0000
3001
0010
0100
0000
1000
0001
0020
0000
0031
2000
0000
0000
3100
0000
,  // measure 125
0020
0000
0130
2000
0000
0000
3001
0000
0020
0000
0000
0000
0000
0000
0130
0000
,  // measure 126
0000
0000
0010
0000
0001
0000
1000
0000
0020
0000
0130
0002
0000
0000
1003
0000
,  // measure 127
0200
0000
0000
0000
0310
0000
0002
0000
0000
0000
0000
0000
1003
0000
0000
0000
1010
0000
0000
0000
0MM0
0000
0000
0000
0220
0000
0330
0000
0000
0MM0
0000
0000
,  // measure 128
0102
0000
1003
0000
0100
0000
0010
0000
0200
0000
1300
0002
0000
1003
0200
0000
,  // measure 129
0000
0310
0001
1000
0020
0130
0002
1003
,  // measure 130
0200
0000
0000
0010
0000
0000
0000
0000
0000
0000
0000
0000
0310
0000
0000
0000
0000
0000
0100
0000
0000
1000
0000
0000
00M1
0000
0000
0000
0000
0000
0000
0000
0000
0000
0000
0000
1M00
0000
0000
0000
0010
0000
0000
0000
0100
0000
0000
0000
,  // measure 131
M002
0000
1003
0000
01M0
0000
0010
0M01
1000
0001
0100
0010
4000
0000
0000
0000
,  // measure 132
3000
0000
1001
0002
0000
0000
0000
0000
,  // measure 133
MMM0
0000
0000
0000
,  // measure 134
0003
0000
0000
0000
;

//---------------dance-single - Ace Of Arrows (2017)----------------
#NOTES:
     dance-single:
     Ace Of Arrows (2017):
     Hard:
     9:
     0.592,0.454,0.023,1.000,0.376:
0000
0000
0000
0000
0000
0000
0000
0000
0000
0000
0000
0000
0000
0000
0001
0010
,
0001
0000
1000
0000
0100
1000
0000
0001
0000
1000
0100
0000
0010
0000
0100
0000
,
2000
0000
3001
0200
0000
0000
0301
0000
0020
0000
0031
2000
0000
0000
3001
0000
,
0020
0000
0000
0130
0000
1000
0001
0100
,
0002
0000
1003
0020
0000
0000
1030
0000
0002
0000
1003
0000
0010
0000
0100
0000
,
0002
0000
0000
1003
0000
0100
1000
0001
,
1000
0000
0010
0200
0000
0000
0000
0000
0300
0000
0001
0000
1000
0000
0100
0000
,
0010
0000
0100
0000
1000
0000
0001
0000
0020
0000
0000
0000
0030
0000
0001
1000
,
0002
0000
0003
0000
M0M0
0000
2000
0000
3000
0000
0M0M
0000
0000
0000
0100
0010
,
M100
0000
0000
100M
0100
0010
M001
0000
0000
0020
0000
0000
,
0032
0000
1003
0020
0000
0000
0230
0000
0000
0000
0301
0000
1000
0000
0200
0000
,
0000
0000
0000
0000
0300
0000
0020
0000
0030
0000
0000
0000
0000
0000
0001
0010
,
0002
0000
1003
0020
0000
0000
0230
0000
0000
0000
0301
0000
1000
0000
0400
0000
,
0000
0300
0010
0400
0000
0300
0000
0000
,
2000
0000
3001
0200
0000
0000
0320
0000
0000
0000
1030
0000
0001
0000
0200
0000
,
0000
0300
0001
4000
0000
3000
0000
0001
,
0010
0100
0040
0000
0030
0000
0002
0000
0000
0000
1003
0000
0010
0000
0100
0000
,
00M1
1000
0000
0100
0000
0010
0000
010M
0000
1000
0001
0000
0202
0000
0303
0000
,
0200
0000
0000
0320
0000
1030
0001
0200
,
0000
0000
0300
0000
0001
1000
0010
1000
,
0002
0000
0000
0023
0000
0130
1000
0002
,
0000
0000
0000
0000
0000
0000
0000
0000
0003
0000
0000
0000
0000
0000
1000
0100
,
2000
0000
3000
0000
0M00
0000
0001
0010
0002
0000
0003
0000
00M0
0000
1000
0010
,
2000
3000
000M
0000
0000
0002
0203
0002
,
M000
0000
0000
0000
0000
0000
0000
0000
00M0
0000
0300
0000
0000
0000
1003
0100
,
1000
0000
0001
0000
0100
0010
0000
0100
0000
0001
1000
0000
0200
0000
0000
0000
,
0320
0000
0130
2000
0000
0000
3002
0000
0000
0000
0013
0000
0100
0000
4000
0000
,
0000
3000
0001
0400
0000
0300
0000
0001
,
1000
0100
2000
0000
3000
0000
0002
0000
0000
0000
1003
0000
0100
0000
1000
0000
,
0M01
0010
0000
0100
0000
1000
0000
010M
0000
0010
0001
0000
2000
0000
3010
0000
,
0200
0000
0000
0301
0000
0000
1000
0000
0002
0000
0013
0200
0000
0000
1300
0000
,
0002
0000
0000
0013
0002
0000
10M3
0000
0000
0000
0010
0000
1000
0000
0001
0000
,
0020
0000
0130
2000
0000
0000
3001
0000
0200
0000
0301
0000
1000
0000
0100
0000
,
0020
0000
0000
0M00
0000
0000
0230
0000
0300
0000
1000
0000
0001
0000
0100
0000
,
0001
0000
1000
0200
0000
0000
0300
0000
0000
0000
0010
0000
0001
0000
1000
0000
,
0010
0000
1000
0000
0001
0000
0100
0000
0020
0000
0000
0000
0030
0000
1000
0001
,
2000
0000
0000
0000
0000
0000
3000
0000
0000
0000
0000
0000
0000
0000
0000
0000
0000
0000
0001
0000
0000
0010
0000
0000
0002
0000
0000
0000
0000
0000
0003
0000
0000
0000
0000
0000
1000
0000
0000
0000
0100
0000
0000
0000
0010
0000
0000
0000
,
0002
0000
0MM0
0000
0003
2000
3100
0010
,
0002
0000
1003
0200
0000
0000
0310
0000
0002
0000
1003
0020
0000
0000
0130
0000
,
0020
0000
0000
1030
0020
0000
M130
0000
0000
0000
0001
0000
1000
0000
0100
0000
,
0010
0000
0100
2000
0000
0000
3001
0000
0200
0000
0310
0000
1000
0001
1000
0000
,
0200
0000
0000
M000
0000
0000
0320
0000
0030
0000
0001
0000
1000
0000
0010
0000
,
1000
0000
0001
0200
0000
0000
0300
0000
0000
0000
0010
0000
0100
0000
0001
0000
,
1000
0000
0100
0000
0010
0000
0001
0000
0020
0000
0000
0000
0030
0000
0001
1000
,
0002
0000
0003
0000
0200
0000
0300
0000
0020
0000
1030
0000
0001
0000
0010
0100
,
0020
0000
0031
2000
0000
0000
3010
0000
0200
0000
0301
2000
0000
0000
3100
0000
,
0020
0000
0000
0130
0000
1000
0001
0100
,
0002
0000
1003
0200
0000
0000
0310
0000
0002
0000
1003
0020
0000
0000
1030
0000
,
0001
00M0
0100
M000
0010
1000
0001
0010
,
0200
0000
0310
0002
0000
0000
0000
0000
0003
0000
1000
0000
0010
0000
0100
0000
,
0010
0000
1000
0000
0001
0000
1000
0000
0020
0000
0000
0000
0030
0000
1000
0001
,
1000
0000
0000
0000
0020
0000
0030
0000
2000
0000
3001
0000
0200
0000
0301
2000
,
0000
0000
0000
0000
3000
0000
2200
3300
,
0200
0000
0310
0002
0000
0000
2003
0000
0000
0000
3010
0000
0100
0000
0002
0000
,
0000
0000
0000
0000
0000
0000
0003
0000
2002
0000
3003
0000
0000
0000
1000
0100
,
2000
0000
3001
0020
0000
0000
0230
0000
0000
0000
0310
0000
0001
0000
2000
0000
,
0000
3000
0010
0200
0000
0000
0300
0000
,
0002
0000
1003
0020
0000
0000
0230
0000
0000
0000
0301
0000
1000
0000
0200
0000
,
0000
0300
0010
0200
2000
3000
0300
0010
,
0100
1000
0200
0000
0300
0000
2000
0000
0000
0000
3001
0000
0010
0000
0002
0000
,
1M03
0010
0000
0100
0000
0001
0000
M100
0000
0010
1000
0000
2002
0000
3003
0000
,
0002
0000
0000
0023
0000
0130
1000
0002
,
0000
0000
0003
0000
1000
0010
0100
0010
,
4000
0000
0000
3002
0000
0013
0100
4000
,
0000
0000
0000
0000
0000
0000
0000
0000
3000
0000
0000
0000
0000
0000
0001
0100
,
0002
0000
0003
0000
0M00
0000
1000
0001
2000
0000
3000
0000
00M0
0000
0100
0010
,
0200
0000
000M
0300
0000
2000
3200
2000
,
00M0
0000
0000
0000
0000
0000
0000
0000
000M
0000
0300
0000
0000
0000
3001
0100
,
00M1
0000
1000
0000
0100
0010
0000
010M
0000
1000
0001
0000
0020
0000
0000
0000
,
0230
0000
1300
0002
0000
0000
0203
0000
0000
0000
0310
0000
1000
0000
0002
0000
,
0000
0003
1000
0200
0000
0300
0000
1000
,
0001
0100
0002
0000
0003
0000
2000
0000
0000
0000
3100
0000
0010
0000
0002
0000
,
1003
0010
0000
0100
0000
0001
0000
0100
0000
0010
1000
0000
0002
0000
0013
0000
,
0200
0000
0310
0002
0000
0000
1003
0000
0020
0000
0130
0002
0000
0000
1003
0000
,
0M20
0000
0000
0130
0020
0000
1M30
0000
0000
0000
0001
0000
0010
0000
0100
0000
,
0020
0000
0031
2000
0000
0000
3001
0000
0020
0000
0031
0000
1000
0100
2000
0000
,
3002
M000
0000
02M3
0300
0010
1000
0001
,
0200
0000
0301
2000
0000
0000
3000
0000
0000
0000
0001
0000
0100
0000
0010
0000
,
1000
0000
0010
0000
0100
0000
0001
0000
2000
0000
0000
0000
3000
0000
0001
0010
,
0002
0000
0000
0000
0000
0000
0003
0000
0000
0000
0000
0000
0M00
0000
0000
0000
0000
0000
0010
0000
0000
0100
0000
0000
0020
0000
0000
0000
0000
0000
0030
0000
0000
0000
0000
0000
0001
0000
0000
0000
0010
0000
0000
0000
0100
0000
0000
0000
,
2000
0000
0MM0
0000
3000
0001
0100
0010
,
2000
0000
3001
0020
0000
0000
0031
0000
2000
0000
3001
0020
0000
0000
0130
0000
,
200M
0000
0000
3001
2000
0000
310M
0000
0000
0000
0010
0000
0001
0000
1000
0000
,
0020
0000
0130
0002
0000
0000
1003
0000
0200
0000
0310
0000
0001
1000
0001
0000
,
0200
000M
0000
0320
0030
1000
0001
0010
,
0002
0000
1003
0200
0000
0000
0300
0000
0000
0000
0010
0000
0100
0000
1000
0000
,
0001
0000
0100
0000
0010
0000
1000
0000
0002
0000
0000
0000
0003
0000
0010
0100
,
0020
0000
0030
0000
0002
0000
0000
0000
1003
0000
0010
0000
0100
0000
0010
1000
,
0020
0000
0000
0230
0000
0302
0000
0000
2003
0000
0000
3200
0000
2300
0000
0000
,
3002
0000
0000
0203
0000
0000
0320
0000
0000
2030
0000
0000
3002
0000
0003
0000
,
2000
0000
0000
3200
0000
0320
0000
0000
0032
0000
0000
2003
0000
3020
0000
0000
,
0230
0000
0000
0302
0000
0000
2003
0000
0000
3200
0000
0000
0310
0000
0001
1000
,
0002
0000
0013
0200
0000
0320
0000
0031
1000
0000
1000
0002
0000
0203
0000
0310
,
2000
0000
0000
3002
0000
0000
0023
0000
0000
0230
0000
0000
2300
0000
3002
0000
,
01M3
0000
0010
0000
1000
0001
0000
M010
0000
0100
0000
0010
0000
0001
1000
0000
,
001M
0000
0100
0000
0001
0100
0000
M010
0000
1000
0000
0010
0000
0100
0001
0000
,
2000
0000
0000
0000
0000
0000
0000
0000
0000
3001
0000
0200
0000
0000
0000
0000
0000
0000
0000
0000
0000
0310
0000
0000
,
2000
0000
3001
0020
0000
0000
0430
0000
0000
0000
0300
0000
1000
0100
1000
0000
,
0002
0000
0000
0000
0000
0000
0003
0000
0000
1000
0000
0400
0000
0000
0000
0000
0000
0000
0300
0000
0000
0010
0000
0000
,
0002
0000
1003
0020
0000
0000
0230
0000
0000
0000
0000
0000
0300
0000
0000
0000
,
0002
0000
1003
0020
0000
0230
0000
0301
1000
0000
1000
0002
0000
0023
0000
0130
,
2000
0000
0000
3200
0000
0000
0320
0000
0000
0032
0000
0000
4003
0000
3000
0000
,
0020
0000
0000
0230
0000
0000
0302
0000
0000
2003
0000
0000
3002
0000
0203
0020
,
0000
0000
0000
0300
0400
0000
0000
0000
0000
0000
0000
0000
0330
0000
0000
0000
,
001M
1000
0000
0001
0000
0010
0000
M100
0000
0010
0002
0000
2003
0000
3000
0000
,
00M1
0100
0000
0010
0000
1000
0000
M010
0000
0100
0002
0000
1003
0000
0100
0000
,
0020
0000
003M
0000
0000
0000
M220
0330
0000
0200
0000
0300
200M
0000
0000
30M1
,
2000
0000
302M
0000
0030
0000
0100
0000
0001
0000
1000
0000
0200
0000
0310
0002
,
0000
0000
1003
0000
0020
0000
0130
0000
0001
1000
0002
0000
0023
0000
000M
0000
,
0000
0000
M230
0000
0300
0000
1000
0000
0001
0000
0100
0000
0020
0000
1030
0004
,
0000
0003
0000
0010
0001
1000
0010
0100
,
0010
0000
1000
0000
0004
0000
0000
0000
0003
0000
1000
0100
2000
0000
3000
0000
,
000M
0000
0000
0000
0000
0000
0100
0000
0000
0010
0000
0000
0200
0000
0000
0000
0000
0000
0300
0000
0000
0000
0000
0000
10M0
0000
0000
0000
0001
0000
0000
0000
1000
0000
0000
0000
0020
0000
0000
0000
0000
0000
0000
0000
0000
0000
0000
0000
,
MM00
0000
0000
0000
0030
0000
1000
0000
0001
0000
0010
0000
0200
0000
0310
0002
,
0000
0000
1003
0000
0020
0000
0130
0000
0001
1000
0001
0000
0020
0000
000M
0000
,
0000
0000
M130
0000
0000
0000
1000
0000
0001
0000
0100
0000
0010
0000
1000
0002
,
0000
0000
0013
0000
0200
0000
1300
0000
0001
0100
0001
0000
2000
0000
000M
0000
,
0000
0000
31M0
0000
0000
0000
0010
0000
0001
0000
1000
0000
0001
0000
0010
0200
,
0000
0300
0000
0010
0001
1000
0010
0100
,
0001
0000
1000
0000
0040
0000
0000
0000
0030
0000
1000
0001
2000
0000
3000
0000
,
0002
0000
0000
0000
0013
0000
0100
0000
1000
0000
0001
0200
0000
0000
0000
0000
,
0000
0000
0300
0000
0000
0000
0001
0000
1000
0000
0100
0000
1000
0000
0001
0040
0000
0000
0000
0030
0000
0000
0001
0000
1000
0000
0010
0000
1000
0000
0001
0000
,
0010
0000
0100
0000
0020
0000
0000
0000
0000
0000
0000
0000
0000
0000
0000
0000
0000
0000
0030
0000
0000
0000
0000
0000
0000
0000
0001
0010
0001
0000
0000
0000
,
2000
0000
3001
0010
0100
0000
0010
0001
0020
0000
0130
2000
0000
0000
3001
0000
,
0200
0000
0310
2000
0000
0000
3001
0000
0020
0000
0000
0000
0000
0000
0130
0000
,
0000
0000
1000
0000
0001
0000
0100
0000
0020
0000
1030
0002
0000
0000
0103
0000
,
0020
0000
1030
0002
0000
0000
0013
0000
0100
0000
00M0
0000
2000
0000
0M00
0000
,
3001
0000
0010
0000
0001
0000
1000
0000
0010
0000
0100
0002
0000
0000
0000
0000
,
0003
1000
0100
1000
0001
0100
0001
1000
,
0200
0000
0000
0000
0000
0000
0000
0000
0000
0000
0000
0000
0300
0000
0000
0000
0000
0000
0010
0000
0000
0001
0000
0000
0M10
0000
0000
0000
0000
0000
0000
0000
0000
0000
0000
0000
M001
0000
0000
0000
0010
0000
0000
0000
0100
0000
0000
0000
,
10M0
0000
0001
0000
0100
0000
0010
2000
0000
0000
0000
0000
0000
0000
0000
0000
,
3000
0000
1100
0200
0000
0000
0000
0000
,
M0M0
0000
0000
0000
,
0300
0000
0000
0000
;

//---------------dance-single - AceOfArrows (2017)----------------
#NOTES:
     dance-single:
     AceOfArrows (2017):
     Medium:
     7:
     0.450,0.303,0.019,0.630,0.247:
0000
0000
0000
0000
,
1000
0000
0100
0000
1000
0000
0000
0001
0000
0000
1000
0000
0000
0000
0000
0000
,
0001
0000
0000
0010
0000
0000
0001
0000
1000
0000
0000
0100
0000
0000
1000
0000
,
0002
0000
0000
0103
0000
0001
1000
0001
,
0010
0000
0000
0001
0000
0000
1000
0000
0010
0000
1000
0000
0001
0000
1000
0000
,
0020
0000
0000
0130
0000
0010
0100
0010
,
1000
0000
0000
0002
0000
0000
0000
0000
0003
0000
1000
0000
0100
0000
1000
0000
,
0001
0100
0001
0100
0020
0000
0030
0100
,
0001
0000
0000
1000
0000
0000
0000
0001
,
0010
0000
0000
0100
1000
0100
1000
0000
0000
0002
0000
0000
,
1003
0000
0000
0010
0000
0000
2000
0000
0000
0000
3001
0000
0010
0000
0002
0000
,
0000
0000
0000
0003
0000
0000
0000
1000
,
0200
0000
0000
1300
0000
0000
0002
0000
0000
0000
1003
0000
0010
0000
2000
0000
,
0000
3000
0001
0400
0000
0300
0000
0000
,
0002
0000
0000
1003
0000
0000
0200
0000
0000
0000
1300
0000
0001
0000
2000
0000
,
0000
3000
0001
0040
0000
0030
0000
0001
,
0010
0001
0000
2000
0000
3001
0100
0000
,
0010
0000
0000
1000
0000
0001
0000
1000
0000
0000
0001
0000
0020
0000
0030
0000
,
0200
0000
0000
2300
0000
3001
0010
0002
,
0000
0000
0003
0000
1000
0100
1000
0100
,
0020
0000
0000
0032
0000
1003
0010
2000
,
0000
0000
0000
0000
3000
0000
0000
0001
,
0020
0000
0030
000M
0000
0000
0001
0000
2000
0000
3000
00M0
0000
0000
0100
0000
,
0020
0030
0000
0000
0000
0001
2000
0020
,
0000
0000
0000
0000
0000
3000
0000
0130
,
0001
0000
0100
0000
0010
0000
0000
1000
0000
0000
0001
0000
0000
0000
0000
0000
,
2000
0000
0000
3001
0000
0000
0020
0000
0000
0000
0031
0000
1000
0000
0004
0000
,
0000
0003
1000
0400
0000
0300
0000
1000
,
0100
1000
0000
0002
0000
1003
0010
1000
,
0001
0000
0000
0010
0000
0100
0000
0010
0000
0000
0001
0000
1000
0000
0001
0000
,
M010
0000
0000
0002
0000
0000
1003
0000
0010
0000
0000
2000
0000
0000
3001
0000
,
0040
0000
0000
000M
0000
0000
0130
0000
0000
0000
0010
0000
0001
0000
0010
0000
,
M100
0000
0000
1000
0000
0000
0001
0000
2000
0000
0000
0000
3010
0000
1000
0000
,
0002
0000
M000
0103
0000
0010
0100
0010
,
1000
0000
0000
2000
0000
0000
3000
0000
0000
0000
0001
0000
0010
0000
0001
0000
,
1000
0100
1000
0100
0020
0000
0030
0001
,
2000
3000
000M
0010
0200
0300
00M1
1000
,
0020
0000
0000
0000
0030
1000
0001
0010
,
0M01
0000
0000
2000
0000
0000
3100
0000
0010
0000
0000
0200
0000
0000
1300
0000
,
0004
0000
0000
M000
0000
0000
0013
0000
0000
0000
0100
0000
0010
0000
0100
0000
,
100M
0000
0000
0002
0000
0000
1003
0000
0010
0000
1000
0000
0001
0000
1000
0000
,
0200
0000
0000
M000
0000
0000
0310
0000
0000
0000
0001
0000
1000
0000
0001
0000
,
0100
0000
0000
0200
0000
0000
0300
0000
0000
0000
0001
0000
1000
0000
0001
0000
,
0010
0100
0010
0001
2000
0000
3000
0001
,
0200
0300
0020
0000
1030
0001
1000
0000
,
0100
0000
0000
0020
0000
0000
0031
0000
1000
0000
0000
0002
0000
0000
1003
0000
,
0020
0000
0000
0130
0000
0001
0100
0001
,
1000
0000
0000
0002
0000
0000
1003
0000
0100
0000
0000
0020
0000
0000
0031
0000
,
1000
0000
0010
0000
1000
0001
0010
0001
,
1000
0000
0000
0200
0000
0000
0000
0000
0300
0000
1000
0000
0001
0000
1000
0000
,
0010
0100
0010
0100
0002
0000
0003
1000
,
0100
0000
0000
0000
0020
0000
0000
0000
0031
0000
1000
0000
0001
0000
0000
0200
,
0000
0000
0000
0300
,
0001
0000
0000
1000
0000
0000
0200
0000
0000
0000
0310
0000
0001
0000
0020
0000
,
0000
0000
0000
0030
0110
0000
0000
0100
,
2000
0000
0000
3001
0000
0000
0200
0000
0000
0000
0301
0000
1000
0000
0002
0000
,
0000
0003
1000
0200
0000
0000
0300
0000
,
0020
0000
0000
0031
0000
0000
2000
0000
0000
0000
3001
0000
0100
0000
0002
0000
,
0000
0003
1000
0100
0110
0000
0000
0010
,
0001
0010
0000
0200
0000
0310
0001
0000
,
1000
0000
0000
0001
0000
0100
0000
0001
0000
0000
1000
0000
0200
0000
0300
0000
,
0020
0000
0000
0032
0000
1003
0010
2000
,
0000
0000
3000
0000
0001
1000
0001
0100
,
0040
0000
0000
2030
0000
3001
0010
0004
,
0000
0000
0000
0000
0003
0000
0000
1000
,
0200
0300
M000
1000
0002
0003
0M00
0100
,
0020
0000
0000
000M
0000
0000
0030
0000
0000
0000
1000
0000
0002
0000
0020
0000
,
0000
0000
0000
0000
0000
0003
0000
0130
,
1000
0000
0001
0000
1000
0000
0000
0010
0000
0000
0100
0000
0002
0000
0000
0000
,
2003
0000
0000
3010
0000
0000
0200
0000
0000
0000
0301
0000
1000
0000
0002
0000
,
0000
0003
0010
0200
0000
0300
0000
1000
,
0001
1000
0000
0200
0000
1300
0001
0000
,
1000
0000
0000
0100
0000
0010
0000
0100
0000
0000
1000
0000
0001
0000
1000
0000
,
001M
0000
0000
2000
0000
0000
3001
0000
0010
0000
0000
0200
0000
0000
0310
0000
,
0004
0000
0000
M000
0000
0000
0103
0000
0000
0000
0001
0000
1000
0000
0100
0000
,
1000
0000
0000
0002
0000
0000
1003
0000
0010
0000
0100
0000
0010
0000
1000
0000
,
0002
0000
0000
0M00
0000
0000
0013
0000
0000
0000
0001
0000
1000
0000
0001
0000
,
0010
0000
0000
0020
0000
0000
0030
0000
0000
0000
0001
0000
1000
0000
0010
0000
,
1000
0001
1000
0001
0200
0000
0300
0001
,
2000
3000
000M
0100
0020
0030
M001
1000
,
0020
0000
0M00
0000
0030
1000
0001
1000
,
010M
0000
0000
0020
0000
0000
0031
0000
1000
0000
0000
0002
0000
0000
1003
0000
,
0040
0000
0000
M000
0000
0000
0130
0000
0000
0000
0001
0000
1000
0000
0001
0000
,
0010
0000
0000
0002
0000
0000
1003
0000
0010
0000
1000
0000
0001
0000
0010
0000
,
0200
0000
0000
00M0
0000
0000
0310
0000
0000
0000
0001
0000
1000
0000
0001
0000
,
0100
0000
0000
0200
0000
0000
0300
0000
0000
0000
0010
0000
1000
0000
0010
0000
,
0100
0001
0100
0001
2000
0000
3000
0001
,
0010
0000
0200
0000
1300
0001
1000
0000
,
0200
0000
0000
0310
0000
0002
0000
0000
2003
0000
0000
3001
0000
0200
0000
0000
,
0320
0000
0000
2030
0000
0000
3002
0000
0000
2003
0000
0000
3020
0000
0030
0000
,
2000
0000
0000
3001
0000
0020
0000
0000
0230
0000
0000
1300
0000
0002
0000
0000
,
2003
0000
0000
3020
0000
0000
2030
0000
0000
3002
0000
0000
0013
0000
0100
0000
,
2000
0000
0000
3001
0000
0200
0000
0000
0320
0000
0000
1030
0000
0002
0000
0000
,
2003
0000
0000
3020
0000
0000
2030
0000
0000
3002
0000
0000
0103
0000
0010
0000
,
1000
0000
0001
0000
0010
0000
0000
0001
0M00
1000
00M0
0001
0000
0000
0100
0000
,
0010
0000
0100
0000
0001
0000
0000
0100
000M
0010
M000
0100
0000
0000
0001
0000
,
2000
0000
0000
3001
0020
0000
0000
0031
,
2000
0000
0000
3001
0000
0000
0400
0000
0000
0000
0300
0000
0001
0000
1000
0000
,
0002
0000
0000
1003
0400
0000
0300
1000
,
0002
0000
0000
0013
0000
0000
0200
0000
0000
0000
0000
0000
0300
0000
0000
0000
,
0020
0000
0000
0031
0M00
1000
0000
0000
0020
0000
0000
1030
0M00
0001
0000
0000
,
2000
0000
0000
3020
0000
0000
0230
0000
0000
0302
0000
0000
4003
0000
3000
0000
,
0002
0000
0000
0023
0000
0000
0230
0000
0000
2300
0000
0000
3002
0000
0000
0400
,
0000
0000
0000
0303
,
0001
0000
0000
1000
0000
0100
0000
1000
0000
0000
0001
0000
0000
0000
0000
0000
,
1000
0000
0000
0001
0000
0010
0000
0001
0000
0000
1000
0000
0010
0000
1000
0000
,
1M01
0000
0000
0000
0000
0000
0002
0000
0000
0013
0000
0000
0400
0000
0000
00M0
,
0000
1300
0000
0001
0100
0001
1M01
0000
,
0000
0000
0000
0000
0000
0000
1000
0000
0000
0001
0000
0000
0020
0000
0000
000M
,
0000
0000
0130
0000
0000
0000
1000
0000
0001
0000
1000
0000
0010
0000
0000
0020
,
0000
0030
0000
0100
0001
0100
0010
1000
,
0010
1000
0002
0000
0003
0010
0200
0300
,
0M00
1000
0002
0003
100M
0010
2000
0000
,
0000
0000
0000
0000
3000
0000
0001
0000
0010
0000
0100
0000
M010
0000
0000
0002
,
0000
0000
1003
0000
0010
0000
0100
0000
0010
0000
1000
0000
0002
0000
0000
M000
,
0000
0000
0013
0000
0000
0000
0001
0000
1000
0000
0010
0000
1M00
0000
0000
0002
,
0000
0000
1003
0000
0100
0000
1000
0000
0001
0000
1000
0000
0020
0000
0000
M000
,
0000
0000
0130
0000
0000
0000
0001
0000
1000
0000
0001
0000
0010
0000
0000
0020
,
0000
0030
0000
0001
1000
0001
1000
0100
,
0010
0100
2000
0000
3000
0001
0010
0000
,
0002
0000
0000
0000
1003
0000
0010
0000
1000
0000
0000
0002
0000
0000
0000
0000
,
0000
0000
0003
0000
0000
0000
1000
0000
0100
0000
1000
0000
0100
0000
0000
0040
0000
0000
0000
0030
0000
0000
0001
0000
1000
0000
0001
0000
0010
0000
0100
0000
,
0010
0100
2000
0000
0000
0000
0000
0000
0000
3000
0000
0000
0000
0001
0010
0000
,
0002
0000
1003
0010
1000
0000
0000
0000
0001
0000
0000
0020
0000
0000
0031
0000
,
1000
0000
0000
0200
0000
0000
1300
0000
0002
0000
0000
0000
0000
0000
0103
0000
,
0000
0000
0010
0000
0100
0000
0010
0000
1000
0000
0000
0002
0000
0000
0013
0000
,
0100
0000
0000
0020
0000
0000
0031
0000
1000
0000
0000
0000
0020
0000
0000
0000
,
1030
0000
0001
0000
0010
0000
0001
0000
1000
0000
0000
0200
0000
0000
0000
0000
,
0300
1000
0001
1000
0001
0010
0100
0010
,
0002
0000
0000
0000
0000
0000
0003
0000
0000
1000
0000
0000
0010
0000
0000
0000
0000
0000
1000
0000
0001
0000
1000
0000
,
0001
0000
0010
0000
0001
0000
0000
2000
0000
0000
0000
0000
0000
0000
0000
0000
,
3000
0000
1001
0002
0000
0000
0000
0000
,
0000
M000
0000
0000
,
0003
0000
0000
0000
;

//---------------dance-single - AceOfArrows----------------
#NOTES:
     dance-single:
     AceOfArrows:
     Easy:
     4:
     0.220,0.126,0.011,0.197,0.000:
0000
0000
0000
0000
,
0001
0001
0001
0000
,
0010
0000
0100
0100
,
0200
0000
0000
0300
0000
0000
0000
0000
,
1000
0000
0001
0001
,
0002
0000
0000
0003
0000
0000
1000
0000
,
1000
1000
0000
0010
,
0010
0010
0010
0000
,
0100
0000
0100
0000
,
0001
0001
0001
0001
,
1000
0000
0100
0100
,
0200
0000
0300
0000
,
0010
0000
0001
0001
,
0001
0000
4000
3000
,
0010
0000
0100
0100
,
0100
0000
0001
0000
,
1000
0000
0010
0010
,
0020
0000
0000
0030
,
1000
0000
0001
0001
,
0002
0003
1000
1000
,
2000
0000
3001
0001
,
0002
0000
0003
0000
,
0010
0000
0010
0000
,
0010
0000
0000
0001
,
0002
0000
0000
0000
,
1003
1000
1000
0000
,
0010
0010
0010
0000
,
0100
0000
0100
0000
,
0001
0000
1000
1000
,
2000
0000
0000
3000
,
0001
0000
0010
0010
,
0040
0M00
0000
0030
0000
0000
0000
0000
,
0001
0000
1000
1000
,
2000
000M
0000
3000
0000
0000
0010
0000
,
0010
0010
0000
0100
,
0100
0100
0200
0300
,
0001
0000
1000
1000
,
2000
0000
3000
0000
,
0010
0000
0100
0100
,
0400
000M
0000
0300
0000
0000
0001
0000
,
0001
0000
1000
1000
,
2000
00M0
0000
3000
0000
0000
0001
0000
,
0001
0001
0000
0100
,
0100
0001
0002
0003
,
1000
1000
0100
0100
,
0100
0000
0010
0000
,
0020
0000
0000
0030
0000
0000
0000
0000
,
0001
0000
1000
1000
,
1000
0001
0001
0001
,
0001
0000
0000
1000
,
1000
1000
2000
3000
,
0010
0010
0100
0100
,
0200
0000
0000
0300
,
0001
0001
0001
0000
,
2000
0000
3001
0000
,
0001
0001
0001
0000
,
0100
0000
0200
0300
,
0010
0010
0010
0000
,
1000
0000
1000
0000
,
0001
0000
0010
0010
,
0020
0000
0000
0030
,
0001
0000
1000
1000
,
4000
3000
0010
0010
,
0040
0030
0100
0100
,
0400
0000
0300
0000
,
0001
0000
1000
0000
,
0002
0000
0000
0003
0000
0000
0100
0000
,
0200
0000
0000
0000
,
0310
0010
0010
0000
,
1000
0000
0001
0001
,
0001
0000
2000
3000
,
0001
0000
0100
0100
,
0010
0010
0010
0000
,
1000
1000
0001
0001
,
0004
M000
0000
0003
0000
0000
1000
0000
,
1000
1000
0100
0100
,
0200
M000
0000
0300
0000
0000
1000
0000
,
1000
1000
0000
0001
,
0001
0001
0002
0003
,
0100
0000
0010
0010
,
0020
0000
0030
1000
,
1000
1000
0010
0010
,
0040
0M00
0000
0030
0000
0000
1000
0000
,
1000
1000
0001
0001
,
0002
00M0
0000
0003
0000
0000
0010
0000
,
0010
0010
0000
0100
,
0100
0100
0100
0000
,
1000
1000
0001
0001
,
1000
1000
2000
3000
,
0010
0010
0020
0030
,
0100
0100
0200
0300
,
0001
0001
0002
0003
,
1000
1000
0100
0100
,
1000
1000
2000
3000
,
0001
10M0
0002
0003
,
0010
010M
0010
0010
,
0020
0030
0002
0003
,
1000
1000
1000
0010
,
0020
0030
0400
0300
,
0001
0001
0001
0000
,
1000
1000
0100
0100
,
0010
0010
0020
0030
,
0001
0001
1000
1000
,
4000
0000
0000
3000
,
0001
0001
0001
0000
,
1000
1000
1000
0000
,
1001
0000
0000
0000
0000
0000
0004
M000
,
0000
0003
0000
0000
0000
0000
0110
0000
,
0000
0000
0000
0000
1000
0000
2000
000M
,
0000
3000
0000
0000
0010
0000
0010
0000
,
0010
0000
0100
0100
,
0001
0002
0003
1000
,
0000
0001
0001
0002
,
0000
0003
1000
1000
,
1000
0000
0100
0000
0100
0000
0200
00M0
,
0000
0300
0000
0000
0010
0000
0010
0000
,
0010
0000
0001
0000
0001
0000
0002
00M0
,
0000
0003
0000
0000
1000
0000
1000
0000
,
1000
0000
0010
0010
,
0100
0200
0300
0001
,
0001
1000
1000
2000
,
0000
3000
0010
0010
0010
0000
0100
0100
,
0100
0000
0200
0000
0000
0000
0000
0000
0000
0300
0000
0000
0000
0000
0001
0000
,
0001
0001
0001
0000
2000
0000
3000
0000
,
0001
0000
0001
0000
0002
0000
0000
0003
,
0000
0010
0010
0010
,
0100
0100
1000
1000
,
2000
3000
0001
0001
,
0000
1000
1000
1000
,
2000
3000
0010
0010
,
0010
0100
0200
0000
,
0300
0202
0000
0000
,
0000
0000
0000
0000
,
0303
0000
0000
0000
;

//---------------dance-single - AceOfArrows (2017)----------------
#NOTES:
     dance-single:
     AceOfArrows (2017):
     Beginner:
     2:
     0.133,0.101,0.000,0.258,0.000:
0000
0000
0000
0000
,
2000
0000
3000
0000
,
0001
0000
0001
0000
,
0002
0000
0000
0003
0000
0000
0000
0000
,
0010
0000
0010
0000
,
0020
0000
0000
0030
0000
0000
0000
0000
,
0002
0000
0003
0000
,
2000
0000
3000
0000
,
0010
0000
0010
0000
,
0020
0000
0030
0000
,
0100
0000
0100
0000
,
0200
0000
0000
0300
0000
0000
0000
0000
,
0001
0000
0001
0000
,
0002
0000
0003
0000
,
1000
0000
1000
0000
,
2000
0000
3000
0000
,
0100
0000
0100
0000
,
0200
0000
0000
0300
,
1000
0000
1000
0000
,
2000
0000
3000
0000
,
0001
0000
0001
0000
,
0002
0000
0003
0000
,
0100
0000
0100
0000
,
0100
0000
0000
0000
,
0020
0000
0000
0000
,
0030
0000
0000
0000
,
1000
0000
1000
0000
,
2000
0000
3000
0000
,
0001
0000
0001
0000
,
0002
0000
0003
0000
,
1000
0000
1000
0000
,
4000
0000
0000
3000
0000
0000
0000
0000
,
0001
0000
0001
0000
,
0002
0000
0000
0003
0000
0000
0000
0000
,
0010
0000
0000
0000
,
0200
0000
0300
0000
,
1000
0000
1000
0000
,
2000
0000
3000
0000
,
0001
0000
0001
0000
,
0004
0000
0000
0003
0000
0000
0000
0000
,
0100
0000
0100
0000
,
0200
0000
0000
0300
0000
0000
0000
0000
,
0010
0000
0000
0000
,
2000
0000
3000
0000
,
0002
0000
0003
0000
,
0100
0000
0100
0000
,
0200
0000
0000
0300
0000
0000
0000
0000
,
0010
0000
0010
0000
,
0020
0000
0030
0000
,
2000
0000
3000
0000
,
0002
0000
0003
0000
,
0010
0000
0010
0000
,
0020
0000
0000
0030
,
0100
0000
0100
0000
,
0200
0000
0300
0000
,
1000
0000
1000
0000
,
2000
0000
3000
0000
,
0001
0000
0001
0000
,
0002
0000
0003
0000
,
1000
0000
1000
0000
,
2000
0000
0000
3000
,
0010
0000
0010
0000
,
0040
0000
0000
0030
0000
0000
0000
0000
,
0100
0000
0100
0000
,
0200
0000
0300
0000
,
0001
0000
0001
0000
,
0001
0000
0000
0000
,
2000
0000
0000
0000
,
3000
0000
0000
0000
,
0001
0000
0001
0000
,
0002
0000
0003
0000
,
0100
0000
0100
0000
,
0200
0000
0000
0300
,
0010
0000
0010
0000
,
0040
0000
0000
0030
0000
0000
0000
0000
,
0100
0000
0100
0000
,
0200
0000
0000
0300
0000
0000
0000
0000
,
0001
0000
0000
0000
,
2000
0000
3000
0000
,
0100
0000
0100
0000
,
0200
0000
0300
0000
,
1000
0000
1000
0000
,
4000
0000
0000
3000
0000
0000
0000
0000
,
0001
0000
0001
0000
,
0002
0000
0000
0003
0000
0000
0000
0000
,
0200
0000
0300
0000
,
0020
0000
0030
0000
,
1000
0000
1000
0000
,
2000
0000
3000
0000
,
0020
0000
0000
0030
0000
0000
0000
0000
,
0200
0000
0300
0000
,
0002
0000
0000
0003
0000
0000
0000
0000
,
2000
0000
3000
0000
,
0200
0000
0000
0300
0000
0000
0000
0000
,
4000
0000
3000
0000
,
0004
0000
0003
0000
,
0010
0000
0010
0000
,
0020
0000
0030
0000
,
0100
0000
0100
0000
,
0200
0000
0300
0000
,
1000
0000
1000
0000
,
2000
0000
3000
0000
,
0001
0000
0001
0000
,
0004
0000
0000
0003
,
2000
0000
3000
0000
,
0020
0000
0030
0000
,
1000
0000
0000
0004
,
0000
0003
0000
0000
0000
0000
0100
0000
,
0000
0000
0000
0020
,
0000
0030
0000
0000
0000
0000
2000
0000
,
0000
3000
0000
0002
,
0000
0003
0000
0100
,
0000
0100
0000
0200
,
0000
0300
0000
0001
,
0000
0001
0000
0002
,
0000
0003
0000
0000
0000
0000
1000
0000
,
0000
1000
0000
2000
,
0000
3000
0000
0000
0000
0000
0020
0000
,
0000
0030
0000
0200
,
0000
0300
0000
0001
,
0000
0001
0000
0002
,
0000
0003
0000
1000
0000
0000
0000
2000
,
0000
0000
0000
0000
0000
3000
0000
0002
,
0000
0003
0000
0000
0010
0000
0000
0000
,
0010
0000
0000
0000
0020
0000
0000
0030
,
0000
0000
0100
0000
,
0100
0000
0200
0000
,
0300
0000
2000
0000
,
3000
0000
0002
0000
,
0003
0000
0100
0000
,
0100
0000
0200
0000
,
0300
0002
0000
0000
,
0000
0000
0000
0000
,
0003
0000
0000
0000
;
