#TITLE:Little Busters Theme;
#SUBTITLE:;
#ARTIST:Rita;
#TITLETRANSLIT:;
#SUBTITLETRANSLIT:;
#ARTISTTRANSLIT:;
#GENRE:JPop;
#CREDIT:Ace Of Arrows;
#BANNER:Little Busters Theme Banner.png;
#BACKGROUND:Little Busters Theme Background.jpg;
#LYRICSPATH:;
#CDTITLE:Ace Of Arrows.png;
#MUSIC:Little Busters Theme.ogg;
#OFFSET:0.000;
#SAMPLESTART:65.800;
#SAMPLELENGTH:12.000;
#SELECTABLE:YES;
#DISPLAYBPM:75.500:151.000;
#BPMS:0.000=151.000,32.500=302.000,34.500=151.000,36.000=302.000,37.000=151.000,67.500=302.000,69.500=151.000,414.000=75.500,430.000=151.000,462.000=75.500,476.000=151.000;
#STOPS:32.500=0.199
,33.500=0.199
,36.000=0.199
,67.500=0.199
,68.500=0.199
;
#BGCHANGES:0.000=Little Busters Theme Video.avi=1.000=1=0=1===CrossFade==,
652.000=Little Busters Theme Background.jpg=1.000=0=0=1=Centered====,
99999=-nosongbg-=1.000=0=0=0 // don't automatically add -songbackground-
;
#KEYSOUNDS:;

//---------------dance-single - Ace Of Hearts (2016)----------------
#NOTES:
     dance-single:
     Ace Of Hearts (2016):
     Hard:
     8:
     0.560,0.472,0.072,1.000,0.130:
0000
0000
0000
0000
,
0002
0013
0000
0000
0000
0000
0200
1300
,
0200
0310
0000
0001
0000
2000
0000
3001
,
0020
0130
0020
0031
0000
0000
2000
3010
,
2000
3001
0000
0010
0000
0200
0000
1300
,
0002
0103
0002
1003
0000
0000
0200
0310
,
0200
1300
0000
0001
0000
2000
0000
3001
,
0200
0310
0200
0301
0000
0000
2000
3010
,
2000
3001
0000
0010
0000
0200
0000
0000
,
0300
0000
1000
0001
2000
3010
0100
0010
,
2000
3001
0000
0010
0002
1003
0001
0100
,
0000
0010
0000
2000
3000
0001
0010
0001
,
0000
0000
1000
0000
0010
0000
4000
0004
0000
0000
0000
0000
0000
0000
0000
0000
,
0000
3003
1000
0010
,
0100
0000
0000
0001
0100
0010
0100
0001
,
0000
1000
0000
0100
0000
0000
0010
0001
,
0000
1000
0100
1000
0004
0000
1003
0100
,
0000
0000
0110
0000
0000
0000
0010
0001
0020
0000
0000
0000
0130
0000
1000
0000
,
0000
0000
0000
0001
1000
0010
0000
1000
,
0001
0010
0000
0100
1000
0100
0010
0001
,
0000
2000
0000
3001
0010
0002
0000
1003
,
0010
1000
0002
0000
1003
0100
0010
0001
,
0000
0000
0000
1000
0100
0010
0000
0001
,
1000
0010
1000
0001
0200
0000
0000
0302
,
0000
0000
2003
0000
0000
3001
0010
0100
,
0010
0001
2000
0000
3001
0010
0001
2000
,
0000
0000
3001
0100
0010
0200
0000
0301
,
1000
0002
0000
1003
0020
0000
1030
0001
,
1000
0020
0000
0230
0000
0302
0000
2003
,
0000
3100
0020
0000
0031
1000
0001
0200
,
0000
0000
0301
1000
0001
0020
0000
0130
,
1000
0200
0000
0310
0001
0000
1000
0001
,
0100
0002
0000
2003
0000
3020
0000
0000
,
0030
0000
1000
0000
2002
3000
0013
0000
,
0200
1300
0000
0001
0100
0001
1000
0010
,
1000
0001
0000
0021
0000
0000
0130
0000
,
2000
3001
0000
0100
0010
1000
0001
0100
,
0001
2000
0000
3000
2400
0000
0000
0000
,
3300
0000
0000
0200
0000
0000
0320
0000
,
0000
0000
0000
0000
0030
0000
0001
0000
2000
0000
0000
3200
0000
0000
0310
0000
,
0002
0000
0000
2003
0000
0000
3001
0010
0001
0000
2000
0000
0000
0000
3200
0000
,
0000
0000
0300
0000
2000
0100
0000
3002
,
0100
0000
2003
0100
0000
3002
0100
0000
,
2003
0010
0000
3002
0010
0000
2003
0010
,
0000
0000
3002
0000
0013
0000
0100
0000
2000
0000
0000
0000
0020
0000
0000
3030
,
0420
0000
0000
0000
0330
0100
0001
1000
,
0001
0020
0000
0000
0430
0000
0300
1000
,
0002
0000
0003
0000
1000
0010
1000
0001
,
0020
0000
0130
4000
0000
3000
0000
0001
,
0020
0000
0000
0100
0000
0000
0032
0000
1003
0000
0000
0000
0020
0000
0100
0000
,
0000
2030
3001
0000
0020
0100
0000
0032
,
1003
0000
0002
0100
0000
2003
3200
0000
,
0320
0000
0000
0000
0002
0000
0000
0033
4002
0000
0000
0000
0000
0000
0000
0000
,
3003
1000
0010
1000
0001
0020
0000
0000
,
0430
0000
0300
1000
0002
0000
1003
0200
,
0000
1300
0001
0100
0002
0000
1003
0400
,
0000
0000
0000
0000
0300
0000
0000
0000
0020
0000
0000
0032
0000
0000
1003
0000
,
0020
0000
0000
0230
0000
0000
0301
0000
2000
0000
0000
3020
0000
0000
0230
0000
,
0000
0000
0000
0000
0300
0000
0000
0000
0002
0000
0000
2003
0000
0000
3100
0000
,
0020
0000
0000
0230
0000
0000
1300
0000
0002
0000
0000
0000
0000
0000
0000
0000
,
0203
0000
0000
0000
0000
0000
0000
0300
0220
0000
0000
0000
0000
0000
0000
0000
,
0000
0000
0300
0000
2000
0000
0030
3002
,
0000
2003
3020
0000
,
0000
0000
0000
0000
0000
1030
0001
0010
,
0001
1000
0100
0010
0002
0000
0000
0000
,
0000
1003
0010
0200
0000
0301
1000
0001
,
1000
0100
0010
0100
2000
0000
0000
3002
,
0000
1003
0020
0000
0000
0000
0000
0000
,
0000
0000
0030
0000
1000
0010
1000
0002
,
0000
0003
0010
0001
0010
0200
0000
1300
,
0001
1000
0010
1000
0002
0000
1003
0010
,
1000
0002
0000
0203
0000
0340
0000
1030
,
0000
0001
0010
0001
1000
0010
1000
0002
,
0000
0000
1003
0100
0010
0100
1000
0001
,
0100
0001
1000
0001
0010
0001
0010
0001
,
1000
0010
1000
0002
0000
0023
0000
0000
,
0030
0100
1100
1001
,
0002
0103
0000
0010
0100
0010
1000
0001
,
1000
0200
0300
0120
0000
0030
0011
0000
,
0001
1000
0000
0010
1000
0001
1000
0100
,
0010
0002
0000
0003
4002
0000
0000
0000
,
3003
0000
0000
1000
0200
0000
0320
0000
,
0000
0000
0030
0000
0000
0000
0001
1000
0002
0000
0000
0203
0000
0000
0310
0100
,
0020
0000
0000
2030
0000
0000
3001
0000
0100
0000
0002
0000
0000
0000
4003
0000
,
0000
0000
3000
0000
0001
0010
1000
0010
,
0002
0003
1000
0100
0001
0100
2000
3000
,
0001
0100
1000
0100
0002
0003
1000
0400
,
0000
0310
0001
1000
0002
0000
2000
0000
,
0000
0000
0000
0000
0000
0000
0000
0000
0000
0000
0000
0000
0000
0000
0000
3000
4000
0000
0000
0000
0000
0000
0000
0000
0003
0000
0000
0000
0000
0000
0000
0000
3000
0000
0000
0000
0000
0000
0000
0000
0100
0000
0000
0000
0000
0000
0000
0000
0010
0000
0000
0000
0000
0000
0000
0000
0100
0000
0000
0000
0000
0000
0000
0000
,
1000
0002
0000
0003
0402
0000
0303
0100
,
0020
0000
0030
0000
1000
0010
0100
0010
,
1000
0001
0010
0004
0000
0000
0003
1000
,
0100
0020
0000
0130
1000
0001
1000
0020
,
0030
0000
1000
0000
0002
0000
0003
0000
2000
0000
0000
0010
0000
0000
3002
0000
,
0023
0000
0130
4000
0000
3001
0020
0000
,
0230
0000
0000
0000
0000
0000
0000
0000
0000
0000
0000
0000
0000
0000
0000
0000
0320
0000
0000
0000
0000
0000
0000
0000
0000
0000
0000
0000
0000
0000
0000
0000
0000
0000
0000
0000
0000
0000
0000
0030
0040
0000
0000
0000
0000
0000
0000
0000
0000
0000
0000
0000
0000
0000
0000
0000
0030
0000
0000
0000
0000
0000
0000
0000
,
0000
0000
0001
0010
0001
0000
2000
0000
3001
0000
0020
0000
0000
0000
0000
0000
,
0430
0000
0300
0000
2200
0000
3300
1000
,
0001
0000
0010
0000
0001
0000
1000
0000
0100
0000
1000
0000
0001
0000
0400
0040
,
0000
0000
0300
0000
0000
0000
0000
0000
2030
0000
0000
3002
0000
0000
0013
0000
,
0200
0000
0000
2300
0000
0000
3001
0000
0200
0000
0000
0320
0000
0000
4030
0000
,
0000
0000
3000
0000
0000
0000
0000
0000
0002
0000
0000
0023
0000
0000
0031
0000
,
2000
0000
0000
3020
0000
0000
0130
0000
0002
0000
0000
0000
0000
0000
0000
0000
,
2003
0000
0000
0000
0000
0000
3000
0000
2200
0000
0000
3000
0310
0001
0010
0200
,
0000
2300
0000
3002
0000
2003
0000
3200
0000
0000
0320
0000
0031
0020
0000
0230
,
0000
0000
4300
0000
0000
0000
3000
0000
0001
0100
0001
2000
0000
3002
0000
0103
,
0020
0000
0000
0000
0000
0000
0000
0000
0000
0000
0000
0000
0000
0000
0000
0000
2030
0000
0000
0000
0000
0000
0000
0000
0000
0000
0000
0000
0000
0000
0000
0000
0002
0000
0000
0000
0000
0000
0000
0000
0000
0000
0000
0000
0000
0000
0000
0000
0000
0000
0000
0000
0000
0000
0000
0003
0004
0000
0000
0000
0000
0000
0000
0000
,
0000
0000
3003
0000
2000
0000
0000
3000
2000
0000
0000
0000
0000
0000
0000
0000
,
3001
0100
0010
0200
0000
0302
0000
2003
,
0000
3020
0000
0430
0000
0300
0002
0000
,
1003
0020
0000
2030
0000
0000
3004
0000
,
0000
0003
0000
0000
1000
0010
0100
0020
,
0000
0230
0000
0301
2000
3200
0000
0000
,
0320
0000
0002
0000
,
0000
0000
0000
0000
0000
0000
0000
0000
0000
0000
0000
0000
0000
0000
0000
0000
0000
0000
0000
0000
0000
0000
0000
0000
0000
0000
0000
0000
0000
0000
0000
0003
0004
0000
0000
0000
0000
0000
0000
0000
0000
0000
0000
0000
0000
0000
0000
0000
0000
0000
0000
0000
0000
0000
0000
0000
0000
0000
0000
0000
0000
0000
0000
0000
,
0000
0000
0000
0000
0033
0000
0000
0000
0001
0020
0000
0031
1000
0000
0001
2000
,
0000
3001
0010
0000
0100
2000
0000
3001
0100
0000
0010
0200
0000
0301
1000
0000
,
0100
0020
0000
0031
1000
0000
0010
2000
0000
3001
0010
0000
0001
2000
0000
3010
,
0100
0000
0001
0020
0000
0130
4000
0000
3000
0000
0002
0000
0000
0000
0203
0000
,
0320
0100
0000
2030
0001
0000
3200
0010
,
0000
2300
3002
0003
0200
0010
0000
0302
,
1000
0000
0023
0100
0000
0032
1003
0100
,
0020
0000
0000
0000
0000
0000
0000
0000
0000
0000
0000
0000
0030
0000
0000
0000
0022
0000
0000
0000
0000
0000
0000
0000
0000
0000
0000
0000
0000
0000
0000
0000
0000
0000
0000
0000
0000
0000
0000
0000
0000
0000
0000
0000
0000
0000
0000
0003
0004
0000
0000
0000
0000
0000
0000
0000
0000
0000
0000
0000
0000
0000
0000
0000
,
0033
0001
1000
0100
1000
0002
0000
0000
,
0403
0000
0300
0010
0200
0000
0300
0000
,
0001
0100
0010
1000
0002
0000
0013
0400
,
0000
0000
0300
0000
0000
0000
1000
0000
0002
0000
0000
0100
0000
0000
2003
0000
,
3200
0300
0020
0001
0000
0230
2300
3000
,
0002
0100
0000
2003
0010
0000
3200
0010
,
0000
0000
2300
0000
3002
0000
0000
0000
2003
0000
0000
3000
2020
0000
0000
0000
,
0000
0000
0000
0000
0000
0000
0000
0000
0000
0000
0000
0000
0000
0000
0000
0030
0040
0000
0000
0000
0000
0000
0000
0000
0000
0000
0000
0000
0000
0000
0000
0000
3030
0000
0000
0000
0000
0000
0000
0000
0010
0000
0000
0000
0000
0000
0000
0000
0100
0000
0000
0000
0000
0000
0000
0000
0001
0000
0000
0000
0000
0000
0000
0000
,
1000
0020
0000
0030
0420
0000
0330
0100
,
0002
0000
1003
0200
0000
0310
0001
1000
,
0002
0000
1003
0400
0000
0000
0300
0000
,
0020
0000
0000
0230
0000
0000
1300
0000
0002
0000
0000
0203
0000
0000
0310
0000
,
2000
0000
0000
3002
0000
0000
0403
0000
0000
0000
0300
0000
0000
0000
0000
0000
,
0020
0000
0000
2030
0000
0000
3001
0000
0020
0000
0000
0230
0000
0000
1300
0000
,
0002
0000
0000
0203
0000
0000
0304
0000
0000
0000
0003
0000
0000
0000
0000
0000
,
2000
0000
0000
3200
0000
0000
0310
0000
0002
0000
0000
2003
0000
0000
3010
0000
,
0200
0000
0000
0302
0000
0000
4003
0000
0000
0000
0000
0000
3000
0000
0000
0000
,
0200
0000
0000
0320
0000
0000
0031
0000
2000
0000
0000
3020
0000
0000
0130
0000
,
0001
0001
1000
1000
0100
0100
0020
0030
,
0022
0000
0000
0000
,
0000
0000
0000
0000
0030
0000
0013
0100
,
2000
0000
0000
0000
0000
0000
0000
0000
0000
0000
0000
0000
0000
0000
0000
0000
3001
0000
0000
0000
0000
0000
0000
0000
0100
0000
0000
0000
0010
0000
0000
0000
0200
0000
0000
0000
0000
0000
0000
0000
0302
0000
0000
0000
0000
0000
0000
0000
0000
0000
0000
0000
0000
0000
0000
0003
0004
0000
0000
0000
0000
0000
0000
0000
,
0000
0000
0000
0000
0000
0000
0003
0000
0000
0000
1000
0100
1000
0000
0001
0000
,
0200
0000
0310
4000
0000
3000
0002
0000
,
0103
0040
0000
1030
0001
0010
0100
0010
,
0001
1000
0001
0400
0000
0310
4000
0000
,
0000
0000
3001
0010
0001
0000
1000
0000
0010
0000
1000
0000
0001
0000
0010
0100
,
0020
0000
0130
4000
0000
3001
0100
0001
,
1000
0400
0000
0310
0001
1000
0001
0100
,
0040
0000
0000
0000
0000
0000
0000
0000
0430
0004
0000
0000
0000
0000
0000
0000
,
0000
0000
0000
0000
0000
0000
0000
0303
,
0100
0010
0100
0000
0001
0000
1000
0000
0100
0000
0010
0000
0100
0000
1000
0001
,
2000
0000
3010
0200
0000
0000
0301
1000
,
0020
0000
0000
0000
0130
0000
0001
1000
0002
0000
2003
0000
3100
0010
0200
0000
,
0000
0000
0300
2100
0000
3001
0200
0020
,
0000
0000
0000
0000
,
0000
0000
0000
0000
0000
0000
0000
0000
0000
0000
0000
0000
0000
0000
0000
0000
0000
0000
0000
0000
0000
0000
0000
0000
0000
0000
0000
0000
0000
0000
0000
0000
0000
0000
0000
0000
0000
0000
0000
0000
0000
0000
0000
0000
0000
0000
0000
0000
0000
0000
0000
0000
0000
0000
0000
0000
0000
0000
0000
0000
0000
0000
0000
0030
,
0040
0000
0000
0000
,
0000
0000
0000
0000
,
0000
0000
0000
0000
,
0330
0000
0000
0000
;

//---------------dance-single - Ace Of Hearts (2017)----------------
#NOTES:
     dance-single:
     Ace Of Hearts (2017):
     Challenge:
     10:
     0.776,0.561,0.420,1.000,0.351: // measure 1
0000
0000
0000
0000
,  // measure 2
2100
3001
0000
0000
0000
0000
0201
0310
,  // measure 3
0120
1030
0000
0001
0000
0021
0000
0130
,  // measure 4
1000
0001
0201
0310
0000
0000
2010
3001
,  // measure 5
0010
0110
0000
0100
0000
2100
0000
3001
,  // measure 6
0100
0010
2010
3001
0000
0000
0021
0130
,  // measure 7
1000
1001
0000
0001
0000
0201
0000
0310
,  // measure 8
1000
0001
0021
0130
0000
0000
2100
3001
,  // measure 9
0100
0110
0000
1010
0000
2002
0000
0000
,  // measure 10
3003
0000
0001
0100
0120
1030
0002
0103
,  // measure 11
0020
1030
0001
0010
0200
1300
0001
0200
,  // measure 12
0300
0220
0330
2020
3030
1000
0002
0023
,  // measure 13
0130
0000
1000
0000
0001
0000
1000
0100
0010
0100
2000
0000
3001
0100
0010
0100
,  // measure 14
0002
0000
1003
0000
0100
0000
0120
0030
0011
0000
0001
0000
2000
0000
3010
0000
,  // measure 15
0200
0301
1000
0100
0020
0130
1000
2002
,  // measure 16
3003
0202
0303
2020
3030
1000
0002
0023
,  // measure 17
0130
0000
0000
2000
0000
0000
3001
0000
0000
0100
0000
0000
0010
0100
0010
0100
0000
0000
0001
0000
0000
1001
0000
0000
,  // measure 18
0000
0000
1200
0000
0000
0000
0310
0001
2000
0000
0001
0000
0010
0000
0001
0000
,  // measure 19
0000
0000
0000
3001
0201
0310
0000
1000
,  // measure 20
0002
0000
0013
0000
0000
0000
0001
1000
0002
0000
1000
0000
0010
0000
1000
0000
,  // measure 21
0000
0203
0000
0320
0000
2030
3001
0100
,  // measure 22
0001
1000
0100
0000
0120
0000
0031
1000
0020
0000
1000
0000
0100
0000
1000
0000
,  // measure 23
0000
0000
0000
0030
2010
3001
0000
0001
,  // measure 24
0021
0000
0130
0000
0000
0000
1000
0001
0200
0000
0000
0000
0000
0000
0020
0000
,  // measure 25
0000
0300
2000
0000
0030
3001
0010
0100
,  // measure 26
0010
0001
1000
0000
1020
0000
0130
0000
0101
0000
0001
0000
1000
0000
0200
0000
,  // measure 27
0000
0300
0110
0010
0001
2000
0000
3001
,  // measure 28
0101
0100
0010
1000
0002
0000
0013
0100
,  // measure 29
1100
2000
0000
3002
0023
0230
1300
0002
,  // measure 30
0000
1003
0020
0130
0101
0001
1000
0200
,  // measure 31
0000
0000
0310
0001
1000
1020
0000
0130
,  // measure 32
0001
2000
0000
3001
0011
0000
0010
0100
,  // measure 33
1100
0000
2000
0000
0000
3000
1002
0000
0000
0000
0203
0000
0310
0000
1000
0000
,  // measure 34
0001
0010
0110
0100
1100
0000
1001
0000
,  // measure 35
0201
0310
0000
0010
1000
0001
0010
0100
,  // measure 36
1000
0000
0001
0000
2001
0000
3010
0100
0002
0000
0003
0000
0011
0000
0000
0000
,  // measure 37
0210
1300
0000
1001
0001
0100
0010
1000
,  // measure 38
0001
0010
0001
0010
0100
1000
0100
1000
0004
0000
0000
0000
0000
0000
0000
0000
,  // measure 39
0003
0000
0000
1000
1020
0000
0230
0000
,  // measure 40
0000
0000
0300
0000
0000
0000
0001
0000
0021
0000
0000
0230
0000
0000
1300
0000
,  // measure 41
1002
0000
0000
0000
0000
0000
0000
0000
0000
0203
0000
0000
0000
0000
0000
0000
0000
0000
0310
0000
0000
1000
0000
0000
0002
0000
0000
0000
0000
0000
0023
0000
0000
0000
0000
0000
0000
0000
0000
0000
0000
0000
0130
0000
1000
0000
0100
0000
,  // measure 42
1000
0000
0000
0001
0100
0001
2000
0000
0000
3000
0000
0000
2100
0000
0000
3010
0000
0000
0000
0000
0000
0010
0000
0000
,  // measure 43
0210
0000
0000
0000
0301
0000
0010
0100
1000
0000
0001
0000
0201
0000
0000
0300
,  // measure 44
0110
0020
0000
1030
1100
0000
0100
0120
,  // measure 45
0000
0000
0031
0000
0101
0000
0100
0000
0010
0000
1000
0001
0010
0100
1000
0200
,  // measure 46
0020
0000
0000
0000
0000
0000
0000
0000
0000
0000
0000
0000
0000
0000
0000
0030
0040
0000
0000
0000
0000
0000
0000
0000
0000
0000
0000
0000
0000
0000
0000
0000
0330
0000
0000
0000
0000
0000
0000
0000
0100
0000
0000
0000
0000
0000
0000
0000
1000
0000
0000
0000
0000
0000
0000
0000
0001
0000
0000
0000
0000
0000
0000
0000
,  // measure 47
0101
0200
0000
0300
0240
0000
0330
0100
,  // measure 48
0102
0000
0000
0000
0003
0000
0000
0000
1000
0000
0100
0010
0001
0000
1000
0000
,  // measure 49
0020
0000
0000
0000
0130
0000
0001
0000
0010
0100
1000
0000
0001
0000
0100
0010
,  // measure 50
2000
0000
0000
0100
0000
0000
3001
0000
0201
0000
0000
0000
0310
0000
2010
0000
,  // measure 51
0000
0000
3100
0000
0120
0000
0031
1000
0001
0000
0020
0000
0000
0000
0130
0000
,  // measure 52
2100
3000
0001
0201
0000
0310
2010
0000
,  // measure 53
3200
0000
0000
0000
0000
0000
0000
0000
0000
0000
0000
0000
0000
0000
0000
0000
0310
0000
0000
0000
0001
0000
0000
0000
0010
0000
0000
0000
0200
0000
0000
0000
2000
0000
0000
0000
0000
0000
0000
0000
0000
0000
0000
0000
0000
0000
0000
3000
4000
0000
0000
0000
0000
0000
0000
0000
0000
0000
0000
0000
0000
0000
0000
0000
,  // measure 54
3300
0100
0010
0001
1001
2000
0000
3000
,  // measure 55
2400
0000
3300
0100
0120
0000
0031
2000
,  // measure 56
0000
3001
0100
0010
2010
0000
3001
0201
,  // measure 57
0310
1000
0001
0010
0001
1000
0010
0100
0002
0000
0000
0020
0000
0003
2000
0030
,  // measure 58
0002
0000
3000
0200
0000
0003
2000
0300
0002
0000
3000
0200
0003
0000
0340
0000
,  // measure 59
0000
0000
1030
0001
0020
0000
0030
0000
0200
0000
0000
2000
0000
0300
0002
3000
,  // measure 60
0200
0000
0003
2000
0000
0300
0002
3000
0023
0000
1030
0000
0001
0010
0100
0000
,  // measure 61
1000
0000
0001
0000
1000
0100
0010
0000
0022
0000
0000
0000
0000
0000
0000
0000
,  // measure 62
0000
0000
0000
0000
0000
0000
0000
0000
0000
0000
0000
0000
0003
0000
0000
0000
0000
0000
0000
0000
0000
0000
0000
0130
2000
0000
0000
0000
0000
0000
0000
0000
0000
0000
0000
0000
0000
0000
0000
0000
0000
0000
3002
0000
0000
0000
0000
0000
,  // measure 63
0000
0000
0000
0000
0203
0000
0000
0300
0120
0000
1000
0000
0100
0000
1000
0000
,  // measure 64
0000
0000
0000
0000
0000
1030
0001
0010
,  // measure 65
0100
0010
0001
0000
1000
0000
0001
0000
0002
0000
1000
0000
0010
0000
1000
0000
,  // measure 66
0000
0103
0010
2000
0000
3100
1000
0001
,  // measure 67
0100
0000
0000
0000
0000
0000
0010
0000
0000
0000
0000
0000
1000
0000
0000
0000
0000
0000
0001
0000
0000
1000
0000
0000
0200
0000
0000
0000
0000
0000
0000
0000
0000
0000
0000
0000
0000
0000
0000
0000
0000
0310
0002
0000
0000
0000
0000
0000
,  // measure 68
0000
0000
1003
0000
0020
0000
0000
0000
0000
0000
1030
0000
0001
0000
0100
0010
,  // measure 69
1000
0001
0010
0000
0200
0000
1300
0000
0001
0000
0010
0000
1000
0000
0020
0000
,  // measure 70
0000
0030
0001
0100
1000
0200
0000
0301
,  // measure 71
1000
0200
0000
0310
0012
0000
1003
0010
,  // measure 72
0110
0200
0000
0302
0000
2003
3000
1200
,  // measure 73
0000
0310
0002
0000
1003
0100
0001
0200
,  // measure 74
0000
0000
1300
0010
0001
0010
1000
0001
,  // measure 75
0010
1000
0010
0001
1000
0100
0001
0100
,  // measure 76
1000
0001
0100
0120
0000
2030
3001
0010
,  // measure 77
0100
0000
1000
0000
0001
0000
1000
0010
0200
0000
0000
0300
0101
0000
0000
0000
,  // measure 78
2001
3100
0000
0110
0010
0001
0010
1000
,  // measure 79
0010
0000
0001
0000
2001
0000
3010
0100
0002
0000
0000
0003
0011
0000
0000
0000
,  // measure 80
2100
3010
0000
0110
0100
0001
1000
0100
,  // measure 81
0010
0001
1000
0001
0100
0010
0100
0002
4000
0000
0000
0000
0000
0000
0000
0000
,  // measure 82
3003
0002
0000
0013
0200
0000
2300
0000
,  // measure 83
0000
0000
3000
0000
0000
0000
0001
0100
0020
0000
0000
0230
0000
0000
0301
1000
,  // measure 84
0200
0000
0000
0000
0000
0000
0000
0000
0000
0320
0000
0000
0000
0000
0000
0000
0000
0000
0031
0000
0000
1000
0000
0000
0010
0000
0000
0000
0000
0000
0200
0000
0000
0000
0000
0000
0000
0000
0000
0000
0000
0000
0301
0000
0100
0000
0001
0000
,  // measure 85
0100
0000
0000
0010
1000
0010
0200
0000
0000
0300
0000
0000
0001
0000
0000
0100
0000
0000
1000
0000
0000
0100
0000
0000
,  // measure 86
0002
0000
1003
0100
1000
0010
0200
0000
,  // measure 87
0301
0010
1000
0010
0002
0000
0103
0020
,  // measure 88
0000
0000
1030
0000
0100
0000
0010
0000
0002
0000
0000
0000
1003
0100
0010
0200
,  // measure 89
2000
0000
0000
0000
0000
0000
0000
0000
0000
0000
0000
0000
0000
0000
0000
3000
4000
0000
0000
0000
0000
0000
0000
0000
0000
0000
0000
0000
0000
0000
0000
0000
3300
0000
0000
0000
0000
0000
0000
0000
0100
0000
0000
0000
0000
0000
0000
0000
0010
0000
0000
0000
0000
0000
0000
0000
0001
0000
0000
0000
0000
0000
0000
0000
,  // measure 90
1001
2000
0000
3000
2040
0000
3030
1000
,  // measure 91
0002
0000
0003
0000
1000
0010
1000
0001
,  // measure 92
0010
0000
1000
0000
0010
0000
0004
0000
1003
0010
0100
0010
1000
0000
0001
0010
,  // measure 93
0001
1000
0010
0001
0010
1000
0001
0020
,  // measure 94
0000
0000
0130
0000
2000
0000
3000
0000
0002
0000
0000
0203
0000
0000
1300
0000
,  // measure 95
0200
0000
0301
2000
0000
3100
0020
0000
,  // measure 96
0032
0000
0000
0000
1003
0001
0010
0002
4000
0000
0000
0000
0000
0000
3003
0000
,  // measure 97
0000
0000
0001
0100
0010
0000
0100
0000
0101
0000
0002
0000
0000
0000
0003
0000
,  // measure 98
0042
0000
0033
0000
0002
0000
0003
1000
,  // measure 99
0100
1000
0010
1000
0002
0000
0013
0400
,  // measure 100
1300
0001
0010
0001
1000
0010
0100
0001
2000
0000
0000
0200
0000
3000
0002
0300
,  // measure 101
2000
0000
0003
0020
0000
3000
0002
0030
2000
0000
0003
0020
3000
0000
0400
0030
,  // measure 102
0000
0000
0301
1000
0200
0000
0000
0000
0020
0000
0300
0002
0000
0030
2000
0003
,  // measure 103
0020
0000
3000
0002
0030
0000
2003
0000
3200
0000
0310
0000
1000
0001
0010
0000
,  // measure 104
0100
0000
0000
0000
0000
0000
1000
0000
0001
0000
1000
0000
0002
0000
0000
0000
0000
0000
0003
0000
0000
0000
0000
0000
0020
0000
0000
0000
0000
0000
0000
0000
0000
0000
0000
0000
0130
0000
0000
1000
0000
0000
0001
0000
0000
0200
0000
0000
,  // measure 105
0000
0320
0000
2030
0000
3002
0000
0403
0000
0300
0020
0000
1030
0002
0000
2000
,  // measure 106
0000
0000
0040
0000
0000
0000
3033
0000
0001
0010
0100
0020
0000
0032
0000
1003
,  // measure 107
0020
0000
0000
0000
0000
0000
0000
0000
0000
0000
0000
0000
0000
0000
0000
0000
0200
0000
0000
0000
0000
0000
0000
0000
0000
0000
0000
0000
0000
0000
0000
0000
0002
0000
0000
0000
0000
0000
0000
0000
0000
0000
0000
0000
0000
0000
0000
0000
0000
0000
0000
0000
0000
0000
0000
0003
0004
0000
0000
0000
0000
0000
0000
0000
,  // measure 108
0000
0000
0000
0000
0333
0000
0000
0000
0200
0000
0301
1000
0002
0000
0000
0000
0023
0000
0000
0000
0000
0000
0000
0000
0000
0000
0000
0000
0000
0000
0000
0000
,  // measure 109
0130
1000
0010
0210
0000
0302
0000
2003
,  // measure 110
0000
0000
3020
0000
0000
0030
0410
0000
0000
0000
0300
0000
0002
0000
0000
0000
,  // measure 111
1003
0010
0000
0210
0000
0000
0304
0000
,  // measure 112
0000
0003
0000
0000
1001
1000
0100
0002
,  // measure 113
0000
0203
0000
1300
1002
0200
0000
0000
,  // measure 114
2000
0000
0020
0000
,  // measure 115
0000
0000
0000
0000
0000
0000
0000
0000
0000
0000
0000
0000
0000
0000
0000
0000
0000
0000
0000
0000
0000
0000
0000
0000
0000
0000
0000
0000
0000
0000
0000
0030
0040
0000
0000
0000
0000
0000
0000
0000
0000
0000
0000
0000
0000
0000
0000
0000
0000
0000
0000
0000
0000
0000
0000
0000
0000
0000
0000
0000
0000
0000
0000
0000
,  // measure 116
0000
0000
0000
0000
3333
0000
0000
0000
0001
2000
0000
3100
0010
0000
0100
2000
,  // measure 117
0000
3001
0200
0300
0010
0200
0000
0301
1000
0000
0100
0020
0000
0031
2000
3000
,  // measure 118
0010
0200
0000
0301
2000
3000
0100
0020
0000
0130
2000
3000
0100
0020
0000
0031
,  // measure 119
0020
0030
0100
2000
0000
3001
0400
0000
0300
0000
0020
0000
2030
3000
1002
0013
,  // measure 120
0110
0200
0000
1300
1010
0000
0010
0210
,  // measure 121
0000
0000
0301
0000
0011
0000
0010
0100
2000
0000
3002
0000
0000
0000
0103
0000
,  // measure 122
0110
0000
0010
2010
0000
3100
0110
0010
,  // measure 123
0002
0000
0000
0000
0000
0000
0000
0000
1003
0000
0000
0000
0000
0000
0000
0000
0010
0000
0000
0000
0100
0000
0000
0000
0010
0000
0000
0000
2000
0000
0000
0000
0002
0000
0000
0000
0000
0000
0000
0000
0000
0000
0000
0000
0000
0000
0000
0003
0004
0000
0000
0000
0000
0000
0000
0000
0000
0000
0000
0000
0000
0000
0000
0000
,  // measure 124
3003
1000
0100
0010
0011
0002
0000
0003
,  // measure 125
0402
0000
0303
0001
2000
0000
3000
0000
,  // measure 126
0001
0000
0010
0100
1000
0000
0100
0000
0002
0000
0000
0000
0103
0000
2000
0000
,  // measure 127
3001
0100
0010
0000
2000
0000
3001
0010
0200
0000
2300
0000
0000
0000
3001
0000
,  // measure 128
0201
0000
0000
0000
0310
0000
2010
0000
0000
0000
3001
0000
0021
0000
0130
1000
,  // measure 129
0002
0203
0000
0310
2010
0000
3001
0021
,  // measure 130
0000
0000
0130
0000
2100
0000
0000
0000
3002
0000
0000
0000
1003
0100
0010
0200
,  // measure 131
2000
0000
0000
0000
0000
0000
0000
0000
0000
0000
0000
0000
0000
0000
0000
3000
4000
0000
0000
0000
0000
0000
0000
0000
0000
0000
0000
0000
0000
0000
0000
0000
3300
0000
0000
0000
0000
0000
0000
0000
0100
0000
0000
0000
0000
0000
0000
0000
0010
0000
0000
0000
0000
0000
0000
0000
0001
0000
0000
0000
0000
0000
0000
0000
,  // measure 132
1000
0020
0000
0030
0204
0000
0303
0100
,  // measure 133
0020
0000
1030
1002
0000
0013
1000
0010
,  // measure 134
0002
0000
0000
0000
1003
0000
0010
0000
1000
0010
0100
0010
1000
0001
0010
0001
,  // measure 135
2000
0000
0000
3200
0000
0000
0302
0000
0203
0000
0000
2300
0000
0000
3002
0000
,  // measure 136
0203
0000
0000
2300
0000
0000
3400
0000
0000
0000
0301
1000
0002
0000
0013
0100
,  // measure 137
0020
0000
0000
2000
0000
0030
0002
3000
0200
0000
0003
2000
0000
0300
0020
3000
,  // measure 138
0002
0030
0000
2003
0000
0000
3400
0000
0000
0000
0301
0100
0010
0100
0002
0000
,  // measure 139
2003
0000
0000
3200
0000
0000
0302
0000
0023
0000
0000
2030
0000
0000
3200
0000
,  // measure 140
0302
0000
0000
0023
0000
0000
4030
0000
0000
0000
3010
0100
0020
0000
0030
0000
,  // measure 141
2000
0000
0000
3002
0000
0000
0023
0000
0230
0000
0000
2300
0000
0000
3001
0000
,  // measure 142
0100
0000
0000
0100
0000
0000
0001
0000
0000
0001
0000
0000
1000
0000
0000
0001
0010
0001
0010
0000
0000
0100
0000
0000
,  // measure 143
2200
0000
0000
0000
,  // measure 144
0000
0000
0000
0000
0000
0000
0000
0000
0000
0000
0000
0000
0000
0000
0000
0000
0000
0000
0000
0000
0000
0000
0000
0000
0300
0000
0000
0000
0000
0000
0000
0000
0000
0000
0000
0000
3001
0000
0000
0000
0000
0000
0010
0000
0000
0000
0000
0100
,  // measure 145
2000
0000
0000
0000
3001
0000
0100
0010
0200
0000
0302
0000
0000
0000
1003
0100
,  // measure 146
0010
0001
0010
0100
1000
0001
0010
0001
2000
0000
3001
0010
0001
0000
1000
0000
,  // measure 147
0200
0000
1300
0004
0000
0003
2000
0000
,  // measure 148
3100
0040
0000
0230
0000
1300
0001
0100
,  // measure 149
1000
0000
0100
0000
0001
0000
4000
0000
0000
0000
3001
0000
0100
0010
0200
0000
,  // measure 150
0000
0000
0301
0010
0100
1000
0100
0010
0001
0000
1000
0001
1000
0100
0010
0100
,  // measure 151
0020
0000
0130
4000
0000
3001
0100
0010
,  // measure 152
1000
0000
0000
0000
0000
0000
0004
0000
0000
0000
0000
0000
0000
0000
0000
0000
0000
0000
0013
0000
0000
0000
0000
0000
0100
0000
0000
0000
0000
0000
1000
0000
0000
0000
0000
0000
0001
0000
0000
0000
0000
0000
1000
0000
0000
0000
0000
0100
,  // measure 153
0040
0000
0000
0000
0000
0000
0000
0000
0031
0010
0100
1000
0001
0100
0001
0100
,  // measure 154
0010
1000
0001
1000
0001
0010
0100
0010
0100
1000
0100
0010
0001
0010
0100
1000
,  // measure 155
0001
0100
0010
0100
0001
1000
0001
1000
0100
0010
0001
0010
0100
1000
0001
0100
,  // measure 156
0002
0000
0000
0000
0000
0000
0000
0000
0000
0000
0000
0000
1003
0000
0000
0000
0000
0000
0400
0000
0000
0000
0000
0000
0000
0000
0000
0000
0000
0310
0001
0000
0000
0000
0000
0000
1000
0000
0000
0000
0000
0000
0100
0000
0000
0000
0000
0000
,  // measure 157
0020
0000
0000
0000
0130
0000
1000
0001
2000
0000
3010
0000
0100
0001
0200
0000
,  // measure 158
0310
0000
1000
0000
0010
0000
1000
0000
0000
0001
0000
0000
0020
0000
0000
0030
0000
0000
0210
0000
0000
0000
0000
0000
2300
0000
0000
0000
0000
0000
3002
0000
0000
0000
0000
0000
1003
0000
0000
0000
0000
0000
2020
0000
0000
0000
0000
0000
,  // measure 159
0000
0000
0000
0000
,  // measure 160
0000
0000
0000
0000
0000
0000
0000
0000
0000
0000
0000
0000
0000
0000
0000
0000
0000
0000
0000
0000
0000
0000
0000
0000
0000
0000
0000
0000
0000
0000
0000
0000
0000
0000
0000
0000
0000
0000
0000
0000
0000
0000
0000
0000
0000
0000
0000
0000
0000
0000
0000
0000
0000
0000
0000
0000
0000
0000
0000
0000
0000
0000
0000
0030
,  // measure 161
0040
0000
0000
0000
,  // measure 162
0000
0000
0000
0000
,  // measure 163
0000
0000
0000
0000
,  // measure 164
3030
0000
0000
0000
;

//---------------dance-single - Ace Of Arrows (2017)----------------
#NOTES:
     dance-single:
     Ace Of Arrows (2017):
     Medium:
     6:
     0.412,0.295,0.022,0.782,0.045:
0000
0000
0000
0000
,
1000
0100
0000
0000
0000
0000
1000
0000
,
0001
0010
0000
0001
0000
2000
0000
0000
,
3001
0000
1000
0100
0000
0000
2000
0000
,
3001
0010
0000
0100
0000
0020
0000
0030
,
0001
0000
1000
0010
0000
0000
2000
0000
,
3001
0100
0000
0001
0000
2000
0000
0000
,
3001
0000
1000
0010
0000
0000
2000
0000
,
3001
0100
0000
0001
0000
2000
0000
0000
,
3000
0000
0002
0013
,
0100
0000
0000
0000
0010
0000
0001
1000
,
0000
0001
0000
0010
0000
0000
0100
1000
,
0000
0000
0000
0004
0000
0000
0000
0000
,
0000
0003
0000
0000
2000
0000
3010
0000
,
0100
0000
0000
0000
0002
0000
1003
0100
,
0000
0010
0000
0001
0000
0000
1000
0001
,
0000
1000
0000
0000
0040
0000
0000
1030
,
0000
0001
0000
2000
0000
0000
3001
0100
,
0000
0000
0000
0000
0010
1000
0000
0000
,
0001
0010
0000
0000
0002
0000
0013
0100
,
0000
2000
0000
3002
0000
0023
0000
0130
,
0000
1000
0001
0000
2000
0000
3001
0100
,
0000
0000
0000
0000
0001
1000
0000
0000
,
0001
0010
0000
0000
0002
0000
0000
2003
,
0000
3020
0000
0000
,
0430
0000
0300
0000
0001
0000
1000
0200
,
0000
0000
1300
0000
0001
0020
0000
0000
,
0031
0000
0000
1000
0200
0000
1300
0000
,
0001
0200
0000
0320
0000
2030
0000
3000
,
0000
0000
0000
0000
0001
0000
0010
0200
,
0000
0000
0320
0000
0031
2000
0000
0000
,
3001
0200
0000
0301
1000
0000
0001
0000
,
0010
0100
0000
0020
0000
0032
0000
0000
,
0003
1000
2020
0000
,
0000
3030
0000
1000
0001
0000
0010
0000
,
0001
1000
0000
2200
0000
0000
0000
0000
,
0000
3300
0000
0000
2000
0000
3001
0000
,
1000
0020
0000
0000
0430
0000
0000
0000
,
0300
0000
0000
0002
0000
0000
2003
0000
,
0000
3000
0000
0001
0020
0000
0000
0031
,
2000
0000
0000
3001
0100
0002
0000
2003
,
0000
0000
3000
0000
0001
0020
0000
0031
,
1000
0000
0010
2000
0000
3001
0010
0000
,
0001
2000
0000
3100
0010
0000
0100
2000
,
0000
3001
0100
0000
0020
0000
2000
0000
,
0000
0000
0000
0000
3030
0010
0100
0000
,
0010
2000
0000
0000
3004
0000
0003
1000
,
0200
0000
0300
0000
1000
0001
1000
0000
,
0020
0000
1030
0004
0000
0003
0000
1000
,
0200
0000
0000
0310
0100
0000
0010
0002
,
0000
1003
0010
0000
1000
0002
0000
0103
,
0010
0000
0100
0002
0000
1003
0200
0000
,
0320
0002
0000
0000
,
0033
0010
0200
0000
1300
0002
0000
0000
,
0403
0000
0300
0010
0200
0000
0301
2000
,
0000
0000
3001
0010
0002
0000
1003
0400
,
0000
0000
0300
0000
2000
0000
0000
3001
,
0020
0000
0000
0130
2000
0000
0000
3002
,
0000
0003
0000
0000
2000
0000
0000
3001
,
0200
0000
0000
0310
2000
0000
0000
0000
,
3002
0000
0000
0003
0022
0000
0000
0000
,
0000
0000
0030
0000
2003
0000
0000
3002
,
0000
0203
0320
0000
,
0000
0000
0000
0000
0000
1030
0001
0000
,
0100
0000
0001
1000
2000
0000
0000
0000
,
0000
3001
0000
0200
0000
0000
0301
1000
,
0001
0000
0010
0000
0200
0000
0000
2300
,
0000
3001
0020
0000
0000
0000
0000
0000
,
0000
0000
0030
0000
0001
0000
1000
0020
,
0000
0000
1030
0000
0001
0200
0000
0000
,
0310
2000
0000
0000
3001
0000
0010
0000
,
0100
0020
0000
0032
0000
4003
0000
0000
,
3000
0000
0000
0000
0001
0000
1000
0200
,
0000
0000
1300
0000
0001
0100
0001
0000
,
1000
0001
1000
0000
0010
0000
1000
0000
,
0001
0000
0010
0200
0000
2300
0000
0000
,
3000
0001
0202
0000
,
0000
0303
0000
0001
1000
0000
0100
0000
,
0010
0100
0000
2200
0000
0000
0000
0000
,
0000
3300
0000
1000
0001
0000
0100
0000
,
0010
0200
0000
0000
0304
0000
0000
0000
,
0003
0000
0000
1000
0200
0000
0320
0000
,
0000
0030
0000
0001
2000
0000
0000
3010
,
0200
0000
0000
0301
1000
0002
0000
0203
,
0000
0000
0300
0000
0010
4000
0000
3001
,
0010
0000
0001
0040
0000
0130
1000
0000
,
0001
0400
0000
0301
1000
0000
0001
0040
,
0000
0031
1000
0000
0002
0000
0020
0000
,
0000
0000
0000
0000
0033
0001
1000
0000
,
0001
0200
0000
0000
0340
0000
0030
1000
,
0002
0000
0000
0003
1000
0000
0001
0100
,
0002
0000
1003
0400
0000
0000
0300
1000
,
0100
2000
0000
3001
0100
0000
0001
2000
,
0000
3100
0010
0000
0001
0020
0000
0130
,
1000
0000
0001
2000
0000
3001
0200
0000
,
0320
2000
0000
0000
,
3030
0010
0100
0000
0010
2000
0000
0000
,
3004
0000
0003
0000
2000
0000
0000
3001
,
0010
0000
0001
1000
0002
0000
1003
0400
,
0000
0000
0300
0000
2000
0000
0000
3001
,
0200
0000
0000
0310
2000
0000
0000
3004
,
0000
0003
0000
0000
0020
0000
0000
0031
,
2000
0000
0000
3010
0200
0000
0000
0000
,
0302
0000
0000
0000
0000
0000
0000
0000
2000
0000
0003
0000
3002
0000
0000
0023
,
0000
0000
0000
0031
0000
1000
0000
0002
0000
0000
1003
0000
0100
0000
0000
0020
,
0000
0000
0034
0000
0000
0000
0003
0000
2000
0000
0000
3002
0000
0023
0000
0000
,
0032
0000
0000
0000
0000
0000
0000
0000
2003
0000
0000
0000
0000
0000
0000
0000
3200
0000
0000
0000
0000
0000
0000
0000
0000
0000
0000
0300
0400
0000
0000
0000
,
0000
0300
0020
0000
0032
0000
0000
0000
,
2003
0000
3001
0020
0000
0032
0000
2003
,
0000
3002
0000
0203
0000
0300
0002
0000
,
1003
0020
0000
0230
0000
0000
0304
0000
,
0000
0003
0000
0000
2000
0000
3001
0020
,
0000
0032
0000
1003
0001
2000
0000
0000
,
3200
0000
0020
0000
,
0000
0000
0000
0000
,
0000
0000
0000
0000
0330
0000
0000
0000
0010
0002
0000
0013
0001
0000
1000
0200
,
0000
1300
0100
0000
1000
0002
0000
1003
0001
0000
1000
0020
0000
1030
0010
0000
,
0100
0002
0000
0103
0001
0000
1000
0002
0000
1003
0001
0000
0010
0200
0000
0310
,
0100
0000
1000
0002
0000
1003
0002
0000
0003
0000
0000
0000
0000
0000
1000
0000
,
0001
0020
0000
0031
1000
0000
0001
0200
,
0000
0301
1000
0000
0100
2000
0000
3001
,
0100
0000
0010
2000
0000
3001
0020
0000
,
0230
0000
2000
0000
0000
0000
0000
3300
,
0000
0100
0010
0000
0001
2000
0000
0000
,
3400
0000
0300
1000
0002
0000
0003
0000
,
1000
0001
1000
0000
0020
0000
1030
0004
,
0000
0003
0000
1000
0200
0000
0000
0310
,
0001
0000
1000
0020
0000
1030
0001
0000
,
0010
0200
0000
0310
0001
0000
1000
0020
,
0000
0130
0002
0000
2003
0000
0020
0000
,
0000
0000
0000
0000
3030
1000
0001
0000
,
0010
0002
0000
0000
4003
0000
3000
0001
,
0020
0000
0031
2000
0000
0000
3001
0010
,
0002
0000
1003
0400
0000
0000
0300
0000
,
2000
0000
0000
3001
0200
0000
0000
0301
,
2000
0000
0000
3400
0000
0000
0300
0000
,
0020
0000
0000
0031
2000
0000
0000
3001
,
0200
0000
0000
0340
0000
0000
0030
0000
,
2000
0000
0000
3001
0020
0000
0000
0130
,
2000
0000
0000
3004
0000
0000
0003
0000
,
2000
0000
0000
3010
0200
0000
0000
0301
,
2000
0000
0000
0000
3002
0000
0000
0003
,
0022
0000
0000
0000
,
0000
0000
0030
1003
,
0020
0000
1030
0002
0000
0203
0000
0004
,
0000
0000
0303
0002
,
2003
0000
3100
0040
0000
0000
0230
0000
,
1300
0004
0000
2003
0000
3010
0100
0000
,
0002
0000
1003
0400
0000
1300
0002
0000
,
0000
4003
0000
0000
,
3020
0000
1030
0004
0000
0000
2003
0000
,
3001
0400
0000
0300
0002
0000
1003
0100
,
2000
0000
0000
0000
0000
0000
0000
0000
3004
4000
0000
0000
0000
0000
0000
0000
,
0000
0000
0000
3003
,
0004
0040
0000
0000
0000
0000
0000
0000
0000
0000
0000
0000
0033
0000
0000
0000
,
0002
0000
1003
0400
0000
1300
0002
0000
,
0023
0000
0031
2000
0000
3001
0010
0002
,
0000
0000
0000
1003
0000
0100
0010
0002
,
0000
0000
0000
0000
,
0000
0000
0000
0000
0000
0000
0000
0000
0000
0000
0000
0000
0000
0000
0000
0000
0000
0000
0000
0000
0000
0000
0000
0000
0000
0000
0000
0000
0000
0000
0000
0003
,
0004
0000
0000
0000
,
0000
0000
0000
0000
,
0000
0000
0000
0000
,
0003
0000
0000
0000
;

//---------------dance-single - Ace Of Arrows (2017)----------------
#NOTES:
     dance-single:
     Ace Of Arrows (2017):
     Easy:
     3:
     0.162,0.148,0.000,0.167,0.000:
0000
0000
0000
0000
,
0001
0000
0000
1000
,
1000
0000
0000
0001
,
0001
0001
0000
0100
,
0100
0000
0000
0001
,
0001
0001
0000
1000
,
1000
0000
0000
0010
,
0010
0010
0000
1000
,
2000
0000
0000
0000
,
3000
0000
0000
0001
,
0001
0000
0010
0010
,
0010
0000
0001
0001
,
0001
0000
4000
0000
,
0000
3000
0000
0001
,
0001
0000
0100
0100
,
0100
0000
0010
0010
,
0010
0000
0400
0000
,
0300
0000
0002
0000
,
0000
0000
0003
0000
,
1000
0000
2000
0000
,
3000
0000
0001
0001
,
0001
0000
0200
0000
,
0000
0000
0300
0000
,
0010
0000
2000
0000
,
0000
0000
0000
0000
,
3000
0000
0001
0000
,
0001
0000
1000
0000
,
1000
0000
0100
0000
,
0100
0000
0200
0000
,
0300
0000
0010
0000
,
0010
0000
0001
0000
,
0001
0000
1000
0000
,
1000
0000
1000
0000
,
0000
0000
0002
0000
,
0003
0000
0010
0000
,
0010
0000
0020
0000
,
0030
0000
0100
0000
,
0100
0000
0400
0000
,
0300
0000
2000
0000
,
3000
0000
0001
0000
,
0001
0000
0002
0000
,
0003
0000
1000
0000
,
1000
0000
0001
0000
,
0010
0000
0010
0000
,
0001
0000
2000
0000
,
0000
0000
3000
0000
,
0001
0000
0001
0000
,
1000
0000
1000
0000
,
0200
0000
0300
0000
,
0010
0000
0010
0000
,
0001
0000
1000
0000
,
1000
0000
0010
0000
,
0200
0000
0000
0000
,
0300
0000
0001
0000
,
0001
0000
1000
0000
,
1000
0000
0100
0000
,
0100
0000
1000
0000
,
1000
0000
0001
0000
,
0001
0000
0100
0000
,
0100
0000
0010
0000
,
0010
0000
0020
0000
,
0000
0000
0000
0000
,
0030
0000
2000
0000
,
0000
0000
3000
0000
,
0001
0000
0002
0000
,
0003
0000
1000
0000
,
1000
0000
0001
0000
,
0001
0000
0002
0000
,
0003
0000
0100
0000
,
0100
0000
0010
0000
,
0010
0000
1000
0000
,
1000
0000
0002
0000
,
0003
0000
0010
0000
,
0010
0000
0001
0000
,
0001
0000
1000
0000
,
1000
0000
2000
0000
,
3000
0000
0020
0000
,
0030
0000
0100
0000
,
0100
0000
0200
0000
,
0300
0000
0001
0000
,
0001
0000
0004
0000
,
0003
0000
2000
0000
,
3000
0000
0010
0000
,
0010
0000
0100
0000
,
0100
0000
0001
0000
,
0001
0000
1000
0000
,
0100
0000
0100
0000
,
0010
0000
0002
0000
,
0000
0000
0003
0000
,
1000
0000
1000
0000
,
0010
0000
0010
0000
,
0100
0000
0100
0000
,
0001
0000
0001
0000
,
1000
0000
0100
0000
,
0100
0000
0010
0000
,
0200
0000
0000
0000
,
0300
0000
1000
0000
,
1000
0000
0001
0000
,
0001
0000
0002
0000
,
0003
0000
0100
0000
,
0100
0000
0010
0000
,
0010
0000
1000
0000
,
1000
0000
0001
0000
,
0001
0000
0002
0000
,
1003
1000
1000
0000
,
0020
0030
0200
0300
,
0001
0001
0002
0000
,
0003
1000
1000
0000
,
0010
0000
0010
0000
,
0100
0000
0100
0000
,
0001
0000
0002
0000
,
0003
0000
0010
0000
,
0010
0000
0100
0000
,
0100
0000
0200
0000
,
0000
0000
0000
0000
,
0300
0000
1000
1000
,
1000
0001
0001
0001
,
0100
0100
0100
0010
,
0010
0020
0030
0000
,
1000
0000
1000
0000
,
0100
0000
0010
0000
,
0010
0000
0100
0000
,
2000
0000
0000
0000
,
3000
0000
0001
0000
,
0001
0000
0100
0000
,
0100
0000
0200
0000
,
0300
0000
0010
0000
,
0010
0000
1000
0000
,
0001
0000
0001
0000
,
0010
0000
0200
0000
,
0000
0000
0300
0000
,
1000
0000
1000
0000
,
0001
0000
0001
0000
,
0002
0000
0003
0000
,
0100
0000
0100
0000
,
0200
0000
0300
0000
,
0010
0000
0010
0000
,
0020
0000
0030
0000
,
1000
0000
1000
0000
,
2000
0000
3000
0000
,
0001
0000
0001
0000
,
0010
0000
0010
0000
,
0020
0000
0000
0000
,
0030
0000
0001
0000
,
1000
0000
2000
0000
,
0000
3000
0001
0000
,
0200
0000
0000
0300
0000
0000
0020
0000
,
0000
0030
0000
0000
1000
0000
0000
0000
,
0001
0000
0010
0000
,
0040
0000
0000
0030
,
0001
0000
0001
0000
,
2000
0000
3010
0000
,
0040
0000
4030
0000
,
0000
0000
0000
0000
,
3004
0000
0000
0000
,
1003
0000
1000
0000
,
0100
0000
0100
0000
,
0200
0000
0310
0000
,
0020
0000
0000
0000
,
0000
0000
0000
0000
,
0000
0000
0000
0000
,
0000
0000
0000
0000
,
0000
0000
0000
0000
,
0030
0000
0000
0000
;

//---------------dance-single - Ace Of Arrows (2017)----------------
#NOTES:
     dance-single:
     Ace Of Arrows (2017):
     Beginner:
     2:
     0.095,0.118,0.000,0.138,0.000:
0000
0000
0000
0000
,
0001
0000
0000
0000
,
1000
0000
0000
2000
,
0000
3000
0000
0001
,
0000
0000
0000
0002
,
0000
0003
0000
0010
,
0000
0000
0000
0020
,
0000
0030
0000
0002
,
0000
0000
0000
0000
,
0003
0000
1000
0000
,
0000
0000
1000
0000
,
0000
0000
0001
0000
,
0000
0000
0002
0000
,
0000
0003
1000
0000
,
0000
0000
1000
0000
,
0000
0000
0001
0000
,
0000
0000
0000
0000
0002
0000
0000
0003
,
0000
0000
2000
0000
,
0000
0000
0000
0000
,
3000
0000
0002
0000
,
0000
0000
0003
0000
,
0000
0000
0200
0000
,
0000
0000
0000
0000
,
0300
0000
0020
0000
,
0000
0000
0000
0000
,
0030
0000
1000
0000
,
0000
0000
1000
0000
,
0000
0000
2000
0000
,
0000
0000
3000
0000
,
0000
0000
0001
0000
,
0000
0000
0001
0000
,
0000
0000
0002
0000
,
0000
0000
0003
0000
,
0000
0000
0020
0000
,
0030
0000
0001
0000
,
0000
0000
0002
0000
,
0003
0000
1000
0000
,
0000
0000
4000
0000
,
3000
0000
0002
0000
,
0003
0000
0010
0000
,
0000
0000
0010
0000
,
0000
0000
0100
0000
,
0000
0000
0100
0000
,
0000
0000
1000
0000
,
0000
0000
2000
0000
,
0000
0000
3000
0000
,
0001
0000
0000
0000
,
0001
0000
0000
0000
,
0001
0000
0000
0000
,
0100
0000
0000
0000
,
0100
0000
0000
0000
,
0100
0000
0000
0000
,
0020
0000
0000
0000
,
0030
0000
1000
0000
,
0000
0000
1000
0000
,
0000
0000
1000
0000
,
0000
0000
0001
0000
,
0000
0000
0001
0000
,
0000
0000
0010
0000
,
0000
0000
0010
0000
,
0000
0000
0020
0000
,
0000
0000
0030
0000
,
0000
0000
0002
0000
,
0000
0000
0003
0000
,
0000
0000
2000
0000
,
0000
0000
3000
0000
,
0000
0000
0020
0000
,
0000
0000
0000
0000
,
0030
0000
0100
0000
,
0000
0000
0100
0000
,
0000
0000
0001
0000
,
0000
0000
0001
0000
,
0000
0000
1000
0000
,
0000
0000
1000
0000
,
0000
0000
0100
0000
,
0000
0000
0100
0000
,
0000
0000
0020
0000
,
0030
0000
0001
0000
,
0000
0000
0002
0000
,
0003
0000
1000
0000
,
0000
0000
4000
0000
,
3000
0000
0010
0000
,
0000
0000
0010
0000
,
0000
0000
0020
0000
,
0030
0000
1000
0000
,
0000
0000
1000
0000
,
0000
0000
0001
0000
,
0000
0000
0002
0000
,
0000
0000
0003
0000
,
0100
0000
0000
0000
,
0100
0000
0000
0000
,
0200
0000
0300
0000
,
0010
0000
0000
0000
,
0010
0000
0000
0000
,
1000
0000
0000
0000
,
2000
0000
0000
0000
,
3000
0000
0001
0000
,
0000
0000
0001
0000
,
0000
0000
0001
0000
,
0000
0000
0100
0000
,
0000
0000
0100
0000
,
0000
0000
0010
0000
,
0000
0000
0010
0000
,
0000
0000
0010
0000
,
0100
0000
0100
0000
,
0200
0300
0001
0000
,
0001
0000
0004
0000
,
0000
0003
1000
0000
,
0000
0000
1000
0000
,
0000
0000
0001
0000
,
0000
0000
0002
0000
,
0003
0000
0010
0000
,
0000
0000
0010
0000
,
0000
0000
0020
0000
,
0000
0000
0000
0000
,
0030
0000
0000
0001
,
0000
0001
0000
0001
,
0000
1000
0000
1000
,
0000
2000
3000
0000
,
0010
0000
0000
0000
,
0010
0000
0000
0000
,
0100
0000
0000
0000
,
0200
0000
0000
0000
,
0300
0000
0001
0000
,
0000
0000
0001
0000
,
0000
0000
0001
0000
,
0000
0000
1000
0000
,
0000
0000
1000
0000
,
0000
0000
0100
0000
,
0000
0000
0200
0000
,
0000
0000
0300
0000
,
0010
0000
0000
0000
,
0010
0000
0000
0000
,
0010
0000
0000
0000
,
0001
0000
0000
0000
,
0001
0000
0000
0000
,
1000
0000
0000
0000
,
1000
0000
0000
0000
,
0100
0000
0000
0000
,
0100
0000
0000
0000
,
0010
0000
0000
0000
,
0010
0000
0000
0000
,
0020
0000
0000
0000
,
0000
0000
0030
0000
,
0002
0000
0003
0000
,
4000
0000
3000
0000
,
0002
0000
0000
0003
,
0000
0000
0000
0000
,
0020
0000
0030
0000
,
0004
0000
0000
0000
,
0003
0000
0000
0000
,
1000
0000
0000
0000
,
0100
0000
0400
0000
,
0000
0000
0300
0000
,
0040
0000
0000
0000
,
0030
0000
0000
0000
,
0001
0000
0000
0000
,
0001
0000
0000
0000
,
0002
0000
0000
0000
,
0000
0000
0000
0000
,
0000
0000
0000
0000
,
0000
0000
0000
0000
,
0000
0000
0000
0000
,
0003
0000
0000
0000
;
