#TITLE:Inspector Gadget Theme;
#SUBTITLE:;
#ARTIST:Jacques Cardona;
#TITLETRANSLIT:;
#SUBTITLETRANSLIT:;
#ARTISTTRANSLIT:;
#GENRE:;
#CREDIT:Ace Of Arrows;
#BANNER:Go Go Gadget Banner.png;
#BACKGROUND:Go Go Gadget Background.jpg;
#LYRICSPATH:;
#CDTITLE:Ace Of Arrows.png;
#MUSIC:Inspector Gadget Theme.ogg;
#OFFSET:0.140;
#SAMPLESTART:32.380;
#SAMPLELENGTH:12.000;
#SELECTABLE:YES;
#BPMS:0.000=102.900;
#STOPS:;
#BGCHANGES:0.000=Inspector Gadget - Bg.jpg=1.000=0=0=1=Centered====,
0.125=Inspector Gadget Intro.avi=1.000=1=0=1===CrossFade==,
99999=-nosongbg-=1.000=0=0=0 // don't automatically add -songbackground-
;
#KEYSOUNDS:;

//---------------dance-single - AceOfArrows (2017)----------------
#NOTES:
     dance-single:
     AceOfArrows (2017):
     Challenge:
     9:
     0.623,0.085,0.507,0.699,0.411: // measure 1
0000
0000
0000
0000
,  // measure 2
0000
0000
0000
2002
0000
0M00
0000
00M0
,  // measure 3
0000
0M00
0000
00M0
0000
0M00
0000
3003
,  // measure 4
0001
0000
0001
0100
0000
0100
0020
0000
0000
0000
0000
0000
0030
0000
0000
2020
0000
0000
3030
0000
0000
0000
0000
0000
,  // measure 5
1000
0000
1000
0001
0000
0001
0010
0000
0000
0100
0000
0000
2000
0000
0000
0004
0000
0000
3000
0000
0000
0003
0000
0000
,  // measure 6
1000
0000
1000
0010
0000
0010
0100
0000
0000
0202
0000
0000
0303
0000
0000
0000
0000
0000
0000
0000
0000
0000
0000
0000
,  // measure 7
0001
0000
0001
1000
0000
1000
0100
0000
0000
0010
0000
0000
0002
0000
0000
1000
0000
0000
1003
0000
0000
0000
0000
0000
,  // measure 8
1010
0000
0010
0100
0000
0000
0102
0000
0000
1003
0000
0000
1100
0000
0100
0010
0000
0000
0001
0000
0000
1000
0000
0000
,  // measure 9
0010
0000
0010
0100
0000
0000
0001
0000
0001
1000
0000
0000
0100
0000
0100
0010
0000
0010
0100
0000
0100
1000
0000
1000
,  // measure 10
0001
0000
0001
0100
0000
0100
0010
0000
0000
1000
0000
0000
1001
0000
0000
0002
0000
0003
0021
0000
0000
0130
0000
0000
,  // measure 11
1000
0000
1000
0001
0000
0001
0100
0000
0000
0010
0000
0000
2000
0000
0000
0001
0000
0000
3002
0000
0000
0000
0000
0003
,  // measure 12
1001
0000
1000
0100
0000
0100
0010
0000
0000
0001
0000
0000
1001
0000
0000
1000
0000
0000
1020
0000
0000
0130
0000
0000
,  // measure 13
0101
0000
0000
0000
0001
0100
0001
0100
0001
0000
0000
0000
1000
0100
1000
0100
1000
0000
0000
0000
1001
0000
0000
0000
0101
0000
0000
0000
0000
0000
0000
0000
,  // measure 14
2001
0000
0000
3100
0000
0010
0001
0000
0000
1000
0000
0001
0020
0000
0000
0130
0000
0000
2100
0000
0000
3001
0000
0000
,  // measure 15
0100
0000
0100
0010
0000
0010
1000
0000
0000
0001
0000
0000
0011
0000
0000
0010
0000
0000
0210
0000
0000
1300
0000
0000
,  // measure 16
0001
0000
0001
0100
0000
0100
0010
0000
0000
1000
0000
0000
1002
0000
0000
0010
0000
0000
0023
0000
0000
0000
0000
0030
,  // measure 17
0110
0000
0100
1000
0000
1000
0001
0000
0000
0100
0000
0000
0110
0000
0000
0010
0000
0000
2010
0000
0000
3001
0000
0000
,  // measure 18
0010
0100
0010
0100
1000
0001
1000
0001
,  // measure 19
0201
0000
0000
0000
0000
0000
0320
0000
0000
1030
0000
0002
0000
0000
0000
0013
0000
0010
0000
0000
0000
0000
0000
0100
,  // measure 20
1000
0000
1000
0001
0000
0000
0100
0000
0000
0010
0000
0100
0000
0000
0100
0001
0000
0000
2000
0000
0000
3100
0000
0000
,  // measure 21
0120
0000
0000
0000
0000
0000
0032
0000
0000
1003
0000
0200
0000
0000
0000
0310
0000
0010
0000
0000
0000
0000
0000
0001
,  // measure 22
1000
0000
1000
0010
0000
0000
0100
0000
0000
0001
0000
1000
0000
0000
1000
0100
0000
0000
0020
0000
0000
0031
0000
0000
,  // measure 23
1000
0000
1000
0010
0000
0010
0100
0000
0000
0001
0000
0000
1001
0000
0000
1000
0000
0000
1200
0000
0000
0310
0000
0000
,  // measure 24
0001
0000
0001
1000
0000
1000
0010
0000
0000
0100
0000
0000
0002
0000
0000
1000
0000
0000
2003
0000
0000
0000
0000
0000
,  // measure 25
3100
0000
0100
0010
0000
0010
0001
0000
0000
1000
0000
0000
1010
0000
0000
0010
0000
0000
0210
0000
0000
0301
0000
0000
,  // measure 26
2002
0000
0000
0M00
0000
0000
3003
0000
2200
0000
0000
00M0
0000
0000
3300
0000
,  // measure 27
0220
0000
0000
M000
0000
0000
0330
0000
0022
0000
0000
0M00
0000
0000
0033
0000
,  // measure 28
2002
0000
0M03
0000
0020
000M
3030
0000
0220
M000
0030
0000
00M2
0000
0303
0000
,  // measure 29
0M01
10M0
010M
M010
010M
10M0
M001
01M0
,  // measure 30
001M
1M00
00M1
M010
0200
0000
0300
1100
,  // measure 31
1001
0202
0000
0000
,  // measure 32
0303
0000
0000
0000
;

//---------------dance-single - AceOfArrows (2017)----------------
#NOTES:
     dance-single:
     AceOfArrows (2017):
     Hard:
     7:
     0.482,0.043,0.069,0.521,0.308:
0000
0000
0000
0000
,
0000
0000
0000
0002
0000
0000
0000
0000
,
0000
0000
0000
0000
0000
0000
0000
0003
,
1000
0000
0100
1000
0000
0100
1000
0000
0000
0000
0000
0000
0000
0000
0000
0002
0000
0000
0003
0000
0000
0000
0000
0000
,
1000
0000
0001
0010
0000
0001
0010
0000
0000
0001
0000
0000
4000
0000
0000
0000
0000
0000
0000
0000
0000
3000
0000
0000
,
0001
0000
0100
0001
0000
0100
0001
0000
0000
2000
0000
0000
3000
0000
0000
0000
0000
0000
0000
0000
0000
0000
0000
0000
,
0001
0000
0010
0100
0000
0010
0100
0000
0000
0010
0000
0000
0002
0000
0000
0000
0000
0000
0003
0000
0000
0000
0000
0000
,
0010
0000
0100
1000
0000
0000
0000
0000
0000
0001
0000
0000
1000
0000
0001
0010
0000
0000
0000
0000
0000
0001
0000
0000
,
1000
0000
0100
1000
0000
0000
0001
0000
0010
0001
0000
0000
1000
0000
0001
1000
0000
0001
1000
0000
0001
0100
0000
0000
,
0010
0000
0100
0010
0000
0100
0010
0000
0000
1000
0000
0000
0001
0000
0000
0010
0000
0000
0002
0000
0000
1003
0000
0000
,
0001
0000
0010
0100
0000
0010
0100
0000
0000
1000
0000
0000
0002
0000
0000
0000
0000
0000
0003
0000
0000
0000
0000
0000
,
1000
0000
0001
0100
0000
0001
0100
0000
0000
0010
0000
0000
1000
0000
0000
0001
0000
0000
2000
0000
0000
3100
0000
0000
,
0010
0004
0003
4000
3000
0001
0010
0000
,
0002
0000
0000
1003
0000
0100
0010
0000
0000
0100
0000
1000
0002
0000
0000
0000
0000
0000
0003
0000
0000
0000
0000
0000
,
1000
0000
0001
0010
0000
0001
0010
0000
0000
0100
0000
0000
1000
0000
0000
0001
0000
0000
2000
0000
0000
3010
0000
0000
,
0100
0000
0001
0100
0000
0001
0100
0000
0000
0010
0000
0000
2000
0000
0000
0000
0000
0000
3000
0000
0000
0000
0000
0000
,
0001
0000
1000
0100
0000
1000
0100
0000
0000
0010
0000
0000
0100
0000
0000
1000
0000
0000
0002
0000
0000
0103
0000
0000
,
0010
0100
0010
0100
0001
1000
0001
1000
,
0200
0000
0000
0000
0000
0000
0320
0000
0000
0031
0000
2000
0000
0000
0000
0000
0000
0000
3000
0000
0000
0000
0000
0001
,
0010
0000
0010
0001
0000
0000
1000
0000
0000
0001
0000
0100
0000
0000
0100
0001
0000
0000
2000
0000
0000
3100
0000
0000
,
0020
0000
0000
0000
0000
0000
0230
0000
0000
1300
0000
0002
0000
0000
0000
0000
0000
0000
0003
0000
0000
0000
0000
1000
,
0010
0000
0010
1000
0000
0000
0001
0000
0000
0010
0000
0100
0000
0000
0100
0010
0000
0000
0002
0000
0000
1003
0000
0000
,
0010
0000
0100
0010
0000
0100
0010
0000
0000
1000
0000
0000
0001
0000
0000
0010
0000
0000
0200
0000
0000
1300
0000
0000
,
0001
0000
1000
0100
0000
1000
0100
0000
0000
0010
0000
0000
0002
0000
0000
0000
0000
0000
0003
0000
0000
0000
0000
0000
,
1000
0000
0010
0100
0000
0010
0100
0000
0000
0001
0000
0000
1000
0000
0000
0100
0000
0000
0020
0000
0000
0031
0000
0000
,
2002
0000
0000
3003
2020
0000
0000
3030
,
2002
0000
0000
3003
0202
0000
0000
0303
,
0002
2003
3200
0320
,
0031
1000
0010
1000
0001
0100
0001
1000
,
0100
1000
0001
0010
0002
0000
0003
1000
,
0001
2002
0000
0000
,
3003
0000
0000
0000
;

//---------------dance-single - AceOfArrows (2017)----------------
#NOTES:
     dance-single:
     AceOfArrows (2017):
     Medium:
     5:
     0.278,0.000,0.014,0.261,0.027:
0000
0000
0000
0000
,
0000
0000
0000
0000
,
0000
0000
0000
0000
,
0001
0010
0001
0000
0000
2000
3000
0000
,
0001
0100
0001
0000
2000
0000
3000
0000
,
0010
0100
0010
0000
0000
0000
0000
0000
,
1000
0001
1000
0000
0200
0000
0300
0000
,
0010
0001
0000
1000
0001
1000
0000
0000
,
0001
0100
0001
0000
1000
0100
1000
0000
,
0001
0010
0001
0000
1000
0100
1000
0000
,
0100
0010
0100
0000
2000
0000
3000
0000
,
0001
1000
0001
0000
0100
0010
0100
0000
,
0000
0004
0003
4000
3000
0001
0010
0000
,
0002
0000
1003
0100
2000
0000
3000
0000
,
0001
0010
0001
0000
0010
0100
0010
0000
,
0001
1000
0001
0000
0200
0000
0300
0000
,
0010
1000
0010
0000
1000
0001
1000
0000
,
0040
0000
0000
0000
,
2030
0000
0000
0000
0000
0000
3001
0000
0000
0000
0000
0020
0000
0000
0000
0000
0000
0000
0030
0000
0000
0000
0000
0000
,
0001
0000
0000
1000
0000
0000
0001
0000
0000
0000
0000
0100
0000
0000
0000
0001
0000
0000
0100
0000
0000
0000
0000
0000
,
0020
0000
0000
0000
0000
0000
1030
0000
0000
0000
0000
0002
0000
0000
0000
0000
0000
0000
0003
0000
0000
0000
0000
0000
,
1000
0000
0000
0100
0000
0000
1000
0000
0000
0000
0000
0001
0000
0000
0000
1000
0000
0000
0001
0000
0000
0000
0000
0000
,
0010
0100
0010
0000
0001
1000
0001
0000
,
1000
0100
1000
0000
0002
0000
0003
0000
,
1000
0010
1000
0000
0001
0100
0001
0000
,
2000
3000
0002
0003
,
0020
0030
0200
0300
,
1000
0001
1000
0100
,
0010
0001
0010
0000
0001
1000
0001
0000
,
1000
0010
1000
0000
0002
0000
0000
1003
,
0001
2002
0000
0000
,
3003
0000
0000
0000
;

//---------------dance-single - AceOfArrows (2017)----------------
#NOTES:
     dance-single:
     AceOfArrows (2017):
     Easy:
     3:
     0.190,0.000,0.014,0.288,0.000:
0000
0000
0000
0000
,
0000
0000
0000
0000
,
0000
0000
0000
0000
,
1000
1000
0000
0000
,
0001
0001
0002
0003
,
0010
0010
0000
0000
,
0100
0100
0200
0300
,
1000
0000
0001
0000
,
0100
0100
0001
0001
,
1000
1000
0002
0003
,
0010
0010
0020
0030
,
0100
0100
2000
3000
,
0004
0000
0000
0003
,
1000
1000
2000
3000
,
0010
0010
0200
0300
,
0001
0001
0002
0003
,
1000
1000
0200
0300
,
0010
0010
0010
0000
,
0001
0001
0002
0003
,
1000
1000
1000
0000
,
0010
0010
0020
0030
,
0100
0100
0100
0000
,
0001
0001
2000
3000
,
0001
0001
0002
0003
,
1000
1000
0020
0030
,
0200
0300
0020
0030
,
0200
0300
0020
0030
,
1000
1000
0001
0001
,
4000
0000
3000
0004
,
0000
0003
2000
0000
,
3001
2002
0000
0000
,
3003
0000
0000
0000
;

//---------------dance-single - AceOfArrows (2017)----------------
#NOTES:
     dance-single:
     AceOfArrows (2017):
     Beginner:
     1:
     0.100,0.000,0.014,0.165,0.000:
0000
0000
0000
0000
,
0000
0000
0000
0000
,
0000
0000
0000
0000
,
0002
0003
0000
0000
,
2000
0000
3000
0000
,
2000
3000
0000
0000
,
0002
0000
0003
0000
,
0010
0000
0010
0000
,
0010
0000
0010
0000
,
0001
0000
0001
0000
,
0002
0000
0003
0000
,
1000
0000
1000
0000
,
4000
0000
3000
0000
,
0002
0000
0003
0000
,
0010
0000
0010
0000
,
0020
0000
0030
0000
,
0100
0000
0100
0000
,
0400
0000
0000
0300
,
1000
0000
1000
0000
,
2000
0000
3000
0000
,
0001
0000
0001
0000
,
0002
0000
0003
0000
,
0010
0000
0010
0000
,
0020
0000
0030
0000
,
0100
0000
0100
0000
,
0200
0000
0300
0000
,
2000
0000
3000
0000
,
0001
0000
0001
0000
,
0400
0000
0000
0000
,
0000
0000
0300
0000
,
1001
0000
0000
0000
;
