#TITLE:Happy Sensation;
#SUBTITLE:;
#ARTIST:Anndi McAffee;
#TITLETRANSLIT:;
#SUBTITLETRANSLIT:;
#ARTISTTRANSLIT:;
#GENRE:;
#CREDIT:;
#BANNER:Happy Sensation - Bn.png;
#BACKGROUND:Happy Sensation - Bg.png;
#LYRICSPATH:;
#CDTITLE:Ace Of Arrows.png;
#MUSIC:Happy Sensation.ogg;
#OFFSET:1.310;
#SAMPLESTART:1.100;
#SAMPLELENGTH:12.000;
#SELECTABLE:YES;
#BPMS:0.000=144.000;
#STOPS:;
#BGCHANGES:;
#KEYSOUNDS:;

//---------------dance-single - AceOfArrows (2018)----------------
#NOTES:
     dance-single:
     AceOfArrows (2018):
     Hard:
     7:
     0.567,0.118,0.197,1.000,0.000: // measure 1
0000
0000
0000
0000
,  // measure 2
0000
0000
0000
0000
0001
1000
0200
0000
,  // measure 3
0310
0001
2000
0000
3001
0100
0010
0100
,  // measure 4
0002
0000
0003
0000
1000
0100
0020
0000
,  // measure 5
0031
1000
0020
0000
0130
0001
1000
0001
,  // measure 6
0200
0000
0300
0000
0001
1000
0200
0000
,  // measure 7
0310
0001
2000
0000
3010
0100
0001
1000
,  // measure 8
0002
0000
0003
0000
0010
0100
2000
0000
,  // measure 9
3001
0100
0020
0000
0130
0001
2000
3000
,  // measure 10
1200
0000
0320
0000
0030
0000
0001
1000
,  // measure 11
0020
0000
0130
0000
0102
0000
1003
0200
,  // measure 12
0000
0300
0000
0000
0120
0000
0031
2000
,  // measure 13
0000
3000
0000
0000
0002
0000
0103
0020
,  // measure 14
0000
0030
0000
0000
2000
0000
3100
0020
,  // measure 15
0000
0030
0000
0001
2000
0000
3010
0200
,  // measure 16
0000
0300
0000
0000
0102
0000
1003
0200
,  // measure 17
0000
0300
0000
0000
0120
0000
0031
2000
,  // measure 18
0000
0000
3000
0000
1002
0000
0103
0020
,  // measure 19
0000
0030
0000
0000
1020
0000
0130
0002
,  // measure 20
0000
0000
0003
0000
2001
0000
3100
0020
,  // measure 21
0000
0000
0030
0000
0012
0000
1003
0020
,  // measure 22
0000
0000
0030
1000
0020
0000
0130
0002
,  // measure 23
0000
0003
1000
0000
1020
0000
0130
0002
,  // measure 24
0000
0000
0003
1000
0200
0000
0310
0002
,  // measure 25
0000
0003
0000
0000
2001
0000
3010
0200
,  // measure 26
0302
0000
2003
0000
3100
0010
0002
0000
,  // measure 27
1003
0010
0200
0000
0301
1000
0100
1000
,  // measure 28
0002
0000
0003
0000
1000
0010
0200
0000
,  // measure 29
0301
1000
0200
0000
1300
0100
0010
0100
,  // measure 30
2000
0000
3000
0000
0001
0010
0200
0000
,  // measure 31
0310
0001
2000
0000
3001
0100
0010
0100
,  // measure 32
0002
0000
0003
0000
1000
0100
0020
0000
,  // measure 33
0130
1000
0002
0000
0103
0010
2000
3000
,  // measure 34
1002
0000
0023
0130
2000
0000
3001
0200
,  // measure 35
0000
0300
0000
0001
2000
0000
3100
0020
,  // measure 36
0000
0030
0000
0001
0020
0000
0130
2000
,  // measure 37
0000
3000
0000
0001
0200
0000
0310
2000
,  // measure 38
0000
3000
0000
0000
1002
0000
0013
0200
,  // measure 39
0000
2300
0000
3000
1002
0000
0103
0020
,  // measure 40
0000
0000
0030
0000
2010
0000
3001
0020
,  // measure 41
0000
0230
0000
0000
1300
0001
1000
0010
,  // measure 42
0000
0000
0000
0000
0210
0000
0301
2000
,  // measure 43
0000
0000
3010
0000
0210
0000
0301
2000
,  // measure 44
0000
3002
0003
0000
0021
0000
0130
2000
,  // measure 45
0000
0000
3002
0000
1003
0010
0100
0002
,  // measure 46
0000
0003
0000
0000
2000
0000
3100
0020
,  // measure 47
0030
0011
0000
0000
0002
0000
1003
0020
,  // measure 48
0000
0030
0000
0100
0002
0000
1003
0200
,  // measure 49
0000
0320
0030
0000
0001
2000
0000
3020
,  // measure 50
0000
0030
0210
0302
,  // measure 51
2003
0000
3200
0000
0310
0001
2000
0000
,  // measure 52
3010
0100
0002
0000
1003
0100
0010
0100
,  // measure 53
2000
0000
3000
0000
0001
0100
0020
0000
,  // measure 54
1030
0010
0200
0000
0301
1000
0100
1000
,  // measure 55
0002
0000
0003
0000
1000
0100
0020
0000
,  // measure 56
0130
1000
0002
0000
0103
0010
1000
0010
,  // measure 57
0200
0000
0300
0000
0001
1000
0200
0000
,  // measure 58
0310
0100
2000
0000
3001
0100
0020
0030
,  // measure 59
2010
0000
3002
0000
0013
0100
2000
0000
,  // measure 60
3001
0100
0020
0000
1030
0001
0010
0001
,  // measure 61
2000
0000
3000
0000
0100
0010
0002
0000
,  // measure 62
0013
0100
2000
0000
3001
0100
0010
0100
,  // measure 63
0002
0000
0003
0000
1000
0100
0020
0000
,  // measure 64
0130
1000
0002
0000
1003
0010
0100
0010
,  // measure 65
2000
0000
3000
0000
0001
0010
0200
0000
,  // measure 66
0310
0001
2000
0000
3001
0100
0002
0003
,  // measure 67
1001
0000
0000
0000
;

//---------------dance-single - AceOfArrows (2018)----------------
#NOTES:
     dance-single:
     AceOfArrows (2018):
     Challenge:
     10:
     1.000,0.237,0.788,1.000,0.399:
0000
0000
0000
0000
,
0004
0000
0000
0000
4003
0000
0000
3000
1020
0000
0130
0000
0002
0000
0000
0003
,
1002
0013
0200
0300
1100
1000
0002
0103
,
0020
0000
1030
0001
1000
0000
0100
0000
0120
0000
0031
0000
2000
0000
3000
0000
,
1020
0130
0002
0003
0021
0130
2000
3001
,
0101
0000
0100
0010
0100
0000
0001
0000
2001
0000
3100
0000
0020
0000
0030
0000
,
0012
1003
0020
0030
0110
0100
0002
1003
,
1200
0000
0310
0100
0010
0000
0001
0000
2001
0000
3010
0000
0200
0000
0300
0000
,
0102
1003
0200
0300
0120
0031
2000
3010
,
0100
0010
0100
0000
0001
1000
0001
0000
0021
0000
0130
1000
0001
0000
0100
0000
,
0020
0000
1030
0000
0001
0000
0010
0000
0210
0000
1300
0001
0100
0000
0020
0000
,
1030
0001
1000
0000
0100
0010
0100
0000
2100
0000
3001
0100
0010
0000
2000
0000
,
0000
0000
3001
0000
0010
0000
0100
0000
2100
0000
3001
0100
0010
0000
2000
0000
,
3001
0010
0001
0000
1000
0100
1000
0000
1002
0000
0103
0010
1000
0000
0002
0000
,
0013
0000
0100
0000
0010
0000
0001
0000
2001
0000
3010
0100
0001
0000
2000
0000
,
3001
0100
0001
0000
1000
0010
1000
0000
1002
0000
0013
0100
1000
0000
0002
0000
,
0000
0000
0103
0000
0010
0000
1000
0000
1002
0000
0013
0100
1000
0000
0002
0000
,
1003
0100
1000
0100
0010
0001
0010
0001
2000
0000
3001
0100
0010
0000
2000
0000
,
0000
0000
3001
0000
0010
0000
0001
0000
2001
0000
3010
0100
0001
0000
2000
0000
,
3100
0010
0100
0000
1000
0001
1000
0000
1020
0000
0130
0001
1000
0000
0200
0000
,
0000
0000
0310
0000
0001
0000
1000
0000
1020
0000
0130
0001
1000
0000
0200
0000
,
0310
0001
0010
0000
0001
1000
0001
0000
2001
0000
3010
0100
0001
0000
2000
0000
,
0000
0000
3001
0000
0100
0000
0010
0000
2010
0000
3001
0010
0100
0000
1000
0000
,
0001
0100
0001
0000
1000
0100
1000
0000
1002
0000
0103
0010
1000
0000
0002
0000
,
0000
0000
0013
0000
0100
0000
1000
0000
1002
0000
0103
0010
1000
0000
0001
0000
,
0010
0100
0010
0000
0001
1000
0001
0000
0201
0000
0310
0000
2000
0000
3000
0000
,
1002
0013
0200
0300
1100
1000
0002
0103
,
0020
0000
1030
0001
1000
0000
0100
0000
0120
0000
0031
0000
2000
0000
3000
0000
,
1020
0130
0002
0003
1001
1000
0200
0310
,
0002
0000
1003
0010
1000
0000
0001
0000
0201
0000
0310
0000
2000
0000
3000
0000
,
1002
0000
0023
0030
0200
0000
0300
0000
1100
0000
1000
0000
1001
0000
0001
0000
,
0101
0000
0100
0010
0100
0000
0001
0000
2001
0000
3100
0000
0020
0000
0030
0000
,
0012
1003
0020
0030
0210
0301
1000
0100
,
0010
0001
0010
0000
0001
1000
0001
0000
0201
0000
0310
1000
0001
0000
0020
0000
,
0000
0000
0130
0000
1000
0000
0001
0000
0021
0000
0130
1000
0001
0000
0200
0000
,
0310
1000
0010
0000
0100
0001
0100
0000
0002
0000
1003
0100
0010
0000
0200
0000
,
0000
0000
1300
0000
0001
0000
0100
0000
0120
0000
1030
0001
0010
0000
0200
0000
,
1300
0001
1000
0000
0001
0010
0001
0000
2001
0000
3010
0100
0001
0000
0200
0000
,
0000
0000
0320
0000
0000
0000
0030
0000
2010
0000
3001
0010
0100
0000
2000
0000
,
3001
0100
0001
0000
1000
0100
1000
0000
1002
0000
0013
0100
1000
0000
0002
0000
,
0000
0000
0203
0000
0310
0000
1000
0000
1002
0000
0013
0100
1000
0000
0001
0000
,
1000
0010
0100
0001
0100
0010
1000
0001
0020
0000
0130
1000
0001
0000
0200
0000
,
0000
0000
0310
0000
1000
0000
0001
0000
0201
0000
0310
1000
0001
0000
0020
0000
,
0130
1000
0100
0000
1000
0001
1000
0000
1020
0000
0130
0001
1000
0000
0200
0000
,
0000
0000
0310
0000
0001
0000
1000
0000
1002
0000
0103
0010
1000
0000
0001
0000
,
0010
0100
0010
0000
0001
1000
0001
0000
0201
0000
0310
1000
0001
0000
0020
0000
,
0030
0000
0220
0000
0000
0000
0330
0000
2100
0000
3001
0100
0010
0000
1000
0000
,
0001
0010
0001
0000
1000
0010
1000
0000
1002
0000
0013
0100
1000
0000
0002
0000
,
0000
0000
0103
0000
0010
0000
1000
0000
1002
0000
0013
0100
1000
0000
0001
0000
,
0100
0010
0100
0000
0001
1000
0001
0000
1000
0100
0010
0000
0100
0010
0001
0000
,
1000
0010
0100
0000
0010
0100
0001
0000
2001
0000
3100
0000
0020
0000
0030
0000
,
0012
1003
0020
0030
0210
0301
2000
3100
,
0020
0000
0031
1000
0010
0000
0100
0000
0102
0000
1003
0000
0200
0000
0300
0000
,
0120
0031
2000
3000
1010
0010
0200
0301
,
2001
0000
3100
0010
0001
0000
1000
0000
1200
0000
0310
0000
0002
0000
0003
0000
,
2001
3010
0200
0300
0101
0001
2000
3100
,
0120
0000
0031
1000
0010
0000
0100
0000
0102
0000
1003
0000
0200
0000
0300
0000
,
0120
0031
2000
3000
1020
0130
0002
1003
,
1100
0000
0100
0010
0001
0000
1000
0000
1020
0000
0130
0000
0002
0000
0003
0000
,
2001
3100
0020
0030
0012
1003
0020
0130
,
0002
0000
1003
0100
0010
0000
0001
0000
2001
0000
3010
0000
0200
0000
0300
0000
,
0102
1003
0200
0300
0120
0031
1000
0001
,
0101
0000
0100
0010
1000
0000
0001
0000
0021
0000
0130
0000
2000
0000
3000
0000
,
1002
0103
0020
0030
2010
3001
0020
0130
,
2100
0000
3001
0100
0010
0000
1000
0000
1002
0000
0013
0000
0200
0000
0300
0000
,
2100
3001
0200
0300
0120
1030
0001
0010
,
0220
0330
0000
0000
;

//---------------dance-single - AceOfArrows (2018)----------------
#NOTES:
     dance-single:
     AceOfArrows (2018):
     Medium:
     5:
     0.511,0.118,0.000,1.000,0.000:
0000
0000
0000
0000
,
0000
0000
2000
3002
,
2003
0000
3002
0000
1003
0100
2000
0000
,
3002
0003
0020
0032
,
0023
0000
0032
0000
1003
0001
2000
0000
,
3020
0030
0200
0302
,
0203
0000
0302
0000
1003
0001
2000
0000
,
3200
0300
2000
3002
,
2003
0000
3002
0000
1003
0010
2000
0000
,
3002
0003
0000
2000
,
3200
0000
2300
0000
3002
0000
0000
0023
,
0000
0030
0000
0000
0002
0000
0000
2003
,
0000
3000
0000
0000
0020
0000
0000
2030
,
0000
3000
0000
0000
0002
0000
0000
0023
,
0000
0030
0000
0001
2000
0000
0000
3200
,
0000
0300
0000
0000
0020
0000
0000
0032
,
0000
0003
0000
0000
0020
0000
0000
0230
,
0000
0300
0000
0000
2000
0000
3001
0200
,
0000
0300
0000
0000
0002
0000
0000
2003
,
0000
3000
0000
0000
0020
0000
0130
0002
,
0000
0000
0003
0000
2000
0000
0000
3200
,
0000
0300
0000
1000
0002
0000
1003
0020
,
0000
0000
2030
0000
3002
0000
1003
0200
,
0000
0300
0000
1000
0002
0000
1003
0020
,
0000
0030
0000
0000
2000
0000
3001
0020
,
0000
0030
0002
2003
,
3002
0000
2003
0000
3001
0100
0002
0000
,
2003
3000
0020
2030
,
3020
0000
2030
0000
3001
0010
0002
0000
,
2003
3000
0020
0230
,
0320
0000
0230
0000
0301
0100
0002
0000
,
2003
3000
0002
0203
,
0302
0000
0203
0000
0310
0100
0020
0000
,
2030
0000
3000
0001
0020
0000
0031
2000
,
0000
3000
0000
0001
0020
0000
0000
0230
,
0000
0300
0000
0010
0002
0000
1003
0200
,
0000
0300
0000
1000
0002
0000
1003
0020
,
0000
0030
0000
0000
2000
0000
3001
0020
,
0000
0032
0000
0000
2003
0000
3001
0200
,
0000
0300
0000
0000
0020
0000
1030
0002
,
0000
2003
0000
3000
0020
0000
0130
0001
,
0000
0000
0000
0000
2000
0000
3001
0020
,
0000
0000
0031
0000
2000
0000
3001
0020
,
0000
0230
0000
0000
0320
0000
0031
2000
,
0000
0000
3002
0000
2003
0000
3010
0200
,
0000
0000
0300
0000
0002
0000
1003
0020
,
0000
0230
0000
0000
0302
0000
1003
0200
,
0000
0300
0000
1000
0002
0000
1003
0200
,
0000
0320
0000
0030
0002
0000
0000
2003
,
0000
3000
0001
0001
,
1000
1000
0020
2030
,
3020
0000
2030
0000
3001
0010
0002
0000
,
2003
3000
0002
0023
,
0032
0000
0023
0000
0130
1000
0200
0000
,
0320
0030
0002
2003
,
3002
0000
2003
0000
3010
1000
0020
0000
,
0230
0300
0002
0203
,
0302
0000
0203
0000
0310
1000
0020
0000
,
0230
0300
0002
2003
,
3002
0000
2003
0000
3010
0100
0020
0000
,
2030
3000
0002
0023
,
0032
0000
0023
0000
0130
0010
0200
0000
,
2300
3000
0200
0320
,
0230
0000
0320
0000
0031
0010
0002
0000
,
2003
3000
0020
2030
,
3020
0000
2030
0000
3001
0100
0002
0000
,
1003
0000
0000
0000
;

//---------------dance-single - AceOfArrows (2018)----------------
#NOTES:
     dance-single:
     AceOfArrows (2018):
     Easy:
     3:
     0.238,0.059,0.000,0.188,0.000:
0000
0000
0000
0000
,
0000
0000
0001
0001
,
0002
0003
0010
0010
,
0010
0000
0001
0001
,
0002
0003
1000
1000
,
1000
0000
0010
0010
,
0020
0030
0100
0100
,
0100
0000
0001
0001
,
0002
0003
1000
1000
,
1000
0000
0000
0010
,
0010
0000
0000
0000
0100
0000
0000
0100
,
0000
0000
0000
0000
0001
0000
0000
0001
,
0000
0000
0000
0000
1000
0000
0000
1000
,
0000
0000
0000
0000
0001
0000
0000
0001
,
0000
0000
0000
0000
0100
0000
0000
0100
,
0000
0000
0000
0000
0001
0000
0000
0001
,
0000
0000
0000
0000
0010
0000
0000
0010
,
0000
0000
0000
0000
0001
0000
0000
0001
,
0000
0000
0000
0000
1000
0000
0000
1000
,
0000
0000
0000
0000
0100
0000
0000
0100
,
0000
0000
0000
0000
0010
0000
0000
0010
,
0000
0000
0000
0000
0001
0000
0000
0001
,
0000
0000
0000
0000
1000
0000
0000
1000
,
0000
0000
0000
0000
0001
0000
0000
0001
,
0000
0000
0000
0000
0100
0000
0000
0100
,
0000
0000
0001
0001
,
0002
0003
0100
0100
,
0100
0000
0010
0010
,
0020
0030
1000
1000
,
1000
0000
0001
0001
,
0002
0003
0010
0010
,
0010
0000
0100
0100
,
0200
0300
1000
1000
,
1000
0000
0000
0000
0001
0000
0000
0001
,
0000
0000
0000
0000
1000
0000
0000
1000
,
0000
0000
0010
0010
,
0010
0000
0100
0100
,
0100
0000
0001
0001
,
0001
0000
1000
1000
,
1000
0000
0100
0100
,
0100
0000
0020
0000
,
0030
0000
0000
0000
0001
0000
0000
0001
,
0000
0000
0000
0000
1000
0000
0000
1000
,
0000
0000
0000
0000
0010
0000
0000
0010
,
0000
0000
0000
0000
0100
0000
0000
0100
,
0000
0000
0000
0000
0001
0000
0000
0002
,
0000
0003
0000
0000
1000
0000
0000
1000
,
0000
0000
0000
0000
0100
0000
0000
0100
,
0000
0000
0000
0000
0020
0000
0000
0230
,
0000
0300
2000
0000
,
3000
0000
0001
0001
,
0002
0003
0100
0100
,
0100
0000
0010
0010
,
0020
0030
1000
1000
,
1000
0000
0001
0001
,
0002
0003
0010
0010
,
0010
0000
0100
0100
,
0200
0300
1000
1000
,
1000
0000
0001
0001
,
0002
0003
0100
0100
,
0100
0000
0010
0010
,
0020
0030
1000
1000
,
1000
0000
0010
0010
,
0020
0030
0100
0100
,
0100
0000
0001
0001
,
0002
0003
1000
1000
,
1000
0000
0000
0000
;

//---------------dance-single - AceOfArrows (2018)----------------
#NOTES:
     dance-single:
     AceOfArrows (2018):
     Beginner:
     1:
     0.165,0.030,0.000,0.323,0.000:
0000
0000
0000
0000
,
0000
0000
1000
0000
,
1000
0000
2000
0000
,
3000
0000
0001
0000
,
0001
0000
0002
0000
,
0003
0000
0010
0000
,
0010
0000
0020
0000
,
0030
0000
0100
0000
,
0100
0000
0200
0000
,
0300
0000
0000
0000
,
1000
0000
0000
0000
2000
0000
0000
3000
,
0000
0000
0000
0000
0002
0000
0000
0003
,
0000
0000
0000
0000
0200
0000
0000
0300
,
0000
0000
0000
0000
0002
0000
0000
0003
,
0000
0000
0000
0000
2000
0000
0000
3000
,
0000
0000
0000
0000
0200
0000
0000
0300
,
0000
0000
0000
0000
0020
0000
0000
0030
,
0000
0000
0001
0000
,
0001
0000
0000
0000
0002
0000
0000
0003
,
0000
0000
0100
0000
,
0100
0000
0000
0000
0200
0000
0000
0300
,
0000
0000
0010
0000
,
0010
0000
0000
0000
0020
0000
0000
0030
,
0000
0000
1000
0000
,
1000
0000
2000
0000
,
3000
0000
0010
0000
,
0010
0000
0020
0000
,
0030
0000
0100
0000
,
0100
0000
0200
0000
,
0300
0000
0001
0000
,
0001
0000
0002
0000
,
0003
0000
1000
0000
,
1000
0000
2000
0000
,
3000
0000
0010
0000
,
0010
0000
0000
0000
0020
0000
0000
0030
,
0000
0000
0100
0000
,
0100
0000
0000
0000
0200
0000
0000
0300
,
0000
0000
0001
0000
,
0001
0000
0000
0000
0002
0000
0000
0003
,
0000
0000
1000
0000
,
1000
0000
0000
0000
2000
0000
0000
3000
,
0000
0000
0100
0000
,
0100
0000
0000
0000
0200
0000
0000
0300
,
0000
0000
0010
0000
,
0010
0000
0000
0000
0020
0000
0000
0030
,
0000
0000
0001
0000
,
0001
0000
0000
0000
0002
0000
0000
0003
,
0000
0000
1000
0000
,
1000
0000
0000
0000
2000
0000
0000
3000
,
0000
0000
0020
0000
,
0030
0000
1000
0000
,
1000
0000
2000
0000
,
3000
0000
0001
0000
,
0001
0000
0002
0000
,
0003
0000
0010
0000
,
0010
0000
0020
0000
,
0030
0000
0100
0000
,
0100
0000
0200
0000
,
0300
0000
1000
0000
,
1000
0000
2000
0000
,
3000
0000
0001
0000
,
0001
0000
0002
0000
,
0003
0000
0100
0000
,
0100
0000
0200
0000
,
0300
0000
0001
0000
,
0001
0000
0002
0000
,
0003
0000
0000
0000
;
