#TITLE:Happiness!;
#SUBTITLE:;
#ARTIST:Ayumi Murata;
#TITLETRANSLIT:;
#SUBTITLETRANSLIT:;
#ARTISTTRANSLIT:;
#GENRE:;
#CREDIT:Ace Of Arrows;
#BANNER:Happiness - Bn.png;
#BACKGROUND:Happiness - Bg.jpg;
#LYRICSPATH:;
#CDTITLE:Ace Of Arrows.png;
#MUSIC:Happiness.ogg;
#OFFSET:0.420;
#SAMPLESTART:60.800;
#SAMPLELENGTH:12.000;
#SELECTABLE:YES;
#DISPLAYBPM:84.000:168.000;
#BPMS:0.000=168.000,61.000=84.000,61.250=336.000,61.750=168.000,62.500=84.000,62.750=336.000,63.250=168.000,72.500=336.000,73.500=168.000,74.000=336.000,75.000=168.000,75.500=336.000,76.500=168.000,77.000=84.000,77.250=336.000,77.750=168.000,78.500=84.000,78.750=336.000,79.250=168.000,164.000=84.000,168.000=168.000,249.000=84.000,249.250=336.000,249.750=168.000,250.500=84.000,250.750=336.000,251.250=168.000,260.500=336.000,261.500=168.000,262.000=336.000,263.000=168.000,263.500=336.000,264.500=168.000,265.000=84.000,265.250=336.000,265.750=168.000,266.500=84.000,266.750=336.000,267.250=168.000,352.000=84.000,356.000=168.000,437.000=84.000,437.250=336.000,437.750=168.000,438.500=84.000,438.750=336.000,439.250=168.000,448.500=336.000,449.500=168.000,450.000=336.000,451.000=168.000,451.500=336.000,452.500=168.000,453.000=84.000,453.250=336.000,453.750=168.000,454.500=84.000,454.750=336.000,455.250=168.000,508.000=84.000,528.000=168.000,645.000=84.000,645.250=336.000,645.750=168.000,646.500=84.000,646.750=336.000,647.250=168.000,656.500=336.000,657.500=168.000,658.000=336.000,659.000=168.000,659.500=336.000,660.500=168.000,661.000=84.000,661.250=336.000,661.750=168.000,662.500=84.000,662.750=336.000,663.250=168.000,665.000=84.000,665.250=336.000,665.750=168.000,666.500=84.000,666.750=336.000,667.250=168.000,669.000=84.000,669.250=336.000,669.750=168.000,670.500=84.000,670.750=336.000,671.250=168.000;
#STOPS:72.500=0.179
,74.000=0.179
,75.500=0.179
,260.500=0.179
,262.000=0.179
,263.500=0.179
,448.500=0.179
,450.000=0.177
,451.500=0.179
,656.500=0.179
,658.000=0.177
,659.500=0.177
;
#BGCHANGES:;
#KEYSOUNDS:;

//---------------dance-single - AceOfArrows (2018)----------------
#NOTES:
     dance-single:
     AceOfArrows (2018):
     Hard:
     8:
     0.653,0.199,0.136,1.000,0.084: // measure 1
0000
0000
0000
0000
,  // measure 2
4000
0000
0000
0000
,  // measure 3
3000
0000
0000
0000
,  // measure 4
0002
0000
0013
0100
0000
0010
0000
0001
,  // measure 5
0000
1000
0000
0020
0000
2030
3000
1001
,  // measure 6
0000
0000
0001
1000
0100
2000
0000
3001
,  // measure 7
0020
0000
0031
2000
0000
3010
0000
0220
,  // measure 8
0330
0000
0100
0001
0100
0020
0000
1030
,  // measure 9
0002
0000
0013
0200
0000
1300
0002
0003
,  // measure 10
0202
0000
0303
0200
,  // measure 11
0320
0000
0000
2030
0000
0000
3002
0000
0000
0000
0000
0000
0003
0000
0000
0000
,  // measure 12
2000
0000
0000
3020
0000
0000
0230
0000
0000
0000
0301
0000
1000
0000
0200
0000
,  // measure 13
0310
0001
0010
0001
2000
0000
3010
0100
,  // measure 14
0000
0001
1000
0100
0010
0100
2000
0000
,  // measure 15
3001
1000
0001
1000
0020
0000
1030
0001
,  // measure 16
0000
0000
0102
0000
0000
2003
0000
0000
,  // measure 17
3010
0100
0010
0100
0002
0000
1003
0100
,  // measure 18
0000
0010
0001
0010
0100
1000
0002
0000
,  // measure 19
2003
3010
0000
2000
3001
0000
2000
3100
,  // measure 20
0000
0000
0120
0000
0000
0032
0000
0000
,  // measure 21
1003
0010
0100
0010
2000
0000
3001
0010
,  // measure 22
0000
0200
0000
1300
0001
0000
0200
0000
,  // measure 23
0310
0100
0001
0100
0020
0000
1030
0001
,  // measure 24
0000
0020
0000
0130
1000
0000
0000
0000
,  // measure 25
0001
1000
0100
1000
0002
0000
0103
0010
,  // measure 26
0000
2000
0000
3001
0010
0001
1000
0000
,  // measure 27
2020
0000
0000
0000
0000
0000
0000
3030
,  // measure 28
0000
0000
1000
0001
0010
0001
2000
0000
,  // measure 29
3020
0000
0000
0000
0230
0000
0301
2000
,  // measure 30
0000
3000
0000
0001
0010
0001
2000
0000
,  // measure 31
3020
0000
0000
0000
0230
0000
0301
2000
,  // measure 32
0000
3002
0000
0203
0000
0000
0300
0000
,  // measure 33
0010
2000
0000
3002
0000
0013
0200
0000
,  // measure 34
0000
1300
0001
1000
0010
0000
0200
0000
,  // measure 35
0301
1000
0000
0020
0000
1030
0002
0000
,  // measure 36
0000
1003
0100
1000
0001
0000
0200
0000
,  // measure 37
0310
1000
0000
0002
0000
0013
0200
0000
,  // measure 38
1300
0002
0000
0203
0000
0302
0000
2003
,  // measure 39
0020
0000
0000
0000
,  // measure 40
0000
0000
0000
3030
0000
0000
0000
0000
,  // measure 41
2000
0000
3002
0000
0023
0000
0130
2000
,  // measure 42
3000
0000
0002
0000
0000
0000
0013
0000
0200
0000
0000
1300
0000
0000
0001
0000
0400
0000
0000
0000
0000
0000
0000
0000
0000
0000
0000
0000
0300
0000
0000
0000
,  // measure 43
0020
0000
1030
0001
0000
1000
0000
0100
,  // measure 44
0000
0010
0000
0002
0000
2003
3000
1100
,  // measure 45
0000
0000
0100
0010
0100
2000
0000
3001
,  // measure 46
0200
0000
0310
1000
0000
0002
0003
0022
,  // measure 47
0033
0000
0001
1000
0010
2000
0000
3001
,  // measure 48
0020
0000
0031
2000
0000
3010
0200
0000
,  // measure 49
0302
0000
0003
2000
,  // measure 50
3020
0000
0130
0002
0000
1003
0200
0000
,  // measure 51
0320
0000
0130
1000
0000
0001
0000
0200
,  // measure 52
0000
0320
0000
1030
0000
0002
0003
0101
,  // measure 53
0000
0000
0100
0010
0100
0002
0000
1003
,  // measure 54
0200
0000
0310
0001
0000
2000
3000
2020
,  // measure 55
3030
0000
0010
0100
0010
2000
0000
3001
,  // measure 56
0020
0000
0130
2000
0000
3001
0200
0000
,  // measure 57
0320
0000
0030
2000
,  // measure 58
3002
0000
0000
0023
0000
0000
0230
0000
0000
0000
0000
0000
0300
0000
0000
0000
,  // measure 59
2000
0000
0000
3002
0000
0000
0203
0000
0000
0000
0310
0000
1000
0000
0002
0000
,  // measure 60
1003
0100
1000
0100
0020
0000
0031
1000
,  // measure 61
0000
0001
0100
0010
0100
0001
2000
0000
,  // measure 62
3001
0010
0001
0010
0200
0000
1300
0001
,  // measure 63
0000
0000
0201
0000
0000
0320
0000
0000
,  // measure 64
1030
0001
1000
0001
0200
0000
0310
1000
,  // measure 65
0000
0001
0010
0100
0010
0001
2000
0000
,  // measure 66
3020
0130
0000
0020
1030
0000
0020
0130
,  // measure 67
0000
0000
0102
0000
0000
2003
0000
0000
,  // measure 68
3001
0010
0100
0010
0002
0000
1003
0020
,  // measure 69
0000
0230
0000
0301
2000
0000
3200
0000
,  // measure 70
0310
0100
1000
0100
0020
0000
0031
2000
,  // measure 71
0000
3002
0000
0103
0020
0000
0030
0000
,  // measure 72
0100
0001
1000
0001
0200
0000
0310
2000
,  // measure 73
0000
3002
0000
0013
0100
1000
0002
0003
,  // measure 74
0022
0000
0000
0000
0000
0000
0000
0033
,  // measure 75
0000
0000
0001
1000
0010
1000
0002
0000
,  // measure 76
0023
0000
0000
0000
0230
0000
1300
0002
,  // measure 77
0000
0000
0003
1000
0010
1000
0002
0000
,  // measure 78
0203
0000
0000
0000
0320
0000
1030
0002
,  // measure 79
0000
0023
0000
0230
0000
0000
0300
0000
,  // measure 80
1000
0002
0000
2003
0000
3010
0200
0000
,  // measure 81
0000
0301
1000
0001
0020
0000
0230
0000
,  // measure 82
1300
0002
0000
0203
0000
0301
2000
0000
,  // measure 83
0000
3001
0100
0010
0200
0000
0302
0000
,  // measure 84
1003
0200
0000
0320
0000
0031
2000
0000
,  // measure 85
3010
0200
0000
0302
0000
2003
0000
3002
,  // measure 86
0200
0000
0000
0000
,  // measure 87
0000
0000
0000
0303
0000
0000
0000
0000
,  // measure 88
0002
0000
2003
0000
3200
0000
0310
0001
,  // measure 89
0000
0000
2000
0000
0000
0000
3001
0000
0020
0000
0000
0032
0000
0000
1003
0000
0400
0000
0000
0000
0000
0000
0000
0000
0000
0000
0000
0000
0300
0000
0000
0000
,  // measure 90
0020
0000
0031
1000
0000
0010
0000
2000
,  // measure 91
0000
3001
0000
0010
0000
0200
0300
1100
,  // measure 92
0000
0000
1000
0001
0100
0002
0000
1003
,  // measure 93
0200
0000
0310
0002
0000
2003
3000
2020
,  // measure 94
3030
0000
0010
0100
0001
0200
0000
0310
,  // measure 95
2000
0000
3001
0020
0000
0130
2000
0000
,  // measure 96
3002
0000
0003
2000
,  // measure 97
3020
0000
0130
0002
0000
1003
0200
0000
,  // measure 98
0320
0000
0130
1000
0000
0001
0000
0200
,  // measure 99
0000
0310
0000
2000
0000
3002
0003
0022
,  // measure 100
0033
0000
0010
0100
0010
0002
0000
1003
,  // measure 101
0020
0000
0130
0002
0000
2003
3000
2200
,  // measure 102
3300
0000
0100
0010
0100
2000
0000
3001
,  // measure 103
0200
0000
0310
2000
0000
3001
0020
0000
,  // measure 104
0230
0000
0300
2000
,  // measure 105
3002
0000
0000
0203
0000
0000
0320
0000
0000
0000
0000
0000
0030
0000
0000
0000
,  // measure 106
2000
0000
0000
3002
0000
0000
0023
0000
0000
0000
0130
0000
1000
0000
0002
0000
,  // measure 107
1003
0010
1000
0010
0200
0000
0301
1000
,  // measure 108
0000
0001
0100
0010
0100
0001
2000
0000
,  // measure 109
3001
0010
0001
0010
0200
0000
1300
0001
,  // measure 110
0000
0000
0201
0000
0000
0320
0000
0000
,  // measure 111
1030
0001
1000
0001
0200
0000
0310
1000
,  // measure 112
0000
0001
0100
0010
0100
0001
2000
0000
,  // measure 113
3002
0013
0000
0002
1003
0000
0002
0103
,  // measure 114
0000
0000
0120
0000
0000
4030
0000
0000
,  // measure 115
3002
0000
0000
0000
0023
0000
0130
2000
,  // measure 116
0000
3002
0000
0000
0000
0003
0000
1000
,  // measure 117
0010
0100
0001
2000
0000
3001
0100
0020
,  // measure 118
0000
0000
0000
0000
0030
1000
0001
0200
,  // measure 119
0000
0000
0000
0000
0302
0000
1003
0010
,  // measure 120
0000
1000
0002
0000
0003
1000
0100
0020
,  // measure 121
0000
0000
0130
1000
0001
0200
0000
0310
,  // measure 122
1000
0001
0010
0100
0000
0010
0001
2000
,  // measure 123
0000
3001
0100
0010
0000
1000
0001
0020
,  // measure 124
0000
0130
1000
0001
0100
0001
2000
0020
,  // measure 125
0000
0000
3000
0430
,  // measure 126
0302
0000
4003
3000
,  // measure 127
0002
0000
0203
0000
0320
0000
1030
0002
,  // measure 128
0003
0000
2000
0000
0000
0000
3100
0000
0020
0000
0000
0031
0000
0000
1000
0000
0040
0000
0000
0000
0000
0000
0000
0000
0000
0000
0000
0000
0030
0000
0000
0000
,  // measure 129
2000
0000
3001
0010
0000
0100
0000
0020
0000
0031
0000
2000
0000
3200
0000
0310
,  // measure 130
0000
0000
0001
0010
0001
0010
0000
0100
2000
0000
3001
0020
0000
0032
0000
2003
,  // measure 131
3000
0000
0010
0100
0010
0200
0000
0301
2000
0000
3001
0020
0000
0031
2000
0000
,  // measure 132
3020
0000
0000
0000
0030
0000
2000
0000
3002
0000
0013
0200
0000
0310
0001
0000
,  // measure 133
2000
0000
3010
0100
0000
0001
0000
2000
,  // measure 134
0000
3200
0000
0320
0000
0031
1000
0020
,  // measure 135
0030
0000
1000
0010
0100
0002
0000
1003
,  // measure 136
0200
0000
0310
0100
0000
2000
3000
2002
,  // measure 137
3003
0000
0001
0100
0010
2000
0000
3001
,  // measure 138
0020
0000
0031
2000
0000
3010
0200
0000
,  // measure 139
0302
0000
0003
2000
,  // measure 140
3020
0000
0000
0230
0000
0000
0302
0000
0000
0000
0000
0000
0003
0000
0000
0000
,  // measure 141
2000
0000
0000
3200
0000
0000
2300
0000
0000
0000
0002
0000
0000
0000
3003
0000
,  // measure 142
0201
0000
0310
1000
0000
0001
0000
0020
,  // measure 143
0000
0130
0000
2000
0000
3002
0003
0202
,  // measure 144
0303
0000
0100
0010
1000
0002
0000
0013
,  // measure 145
0200
0000
1300
0002
0000
0203
0300
0220
,  // measure 146
0330
0000
0010
1000
0001
0020
0000
0130
,  // measure 147
2000
0000
3001
0200
0000
0310
2000
0000
,  // measure 148
0002
0000
3003
2000
,  // measure 149
3200
0000
0310
0002
0000
1003
0020
0030
,  // measure 150
0210
0000
0301
1000
0000
0100
0000
0020
,  // measure 151
0000
0032
0000
2003
0000
3002
0003
0022
,  // measure 152
0000
0033
0010
0100
1000
0002
0000
1003
,  // measure 153
0020
0000
1030
0002
0000
0023
0030
0220
,  // measure 154
0000
0330
0100
1000
0001
0200
0000
0310
,  // measure 155
2000
0000
3001
0020
0000
0031
2000
0000
,  // measure 156
0200
0000
3300
2000
,  // measure 157
3002
0000
0000
0203
0000
0000
0320
0000
0000
0000
0000
0000
0030
0000
0000
0000
,  // measure 158
2000
0000
0000
3002
0000
0000
0023
0000
0000
0000
0130
0000
1000
0000
0002
0000
,  // measure 159
0103
0010
0100
0010
2000
0000
3001
0010
,  // measure 160
0000
0100
1000
0001
0100
0010
0200
0000
,  // measure 161
0301
1000
0001
1000
0200
0000
0310
0001
,  // measure 162
0000
0000
2002
0000
3003
2020
0000
3000
,  // measure 163
0130
0001
1000
0100
0020
0000
0130
1000
,  // measure 164
0000
0001
0100
0010
1000
0001
0200
0000
,  // measure 165
0320
1030
0000
0020
0130
0000
0020
1030
,  // measure 166
0000
0000
0000
0000
2002
0000
0000
0000
3003
0000
0022
0000
0000
0030
0040
0000
,  // measure 167
0033
0000
0000
0000
0220
0000
0000
0000
0330
0000
2200
0000
0000
3000
4000
0000
,  // measure 168
3300
0000
0000
0000
2002
0000
0000
0000
3003
0000
0202
0000
0000
0300
0400
0000
,  // measure 169
0303
2002
0000
0000
,  // measure 170
0000
0000
3003
0000
4000
0400
0000
0000
0000
0000
0000
0000
0000
0000
0000
0000
,  // measure 171
0000
3300
0000
0000
;

//---------------dance-single - AceOfArrows (2018)----------------
#NOTES:
     dance-single:
     AceOfArrows (2018):
     Challenge:
     10:
     0.926,0.497,0.467,1.000,0.395: // measure 1
0000
0000
0000
0000
,  // measure 2
0004
0000
0000
0000
,  // measure 3
0000
0000
0000
0000
0000
0000
0000
0000
0000
0000
1003
0100
0020
0000
0000
0030
,  // measure 4
0012
0000
1003
0010
0100
0000
0002
0000
0000
0000
1003
0000
0100
0000
0010
0000
,  // measure 5
0001
0000
2000
0000
3000
0000
1020
0000
0000
0000
0130
0001
1000
0000
1100
0000
,  // measure 6
0200
0000
0310
0001
1000
0010
0100
0001
,  // measure 7
2001
0000
3100
0010
0001
0000
1000
0000
0010
0000
0100
0000
0001
0000
1000
0000
,  // measure 8
1020
0000
0000
0000
0130
0000
0001
0000
1000
0000
0100
0010
0001
0000
1000
0000
,  // measure 9
0010
0000
0100
0000
0001
0000
2000
0000
0000
0000
3100
0010
0001
0000
0000
0000
,  // measure 10
1002
0000
0000
0000
0103
0000
0010
1000
0001
0000
0010
0000
0100
0000
1000
0000
,  // measure 11
1002
0000
0000
0100
0000
0000
2003
0000
3100
0000
0010
0000
0100
0000
1000
0000
,  // measure 12
1002
0000
0103
0010
1000
0000
0002
0000
0000
0000
0013
0000
0100
0000
1000
0000
,  // measure 13
1002
0103
0010
1000
0002
0000
0013
0110
,  // measure 14
0000
0100
1000
0001
0100
0010
2000
0000
,  // measure 15
3001
0010
0100
1000
0002
0000
1003
0010
,  // measure 16
0000
0000
0220
0000
0330
0202
0000
0303
,  // measure 17
0001
1000
0100
0010
0200
0000
1300
1001
,  // measure 18
0000
0001
0100
0010
1000
0001
0020
0030
,  // measure 19
0210
0000
1300
0000
0000
0000
0002
0003
0101
0000
0000
0000
0200
0300
0110
0000
,  // measure 20
0000
0000
2020
0000
3030
0202
0000
0300
,  // measure 21
1003
0000
0100
0000
0010
0000
0001
1000
0020
0000
0000
0000
0130
0000
0001
0000
,  // measure 22
0000
0000
1001
0000
0000
0000
1000
0100
0010
0100
1000
0000
0001
0000
0100
0000
,  // measure 23
0010
0000
1000
0000
0001
0000
0010
0100
2000
0000
0000
0000
3001
0000
0100
0000
,  // measure 24
0000
0000
0020
0000
0000
0000
1030
0001
0100
0001
1000
0000
0100
0000
0010
0000
,  // measure 25
0001
0000
1000
0000
0010
0000
0100
0001
2000
0000
0000
0000
3001
0000
0011
0000
,  // measure 26
0000
0000
0020
0000
0000
0000
0130
1000
0001
1000
0100
0000
0010
0000
0000
0000
,  // measure 27
0011
0000
0001
0000
1000
0000
0010
0100
0001
0000
1000
0000
0100
0000
0010
0000
,  // measure 28
0001
0000
1000
0000
0001
0000
0100
0010
1000
0000
0001
0000
0010
0000
0100
0000
,  // measure 29
2100
0000
0000
0000
3001
0000
0100
0010
1000
0000
0001
0000
0010
0000
0200
0000
,  // measure 30
0000
0000
1300
0000
1001
0000
0001
0100
0010
0000
1000
0000
0001
0000
0000
0000
,  // measure 31
0021
0000
0000
0000
0130
0000
1000
0001
0100
0000
0010
0000
0100
0000
0101
0000
,  // measure 32
0000
0000
0001
0000
1000
0000
0100
0010
0001
0010
0100
0000
1000
0000
0001
0000
,  // measure 33
0201
0000
0320
0000
0030
0000
1000
0001
0010
0000
0100
0000
1000
0000
0002
0000
,  // measure 34
0000
0000
1003
0000
0010
0000
0100
0001
1000
0000
0100
0000
0110
0000
0000
0000
,  // measure 35
0011
0000
0001
0000
1000
0000
0010
0100
0001
0000
1000
0000
0100
0000
0020
0000
,  // measure 36
0000
0000
0130
0000
1000
0000
0001
0100
0010
0000
1000
0000
1001
0000
0000
0000
,  // measure 37
0021
0000
0130
0000
0000
0000
1000
0001
0100
0000
0010
0000
2000
0000
3001
0000
,  // measure 38
0100
0000
0010
0000
0100
0000
0001
1000
0100
0000
0010
0000
0001
0000
1000
0000
,  // measure 39
0010
0000
0000
0000
0210
0000
0301
1000
0100
0000
0010
0000
0001
0000
1000
0000
,  // measure 40
0000
0000
1200
0000
0000
0000
0310
0001
1000
0000
0010
0000
0200
0000
0300
0000
,  // measure 41
0102
0000
2003
0000
3100
0010
0001
1000
,  // measure 42
0000
0000
0020
0000
0000
0000
0130
0000
0002
0000
0000
2003
0000
0000
3100
0000
0010
0000
0001
0000
1000
0000
0010
0000
1000
0000
0001
0010
0001
0000
0000
0000
,  // measure 43
2001
0000
3010
0100
0001
0000
1000
0000
0100
0000
0010
0000
0001
0000
1000
0000
,  // measure 44
0010
0000
0100
0000
0001
0000
2000
0000
3100
0000
0010
0001
1000
0000
0010
0000
,  // measure 45
0210
0000
0000
0000
0301
0000
1000
0100
0010
0000
0001
0000
1000
0000
0010
0000
,  // measure 46
0210
0000
0301
1000
0100
0000
0020
0000
0000
0000
0130
0000
1000
0000
0001
0000
,  // measure 47
0201
0000
0000
0000
0310
0000
1000
0001
0010
0000
0100
0000
1000
0000
0001
0000
,  // measure 48
0201
0000
0310
1000
0001
0000
0010
0000
0100
0000
1000
0001
0100
0001
1000
0000
,  // measure 49
2200
0000
3000
0000
0320
0000
0031
1000
0010
0000
0100
0000
0001
0000
1000
0000
,  // measure 50
0200
0000
0310
0100
1000
0000
0002
0000
0103
0010
1000
0000
0001
0000
0010
0000
,  // measure 51
0210
0000
1300
0001
0100
0000
0010
0000
0100
0000
0001
0000
1000
0000
0200
0000
,  // measure 52
0310
0001
1000
0020
0130
0001
2000
3100
,  // measure 53
0220
0000
0300
0000
0031
0000
1000
0010
0100
0000
0001
0000
1000
0000
0100
0000
,  // measure 54
0020
0000
0130
1000
0001
0000
2000
0000
0000
0000
3010
0100
0001
0000
1000
0000
,  // measure 55
2200
0000
3000
0000
0310
0000
0001
1000
0010
0000
0100
0000
0001
0000
1000
0000
,  // measure 56
0100
0000
0010
0100
1000
0000
0001
0000
0100
0000
0001
0000
2000
0000
3000
0000
,  // measure 57
2200
0000
3000
0000
0310
0000
0001
1000
0010
0000
0100
0000
0001
0000
1000
0000
,  // measure 58
1200
0000
0000
0010
0000
0000
2300
0000
3001
0000
0100
0010
1000
0000
0001
0000
,  // measure 59
0021
0000
0130
1000
0001
0000
0200
0000
0000
0000
0310
0000
1000
0000
0001
0000
,  // measure 60
0011
0010
0100
1000
0002
0000
0103
0110
,  // measure 61
0000
0000
0010
0000
1000
0000
0001
0000
0010
0000
0100
0000
2000
0000
0000
3000
,  // measure 62
1001
0001
0100
0010
2000
0000
3001
0011
,  // measure 63
0000
0000
2200
0000
3300
0022
0000
0033
,  // measure 64
1001
1000
0010
0100
0002
0000
1003
1100
,  // measure 65
0000
0000
0100
0000
0010
0000
0001
0000
1000
0000
0010
0000
0200
0000
0000
0300
,  // measure 66
0102
0000
1003
0000
0000
0000
0200
0300
0110
0000
0000
0000
0020
0030
0011
0000
,  // measure 67
0000
0000
2002
0000
3003
2020
0000
3030
,  // measure 68
0110
0000
0100
0000
0001
0000
1000
0100
0020
0000
0130
0000
1000
0000
0002
0000
,  // measure 69
0000
0000
0203
0000
0000
0000
0310
1000
0001
1000
0010
0000
0100
0000
0001
0000
,  // measure 70
1001
0000
1000
0000
0100
0000
0010
0001
1000
0000
0010
0000
0100
0000
0002
0000
,  // measure 71
0000
0000
2003
0000
0000
0000
3100
0010
0001
0010
0100
0000
1000
0000
0001
0000
,  // measure 72
0101
0000
0100
0000
0010
0000
1000
0001
0010
0000
0100
0000
1000
0000
0002
0000
,  // measure 73
0000
0000
0103
0000
0010
0000
1000
0001
0010
0001
1000
0000
0010
0000
0100
0000
,  // measure 74
0102
0000
1003
0000
0100
0000
0010
0100
1000
0000
0001
0000
0100
0000
0010
0000
,  // measure 75
1000
0000
0001
0000
0010
0000
0100
1000
0001
0000
0100
0000
0010
0000
1000
0000
,  // measure 76
1001
0000
0001
0000
0020
0000
0130
1000
0001
0000
0100
0000
0010
0000
2000
0000
,  // measure 77
0000
0000
3001
0000
0011
0000
0010
0100
1000
0000
0001
0000
0100
0000
0010
0000
,  // measure 78
1010
0000
1000
0000
0001
0000
0100
0010
1000
0000
0001
0000
1000
0000
0200
0000
,  // measure 79
0000
0000
1300
0000
0001
0000
0100
0001
1000
0001
0100
0000
0010
0000
1000
0000
,  // measure 80
1002
0000
0023
0000
0130
0000
1000
0001
0100
0000
0010
0000
2000
0000
3002
0000
,  // measure 81
0000
0000
0013
0000
0100
0000
1000
0001
0100
0000
0010
0000
1000
0000
0001
0000
,  // measure 82
0010
0000
0100
0000
0010
0000
0001
1000
0020
0000
0130
0000
0001
0000
2000
0000
,  // measure 83
0000
0000
3100
0000
0010
0000
0001
0010
0100
0000
1000
0000
0001
0000
1000
0000
,  // measure 84
1010
0000
0020
0000
0130
0000
0001
1000
0100
0000
0010
0000
0002
0000
0000
0003
,  // measure 85
1001
0000
1000
0000
0010
0000
1000
0001
0010
0001
1000
0000
0100
0000
0010
0000
,  // measure 86
0012
0000
0000
0000
2003
0000
3010
0100
0001
0000
1000
0000
0010
0000
0100
0000
,  // measure 87
0000
0000
0202
0000
0300
0000
1003
0100
0010
0000
0001
0000
1000
0000
0010
0000
,  // measure 88
0210
0000
0301
1000
0100
0010
0100
1000
,  // measure 89
0000
0000
0002
0000
0000
0000
1003
0000
0200
0000
0000
0320
0000
0000
0031
0000
2000
0000
3010
0000
0100
0000
0001
0000
1000
0000
0100
0010
0100
0000
0000
0000
,  // measure 90
2100
0000
3001
0100
0010
0000
1000
0000
0001
0000
0010
0000
0001
0000
1000
0000
,  // measure 91
0010
0100
0001
1000
0100
0010
0001
1000
,  // measure 92
2020
0000
3000
0000
0230
0000
0301
1000
0100
0000
0010
0000
0100
0000
1000
0000
,  // measure 93
1002
0000
0103
0010
1000
0000
0002
0000
0013
0000
0100
0000
1000
0000
0001
0100
,  // measure 94
0020
0000
0000
0000
2030
0000
3001
0010
0100
0000
0010
0000
0001
0000
1000
0000
,  // measure 95
1002
0000
0103
0010
1000
0000
0001
0000
0010
0000
0100
1000
0001
0000
0100
0000
,  // measure 96
0220
0000
0300
0000
1030
0000
0001
1000
0100
0000
0010
0000
0001
0000
1000
0000
,  // measure 97
1020
0000
0130
0001
1000
0000
1200
0000
0310
0001
1000
0000
0010
0000
0100
0000
,  // measure 98
0102
0000
1003
0100
0010
0000
0001
0000
1000
0000
0010
0000
0100
0000
0010
0000
,  // measure 99
1000
0001
0010
0100
1000
0001
0100
0010
,  // measure 100
2020
0000
0030
0000
3002
0000
0013
0100
1000
0000
0001
0000
0100
0000
0010
0000
,  // measure 101
0100
0000
0001
1000
0100
0000
0020
0000
0000
0000
0031
0000
1000
0000
0010
0100
,  // measure 102
0002
0000
1003
0100
0010
0100
1000
0001
,  // measure 103
0100
0000
0010
0000
1000
0000
0001
0010
0100
0000
1000
0000
0001
0000
1000
0000
,  // measure 104
2020
0000
3000
0000
0230
0000
0301
1000
0100
0000
0010
0000
0001
0000
1000
0000
,  // measure 105
1200
0000
0000
0010
0000
0000
2300
0000
3001
0000
0100
0010
1000
0000
0001
0000
,  // measure 106
0021
0000
0130
1000
0001
0000
0200
0000
0000
0000
0310
0000
1000
0000
0001
0000
,  // measure 107
0101
0100
0010
1000
0002
0000
0013
0110
,  // measure 108
0000
0000
0100
0000
1000
0000
0001
0000
0100
0000
0010
0000
2000
0000
0000
3000
,  // measure 109
1001
0001
0010
0100
2000
0000
3001
0101
,  // measure 110
0000
0000
2020
0000
3030
2002
0000
3003
,  // measure 111
0011
0010
0100
1000
0002
0000
0103
0110
,  // measure 112
0000
0000
0010
0000
1000
0000
0001
0000
0010
0000
0100
1000
0002
0000
0000
0003
,  // measure 113
0201
0000
0310
0000
0000
0000
0020
0030
1010
0000
0000
0000
2000
3000
1001
0000
,  // measure 114
0000
0000
0022
0000
0030
4003
0000
0000
,  // measure 115
3020
0000
0000
0000
0000
0000
0000
0000
0000
0000
0000
0000
0000
0000
0000
0130
0002
0000
0000
0000
0000
0000
0000
0000
1003
0000
0000
0010
0200
0000
0000
0000
,  // measure 116
0000
0000
0000
0000
0302
0000
0000
0000
0000
0000
0000
0000
0000
0000
0000
0000
0000
0000
0000
0000
0003
0000
0000
0000
0000
0000
0000
1000
0200
0000
0000
0000
,  // measure 117
0320
0000
0000
0000
0230
0000
0000
0000
2300
0000
0000
3001
0020
0000
0000
0000
0000
0000
0000
0000
0031
0000
1000
0000
0002
0000
0000
1003
0200
0000
0000
0000
,  // measure 118
0000
0000
0000
0000
0000
0000
0000
0000
0000
0000
0000
0000
0000
0000
0000
0000
0300
0000
0000
0000
0010
0000
0000
0000
0002
0000
0000
1003
0020
0000
0000
0000
,  // measure 119
0000
0000
0000
0000
0000
0000
0000
0000
0000
0000
0000
0000
0000
0000
0000
0130
0002
0000
0000
0000
0000
0000
0000
0000
2003
0000
0000
0000
3010
0000
0000
0000
,  // measure 120
0000
0000
0000
0000
0100
0000
0000
0001
2000
0000
0000
0000
0000
0000
0000
0000
3000
0000
0000
0000
0100
0000
0000
0000
1000
0000
0000
0001
0020
0000
0000
0000
,  // measure 121
0000
0000
0000
0000
0000
0000
0000
0000
0130
0000
0000
0000
1000
0000
0000
0000
0001
0000
0000
1000
0200
0000
0000
0000
0000
0000
0000
0000
0310
0000
0000
0000
,  // measure 122
0002
0000
0000
0000
2003
0000
0000
3010
0200
0000
0000
0000
0302
0000
0000
0000
0000
0000
0003
0000
1000
0000
0000
0000
0100
0000
0000
0010
0002
0000
0000
0000
,  // measure 123
0000
0000
0000
0000
1003
0000
0000
0010
0200
0000
0000
0000
0301
0000
0000
0000
0000
0000
0000
0000
1000
0000
0000
0001
0020
0000
0000
0000
0230
0000
0000
0000
,  // measure 124
0000
1300
0002
0103
0020
2030
3002
0023
,  // measure 125
0000
0000
0000
0000
0000
0000
0000
0000
0000
0000
0000
0000
0000
0000
0000
0000
0000
0000
0031
1000
0100
0020
0000
0000
,  // measure 126
0000
0000
0000
0000
0000
0000
0000
0000
0000
0000
0000
0000
0130
1000
0001
0200
0000
0000
0000
0000
0000
0000
0000
0000
,  // measure 127
0320
0000
2030
0000
3002
0000
0013
0200
,  // measure 128
0300
0000
2000
0000
0000
0000
3001
0000
0200
0000
0000
0320
0000
0000
1030
0000
0002
0000
0013
0000
0100
0000
0020
0000
0031
0000
1000
0100
0020
0000
0000
0000
,  // measure 129
0230
0000
1300
0001
0000
0100
0000
0020
0000
2030
0000
3002
0000
0023
0000
0230
,  // measure 130
0300
0000
1000
0001
0100
0020
0000
1030
0002
0000
0013
0100
0000
2000
0000
3002
,  // measure 131
0003
0000
0100
0010
1000
0002
0000
0013
0200
0000
1300
0002
0000
0103
0020
0000
,  // measure 132
2030
0000
0000
0000
0000
0000
0000
0000
3000
0000
0000
0000
0002
0000
0000
0000
2003
0000
3100
0010
0001
0000
2000
0000
3001
0010
0100
0000
2000
0000
3000
0000
,  // measure 133
1002
0000
0103
0010
1000
0000
0001
0000
0100
0000
0010
0000
1000
0000
0010
0000
,  // measure 134
0100
0001
1000
0200
0000
0310
0100
1000
,  // measure 135
1002
0000
0000
0000
0103
0000
0010
0100
0001
0000
1000
0000
0100
0000
0010
0000
,  // measure 136
0001
0000
1000
0010
0100
0000
0002
0000
0000
0000
1003
0000
0100
0000
0010
0000
,  // measure 137
0022
0000
0030
0000
1003
0000
0010
0100
0001
0000
1000
0000
0001
0000
0010
0000
,  // measure 138
0100
0000
1000
0000
0001
0000
0100
0010
1000
0000
0001
0000
0010
0000
0100
0000
,  // measure 139
2100
0000
3001
0000
0100
0000
0010
1000
0001
0000
0010
0000
0100
0000
0010
0000
,  // measure 140
0012
0000
0000
1000
0000
0000
0203
0000
0310
0000
1000
0001
0010
0000
0100
0000
,  // measure 141
1000
0000
0100
0010
0001
0000
2000
0000
0000
3010
0100
0001
0100
0010
1000
0001
,  // measure 142
0020
0000
0130
2000
0000
3002
0000
0023
,  // measure 143
0000
0032
0000
2003
0000
0200
0000
0010
,  // measure 144
0000
3300
1000
0001
0100
0020
0000
0130
,  // measure 145
0002
0000
1003
0002
0000
0200
0000
0010
,  // measure 146
0000
0000
0303
0000
0001
0000
1000
0100
0010
0000
0001
0000
1000
0000
0010
0000
,  // measure 147
0100
0000
0001
0000
1000
0000
0100
0010
0001
0010
0100
0000
1000
0000
0001
1000
,  // measure 148
0002
0000
1003
0000
0010
0000
0100
0001
1000
0001
0100
0000
0020
0000
1030
0001
,  // measure 149
0200
0000
0310
1000
0001
0000
0020
0000
0130
1000
0001
0000
0100
0000
0000
0000
,  // measure 150
0120
0000
1030
0002
0000
0023
0000
0230
,  // measure 151
0000
2300
0000
3002
0000
0200
0000
1000
,  // measure 152
0000
0303
0001
1000
0100
0020
0000
0130
,  // measure 153
2000
0000
3001
2000
0000
0200
0000
0001
,  // measure 154
0000
0000
3300
0000
1000
0000
0001
0100
0010
0000
1000
0000
0001
0000
0010
0000
,  // measure 155
0100
0000
1000
0100
0010
0000
0001
0000
1000
0000
0010
0000
0100
0000
0001
1000
,  // measure 156
0200
0000
0310
0000
0100
0000
1000
0001
0100
0000
0010
0000
0100
0000
0001
0000
,  // measure 157
2001
0000
0000
0100
0000
0000
3002
0000
0103
0000
0010
1000
0001
0000
0010
0000
,  // measure 158
0210
0000
1300
0001
0100
0000
0020
0000
0000
0000
1030
0000
0001
0000
0010
0000
,  // measure 159
0110
0100
1000
0001
0200
0000
0310
1010
,  // measure 160
0000
0000
1000
0000
0001
0000
0010
0000
0100
0000
1000
0000
0002
0000
0000
0003
,  // measure 161
1001
1000
0010
0100
0002
0000
1003
1100
,  // measure 162
0000
0000
0000
1000
0100
0010
0002
0000
0000
0000
0000
0000
0003
0000
0000
2002
0000
0000
0000
0000
0000
3003
0000
0000
,  // measure 163
1010
0010
0100
0001
2000
0000
3100
0110
,  // measure 164
0000
0000
0010
0000
0001
0000
1000
0000
0010
0000
0100
0000
0002
0000
0000
0003
,  // measure 165
2001
0000
3100
0000
0000
0000
0200
0300
0110
0000
0000
0000
0020
0030
0011
0000
,  // measure 166
0000
0000
0000
0000
0000
0000
2002
0000
0000
0000
0000
0000
3003
0000
0000
0202
0000
0000
0300
0000
0000
1003
0100
0010
,  // measure 167
0001
0000
0000
0000
0000
0000
2002
0000
0000
0000
0000
0000
3003
0000
0000
0022
0000
0000
0003
0000
0000
0031
0010
0100
,  // measure 168
1000
0000
0000
0000
0000
0000
2002
0000
0000
0000
0000
0000
3003
0000
0000
2020
0000
0000
3000
0000
0000
0130
0001
1000
,  // measure 169
0010
0202
0000
0000
,  // measure 170
0000
0000
0000
0300
0000
0000
4003
0400
0000
0000
0000
0000
0000
0000
0000
0000
0000
0000
0000
0000
0000
0000
0000
0000
,  // measure 171
0000
3300
0000
0000
;

//---------------dance-single - AceOfArrows (2018)----------------
#NOTES:
     dance-single:
     AceOfArrows (2018):
     Medium:
     6:
     0.501,0.199,0.004,1.000,0.035:
0000
0000
0000
0000
,
0004
0000
0000
0000
,
0003
0000
0000
0000
,
2000
0000
3001
0010
0000
0001
0000
1000
,
0000
0001
0000
0100
0000
0020
0000
1030
,
0000
0000
0001
0010
0002
0000
0000
0000
,
2003
0000
3010
0100
0000
0002
0000
2003
,
0000
3000
0100
0010
0200
0000
0000
0000
,
2300
0000
3001
0020
0000
0031
0020
0000
,
0230
0000
0300
2000
,
3002
0000
0013
0200
0000
0000
0300
0000
,
1000
0001
0000
0200
0000
0301
1000
0002
,
0000
0000
0000
0000
,
0003
0000
1000
0100
2000
0000
3002
0000
,
1003
0010
2000
0000
3002
0000
0013
0100
,
0000
0000
2000
0000
0000
3002
0000
0000
,
0013
0100
0020
0000
0032
0000
1003
0010
,
0000
1000
0001
0000
0020
0000
0230
0000
,
1300
0001
0000
1000
0001
0000
1000
0001
,
0000
0000
0200
0000
0000
0320
0000
0000
,
1030
0000
0001
0010
0002
0000
0000
1003
,
0000
0010
0000
1000
0002
0000
0203
0000
,
0310
0000
1000
0001
2000
0000
0000
3100
,
0000
0010
0000
0001
4000
0000
0000
0000
,
3010
0000
1000
0001
2000
0000
0000
3100
,
0000
0010
0000
0001
1000
0000
0100
0000
,
0020
0000
0000
0000
0000
0000
0000
0030
,
0000
0000
0001
1000
0001
0000
0100
0000
,
0020
0000
0000
0000
2030
0000
3001
0200
,
0000
0300
0000
0010
1000
0000
0002
0000
,
0023
0000
0000
0000
0032
0000
1003
0010
,
0000
1000
0000
0002
0000
0000
0003
0000
,
1000
0200
0000
0310
0000
0100
2000
0000
,
0000
0000
3000
0000
,
0001
0200
0000
0320
0000
1030
0002
0000
,
0000
0000
0003
0000
,
1000
0020
0000
0230
0000
0310
2000
0000
,
3001
0020
0000
0032
0000
2003
0000
3001
,
0020
0000
0000
0000
,
0000
0000
0000
0030
0000
0000
0000
0000
,
0002
0000
2003
0000
3020
0000
0130
0001
,
0000
1000
0000
0000
1000
0000
0000
4000
0000
0000
0000
0000
0000
0000
3000
0000
,
0020
0000
1030
0001
0000
1000
0000
0100
,
0000
1000
0000
0001
0000
2000
0000
3010
,
0000
0000
0100
0010
0200
0000
0000
0000
,
0302
0000
1003
0100
0000
0010
0000
0002
,
0000
0003
1000
0100
2000
0000
0000
0000
,
3002
0000
0013
0100
0000
0010
0200
0000
,
2300
0000
3000
0001
,
0020
0000
0031
2000
0000
3001
1000
0000
,
0020
0000
1030
0001
0000
0010
0000
0100
,
0000
1000
0000
0100
0000
0020
0000
0031
,
0000
0000
1000
0010
2000
0000
0000
0000
,
3002
0000
0013
0100
0000
1000
0000
0002
,
0000
0003
0010
0001
0020
0000
0000
0000
,
0230
0000
1300
0001
0000
1000
0002
0000
,
0203
0000
0300
0020
,
2030
0000
3001
0200
0000
0000
0300
0000
,
0001
2000
0000
3200
0000
1300
0001
2000
,
0000
0000
0000
0000
0000
0000
0000
3000
,
0000
0000
0001
0010
0001
0000
2000
0000
,
3001
0100
0001
0000
2000
0000
3001
0010
,
0000
0000
0200
0000
0000
2300
0000
0000
,
3001
0100
0001
0000
2000
0000
3001
0010
,
0000
0000
0100
1000
0100
0000
0020
0000
,
0130
1000
0000
0100
1000
0000
0100
1000
,
0000
0000
0002
0000
0000
2003
0000
0000
,
3001
0000
0100
0000
0010
0000
0100
0001
,
0000
2000
0000
3001
0020
0000
0032
0000
,
1003
0000
0010
0000
0100
0000
0010
1000
,
0000
0002
0000
0013
0200
0000
0300
0000
,
1000
0000
0001
0000
0100
0000
0001
1000
,
0000
0001
0000
0010
0200
0000
1300
0000
,
0002
0000
0000
0000
0000
0000
0000
0003
,
0000
0000
1000
0010
1000
0000
0001
0000
,
0020
0000
0000
0000
0032
0000
1003
0200
,
0000
0000
0300
1000
0001
0000
0100
0000
,
0020
0000
0000
0000
2030
0000
3001
0010
,
0000
0001
0000
2000
0000
0000
3000
0000
,
0001
0020
0000
0032
0000
1003
0200
0000
,
0000
0000
0300
0000
,
1000
0002
0000
0203
0000
0310
2000
0000
,
0000
0000
3000
0000
,
0001
0020
0000
0230
0000
0310
0002
0000
,
1003
0020
0000
2030
0000
3002
0000
0103
,
0020
0000
0000
0000
,
0000
0000
0000
0030
0000
0000
0000
0000
,
2000
0000
3002
0000
2003
0000
3100
0010
,
0000
0001
0000
0000
0001
0000
0000
0004
0000
0000
0000
0000
0000
0000
0003
0000
,
2000
0000
3010
0100
0000
0001
0000
1000
,
0000
0100
0000
0010
0000
0002
0000
2003
,
0000
3000
0001
0100
0002
0000
0000
0000
,
2003
0000
3100
0010
0000
0001
0000
2000
,
0000
3000
0010
0100
0020
0000
0000
0000
,
2030
0000
3001
0020
0000
0031
0020
0000
,
0230
0000
0300
2000
,
3002
0000
1003
0020
0000
1030
0020
0000
,
0230
0000
0301
1000
0000
0010
0000
0100
,
0000
0001
0000
0100
0000
0020
0000
2030
,
0000
3000
0001
0010
0002
0000
0000
0000
,
2003
0000
3100
0010
0000
0100
0000
2000
,
0000
0000
3001
1000
0002
0000
0000
0000
,
0023
0000
0130
2000
0000
3001
0200
0000
,
0302
0000
0003
2000
,
3020
0000
0130
0002
0000
0000
0003
0000
,
1000
0200
0000
0320
0000
0130
1000
0200
,
0000
0000
0000
0300
,
0000
0000
0010
0001
0020
0000
0230
0000
,
1300
0001
2000
0000
3020
0000
0130
0001
,
0000
0000
2000
0000
0000
3200
0000
0000
,
0310
0001
0020
0000
0230
0000
1300
0002
,
0000
0000
1003
0010
2000
0000
3002
0000
,
0013
0100
0000
0010
0100
0000
0010
0100
,
0000
0000
2000
0000
0000
3004
0000
0000
,
0023
0000
0000
0000
0230
0000
1300
0002
,
0000
0203
0000
0000
0300
0000
0000
0001
,
2000
0000
3010
0200
0000
0301
1000
0002
,
0000
0000
0000
0000
0003
1000
0100
2000
,
0000
0000
0000
0000
3002
0000
1003
0010
,
0000
1000
0002
0000
0003
0010
0100
0020
,
0000
0000
0032
0000
1003
0200
0000
1300
,
0200
0000
1300
0001
0000
1000
0010
2000
,
0000
0000
3001
0010
0000
0001
1000
0002
,
0000
1003
0020
0000
2030
0000
3001
0200
,
0000
0000
0000
0000
,
0020
0000
0330
0000
,
0200
0000
0302
0000
2003
0000
3001
0010
,
0000
0100
0000
0000
0100
0000
0000
0400
0000
0000
0000
0000
0300
0000
0000
0000
,
2000
0000
0000
3001
0000
1000
0000
0100
0000
1000
0000
0100
0000
2000
0000
3002
,
0000
0003
0010
0000
0001
0000
0000
0000
2000
0000
0000
3010
0000
0100
0000
0020
,
0000
0000
1030
0000
0001
0000
0000
0000
2000
0000
0000
3200
0000
0000
0310
0000
,
0002
0000
0000
0000
0003
0000
2000
0000
3020
0000
0000
0230
0000
0000
0301
0000
,
2000
0000
3001
0010
0000
0001
0000
1000
,
0000
0001
0000
0100
0000
0010
0100
0020
,
0000
0030
1000
0001
2000
0000
0000
0000
,
3002
0000
0013
0200
0000
2300
0000
3002
,
0000
0003
1000
0001
2000
0000
0000
0000
,
3020
0000
0130
0002
0000
0103
0002
0000
,
2003
0000
3000
0002
,
0023
0000
0130
2000
0000
0000
3000
0000
,
0001
2000
0000
3002
0000
0023
0000
0000
,
0230
0000
1300
0001
0000
1000
0000
0020
,
0000
1030
0000
0002
0000
0023
0000
0230
,
0000
0300
1000
0100
2000
0000
0000
3001
,
0200
0000
0301
0200
0000
0320
0000
2030
,
0000
3000
0001
0010
0002
0000
0000
1003
,
0200
0000
1300
0200
0000
1300
0200
0000
,
0320
0000
0030
0002
,
2003
0000
3010
0200
0000
0310
0200
0000
,
0302
0000
1003
0100
0000
0010
0000
0200
,
0000
2300
0000
3002
0000
2003
0000
3020
,
0000
0030
1000
0001
2000
0000
0000
3010
,
0200
0000
0310
0200
0000
0302
0000
2003
,
0000
3000
0100
0010
0200
0000
0000
1300
,
0002
0000
1003
0002
0000
0013
0200
0000
,
2300
0000
3000
0002
,
2003
0000
3010
0200
0000
0000
0300
0000
,
0002
0000
1003
0200
0000
1300
0001
2000
,
0000
0000
0000
3000
,
0000
0000
0001
0100
0002
0000
2003
0000
,
3010
0100
0020
0000
2030
0000
3001
0010
,
0000
0000
0200
0000
0000
2300
0000
0000
,
3001
0100
0001
0000
2000
0000
3001
0100
,
0000
0000
0001
1000
0002
0000
0023
0000
,
0130
1000
0000
0100
1000
0000
0100
1000
,
0000
0000
0002
0000
0000
0203
0000
0000
,
0300
0000
0002
0000
0000
2003
0000
0000
,
3000
0000
0200
0000
0000
2300
0000
0000
,
3000
2002
0000
0000
,
0000
3003
0004
0000
0000
0000
0000
0000
,
0000
0003
0000
0000
;

//---------------dance-single - AceOfArrows (2018)----------------
#NOTES:
     dance-single:
     AceOfArrows (2018):
     Easy:
     4:
     0.309,0.099,0.000,0.521,0.000:
0000
0000
0000
0000
,
0004
0000
0000
0000
,
0003
0000
0000
0000
,
1000
0000
0000
1000
0000
0000
0000
0001
,
0000
0001
0000
0001
0000
0000
0000
0100
,
0000
0001
0001
0000
,
2000
0000
0000
3100
0000
0100
0000
0100
,
0000
0010
0010
0000
,
0002
0000
0000
1003
0000
0000
1000
0000
,
2000
0000
3000
0010
,
0010
0000
0000
2000
0000
0000
3000
0000
,
0002
0000
0000
0103
0000
0100
0000
0200
,
0000
0000
0000
0300
,
0000
0010
0010
0000
,
0100
0000
0100
0000
0200
0000
0000
0301
,
0000
0000
1000
0000
0000
2000
0000
0000
,
3001
0000
0001
0000
0002
0000
0000
0013
,
0000
0100
0100
0000
,
1000
0000
0000
1000
0000
0000
1000
0000
,
0000
0000
0002
0000
0000
2003
0000
0000
,
3010
0000
0010
0000
0020
0000
0000
0130
,
0000
0100
0000
0000
0002
0000
0003
0000
,
1000
0000
1000
0000
2000
0000
0000
3100
,
0000
0100
0000
0000
0100
0000
0000
0000
,
0010
0000
0010
0000
0020
0000
0000
0031
,
0000
0001
0000
0000
1000
0000
1000
0000
,
2000
0000
0000
0000
0000
0000
0000
3000
,
0000
0010
0010
0000
,
0200
0000
0000
0000
0301
0000
0000
0002
,
0000
0003
0000
0000
1000
0000
1000
0000
,
2000
0000
0000
0000
3002
0000
0000
0103
,
0000
0100
0000
0200
0000
0300
0000
0000
,
0010
0000
0000
0010
0000
0000
0020
0000
,
0000
0000
0030
0000
,
1000
0000
0000
1000
0000
0000
2000
0000
,
0000
0000
3000
0000
,
0001
0000
0000
0002
0000
0000
0003
0000
,
0010
0000
0000
0010
0000
0000
0000
0000
,
0020
0000
0000
0000
,
0000
0000
0000
0030
0000
0000
0000
0000
,
0001
0000
0001
0000
0002
0000
0000
1003
,
0000
0010
0010
0010
0000
0000
0000
0000
,
2000
0000
0000
3001
0000
0000
0000
0010
,
0000
0010
0000
0020
0000
0000
0000
0130
,
0000
1000
1000
0000
,
0002
0000
0000
0103
0000
0100
0000
0100
,
0000
0010
0010
0000
,
2000
0000
0000
3001
0000
0000
0001
0000
,
0002
0000
0003
0010
,
0020
0000
0000
0130
0000
0000
0100
0000
,
2000
0000
0000
3001
0000
0000
0000
0100
,
0000
0100
0000
0200
0000
0000
0000
0301
,
0000
1000
1000
0000
,
0200
0000
0000
0310
0000
0010
0000
0010
,
0000
0001
0001
0000
,
2000
0000
0000
3010
0000
0000
0010
0000
,
0020
0000
0030
0100
,
0100
0000
0000
0200
0000
0000
0300
0000
,
0002
0000
0000
1003
0000
1000
0000
2000
,
0000
0000
0000
0000
0000
0000
0000
3000
,
0000
0001
0001
0000
,
0010
0000
0010
0000
0020
0000
0000
0031
,
0000
0000
2000
0000
0000
3020
0000
0000
,
0130
0000
0100
0000
0200
0000
0000
0301
,
0000
1000
1000
0000
,
0001
0000
0000
0001
0000
0000
0001
0000
,
0000
0000
0020
0000
0000
0230
0000
0000
,
1300
0000
1000
0000
2000
0000
0000
3001
,
0000
0001
0000
0000
0002
0000
0003
0000
,
0100
0000
0100
0000
0200
0000
0000
0310
,
0000
0010
0000
0000
0010
0000
0000
0000
,
1000
0000
1000
0000
2000
0000
0000
3001
,
0000
0001
0000
0000
0010
0000
0010
0000
,
0020
0000
0000
0000
0000
0000
0000
0030
,
0000
0001
0001
0000
,
2000
0000
0000
0000
3010
0000
0000
0020
,
0000
0030
0100
0100
,
0200
0000
0000
0000
0302
0000
0000
1003
,
0000
1000
0000
2000
0000
0000
3000
0000
,
0001
0000
0000
0001
0000
0000
0002
0000
,
0000
0000
0003
0000
,
0100
0000
0000
0100
0000
0000
0200
0000
,
0000
0000
0300
0000
,
0010
0000
0000
0020
0000
0000
0030
0000
,
1000
0000
0000
1000
0000
1000
0000
0000
,
2000
0000
0000
0000
,
0000
0000
0000
3000
0000
0000
0000
0000
,
0001
0000
0001
0000
0002
0000
0000
0013
,
0000
0100
0100
0100
0000
0000
0000
0000
,
0020
0000
0000
0031
0000
0000
0000
1000
,
0000
1000
0000
2000
0000
0000
0000
3010
,
0000
0100
0100
0000
,
0002
0000
0000
1003
0000
1000
0000
2000
,
0000
3000
0001
0000
0002
0000
0003
0000
,
0100
0000
0000
0100
0000
0000
0100
0000
,
0200
0000
0300
0010
,
0020
0000
0000
1030
0000
0000
1000
0000
,
2000
0000
0000
3100
0000
0000
0000
0010
,
0000
0010
0000
0020
0000
0000
0000
0031
,
0000
1000
1000
0000
,
0020
0000
0000
0130
0000
0100
0000
0200
,
0000
0300
0001
0000
0001
0000
0000
0000
,
2000
0000
0000
3100
0000
0000
0100
0000
,
0200
0000
0300
1000
,
1000
0000
0000
2000
0000
0000
3000
0000
,
0001
0000
0000
0100
0000
0100
0000
0200
,
0000
0000
0000
0300
,
0000
0001
0001
0000
,
1000
0000
1000
0000
2000
0000
0000
3100
,
0000
0000
0020
0000
0000
0032
0000
0000
,
1003
0000
1000
0000
2000
0000
0000
3010
,
0000
0100
0100
0000
,
0001
0000
0000
0001
0000
0000
0001
0000
,
0000
0000
2000
0000
0000
3004
0000
0000
,
0023
0000
0000
0000
0032
0000
0000
1003
,
0000
2000
0000
0000
3000
0000
0000
0000
,
0100
0000
0000
0200
0000
0000
0000
0320
,
0000
0000
0000
0000
0030
0000
0000
0002
,
0000
0000
0000
0000
2003
0000
0000
3100
,
0000
0000
0200
0000
0300
0000
0000
2000
,
0000
3001
0002
0000
,
0103
0000
0000
0100
0000
0000
0000
0010
,
0000
0010
0000
0010
0000
0000
0000
2000
,
0000
0000
3001
0000
0001
0000
0000
2000
,
0000
0000
0000
0000
,
0020
0000
3030
0000
,
1000
0000
1000
0000
2000
0000
0000
3100
,
0000
0010
0010
0010
0000
0000
0000
0000
,
0001
0000
1000
1000
1000
0000
0010
0010
,
0010
0000
0100
0000
0002
0000
1003
1000
,
1000
0000
0100
0000
0020
0000
0031
0001
,
0002
0003
2000
3000
,
0020
0000
0000
1030
0000
0000
0000
0002
,
0000
0000
0000
0013
0000
0010
0000
0010
,
0000
0100
0100
0000
,
2000
0000
0000
3001
0000
0001
0000
0002
,
0000
0003
1000
0000
1000
0000
0000
0000
,
0020
0000
0000
0130
0000
0000
0100
0000
,
0200
0000
0300
0001
,
0001
0000
0000
0002
0000
0000
0003
0000
,
1000
0000
0000
2000
0000
0000
3000
0000
,
0002
0000
0000
0103
0000
0000
0000
0010
,
0000
0010
0000
0020
0000
0000
0000
1030
,
0000
0001
0001
0000
,
0020
0000
0000
0130
0000
0100
0000
0200
,
0000
0300
1000
0000
1000
0000
0000
0000
,
0002
0000
0000
0103
0000
0000
0100
0000
,
0200
0000
0300
0010
,
0020
0000
0000
1030
0000
0000
1000
0000
,
0002
0000
0000
0013
0000
0000
0000
0100
,
0000
0100
0000
0200
0000
0000
0000
1300
,
0000
0001
0001
0000
,
2000
0000
0000
3010
0000
0010
0000
0020
,
0000
0030
1000
0000
1000
0000
0000
0000
,
0002
0000
0000
0013
0000
0000
0010
0000
,
0020
0000
0030
0100
,
0100
0000
0000
0200
0000
0000
0300
0000
,
1000
0000
0000
1000
0000
1000
0000
2000
,
0000
0000
0000
3000
,
0000
0001
0001
0000
,
0100
0000
0100
0000
0200
0000
0000
0301
,
0000
0000
2000
0000
0000
3002
0000
0000
,
0013
0000
0010
0000
0020
0000
0000
0130
,
0000
1000
1000
2000
,
3001
0000
0000
0001
0000
0000
0001
0000
,
0000
0000
2000
0000
0000
3020
0000
0000
,
0030
0000
2000
0000
0000
3002
0000
0000
,
0003
0000
2000
0000
0000
3020
0000
0000
,
0030
0200
0000
0000
,
0000
0304
0000
0000
,
0000
0003
0000
0000
;

//---------------dance-single - AceOfArrows (2018)----------------
#NOTES:
     dance-single:
     AceOfArrows (2018):
     Beginner:
     2:
     0.163,0.066,0.000,0.292,0.000:
0000
0000
0000
0000
,
0004
0000
0000
0000
,
0003
0000
0000
0000
,
2000
0000
3000
0000
,
0010
0000
0010
0000
,
0010
0000
0000
0000
,
0100
0000
0100
0000
,
0100
0000
0000
0000
,
0001
0000
0001
0000
,
0002
0000
0003
0000
,
2000
0000
3000
0000
,
0100
0000
0100
0000
,
0200
0000
0000
0000
,
0300
0000
0000
0000
,
0010
0000
0010
0000
,
0020
0000
0030
0000
,
0001
0000
0001
0000
,
0002
0000
0003
0000
,
2000
0000
0000
0000
,
0000
3000
0000
0000
,
0010
0000
0010
0000
,
0020
0000
0030
0000
,
1000
0000
1000
0000
,
2000
0000
3000
0000
,
0001
0000
0001
0000
,
0002
0000
0003
0000
,
0020
0000
0000
0000
,
0030
0000
0000
0000
,
0100
0000
0100
0000
,
0100
0000
0000
0000
,
1000
0000
1000
0000
,
2000
0000
3000
0000
,
0001
0000
0002
0000
,
0000
0000
0003
0000
,
1000
0000
2000
0000
,
0000
0000
3000
0000
,
0001
0000
0001
0000
,
0002
0000
0003
0000
,
0020
0000
0000
0000
,
0000
0030
0000
0000
,
0100
0000
0100
0000
,
0200
0300
0000
0000
,
2000
0000
3000
0000
,
0001
0000
0001
0000
,
0001
0000
0000
0000
,
0100
0000
0100
0000
,
0100
0000
0000
0000
,
0001
0000
0001
0000
,
0002
0000
0003
0000
,
2000
0000
3000
0000
,
0020
0000
0030
0000
,
0100
0000
0100
0000
,
0100
0000
0000
0000
,
0001
0000
0001
0000
,
0001
0000
0000
0000
,
1000
0000
1000
0000
,
2000
0000
3000
0000
,
0002
0000
0003
0000
,
0100
0000
0100
0000
,
0200
0000
0000
0000
,
0300
0000
0000
0000
,
0010
0000
0010
0000
,
0020
0000
0030
0000
,
1000
0000
1000
0000
,
2000
0000
3000
0000
,
0002
0000
0000
0000
,
0000
0003
0000
0000
,
0010
0000
0010
0000
,
0020
0000
0030
0000
,
0100
0000
0100
0000
,
0200
0000
0300
0000
,
1000
0000
1000
0000
,
2000
0000
3000
0000
,
0002
0000
0000
0000
,
0003
0000
0000
0000
,
0100
0000
0100
0000
,
0100
0000
0000
0000
,
0001
0000
0001
0000
,
0002
0000
0003
0000
,
1000
0000
2000
0000
,
0000
0000
3000
0000
,
0100
0000
0200
0000
,
0000
0000
0300
0000
,
0020
0000
0030
0000
,
0001
0000
0001
0000
,
0002
0000
0000
0000
,
0000
0003
0000
0000
,
1000
0000
1000
0000
,
2000
3000
0000
0000
,
0020
0000
0030
0000
,
0100
0000
0100
0000
,
0100
0000
0000
0000
,
0001
0000
0001
0000
,
0001
0000
0000
0000
,
1000
0000
1000
0000
,
2000
0000
3000
0000
,
0020
0000
0030
0000
,
2000
0000
3000
0000
,
0001
0000
0001
0000
,
0001
0000
0000
0000
,
0010
0000
0010
0000
,
0010
0000
0000
0000
,
0100
0000
0100
0000
,
0200
0000
0300
0000
,
2000
0000
3000
0000
,
0100
0000
0100
0000
,
0200
0000
0000
0000
,
0300
0000
0000
0000
,
0010
0000
0010
0000
,
0020
0000
0030
0000
,
0001
0000
0001
0000
,
0002
0000
0003
0000
,
2000
0000
0000
0000
,
0000
3000
0000
0000
,
0001
0000
0001
0000
,
0002
0003
0000
0000
,
0100
0000
0100
0000
,
0200
0000
0300
0000
,
0010
0000
0010
0000
,
0020
0030
0000
0000
,
1000
0000
1000
0000
,
2000
0000
3000
0000
,
0002
0000
0003
0000
,
0010
0000
0010
0000
,
0020
0000
0000
0000
,
0000
0000
0030
0000
,
0001
0000
0001
0000
,
0002
0003
0000
0000
,
2000
3000
0010
0010
,
0010
0000
0100
0100
,
0100
0000
0001
0001
,
0002
0003
2000
3000
,
0020
0000
0030
0000
,
0100
0000
0100
0000
,
0100
0000
0000
0000
,
0001
0000
0001
0000
,
0001
0000
0000
0000
,
1000
0000
1000
0000
,
2000
0000
3000
0000
,
0200
0000
0300
0000
,
0020
0000
0030
0000
,
0002
0000
0003
0000
,
1000
0000
1000
0000
,
1000
0000
0000
0000
,
0010
0000
0010
0000
,
0010
0000
0000
0000
,
0100
0000
0100
0000
,
0200
0000
0300
0000
,
0002
0000
0003
0000
,
2000
0000
3000
0000
,
0100
0000
0100
0000
,
0100
0000
0000
0000
,
1000
0000
1000
0000
,
1000
0000
0000
0000
,
0001
0000
0001
0000
,
0002
0000
0003
0000
,
2000
0000
3000
0000
,
0100
0000
0100
0000
,
0200
0000
0000
0000
,
0300
0000
0000
0000
,
0010
0000
0010
0000
,
0020
0000
0030
0000
,
0001
0000
0001
0000
,
0002
0000
0003
0000
,
2000
0000
0000
3000
,
0000
0002
0000
0003
,
0000
2000
0000
3000
,
0000
0020
0000
0030
,
0000
0200
0000
0000
,
0300
0400
0000
0000
,
0000
0300
0000
0000
;
