#TITLE:Groovin' Magic;
#SUBTITLE:;
#ARTIST:Round Table feat. Nino;
#TITLETRANSLIT:;
#SUBTITLETRANSLIT:;
#ARTISTTRANSLIT:;
#GENRE:;
#CREDIT:Ace Of Arrows;
#BANNER:Groovin' Banner.png;
#BACKGROUND:Groovin' Background.jpg;
#LYRICSPATH:;
#CDTITLE:Ace Of Arrows.png;
#MUSIC:Groovin' Magic.ogg;
#OFFSET:0.780;
#SAMPLESTART:63.700;
#SAMPLELENGTH:12.000;
#SELECTABLE:YES;
#BPMS:0.000=130.000,367.000=65.000,383.000=130.000;
#STOPS:;
#BGCHANGES:;
#KEYSOUNDS:;

//---------------dance-single - AceOfArrows (2017)----------------
#NOTES:
     dance-single:
     AceOfArrows (2017):
     Hard:
     7:
     0.506,0.367,0.080,0.870,0.031: // measure 1
0000
0000
0000
0000
0000
0000
0000
0002
,  // measure 2
0003
1000
0020
0030
0020
0030
0000
0200
,  // measure 3
0300
0001
2000
3000
2000
3000
0002
0003
,  // measure 4
0022
0000
0000
0000
0003
0000
0130
2000
,  // measure 5
0000
0004
0000
0000
3003
1000
0100
0020
,  // measure 6
0000
0130
1000
0002
0000
1003
0010
0400
,  // measure 7
0000
0000
0300
0000
0001
0100
0010
2000
,  // measure 8
0000
3001
0010
0100
1000
0100
0010
0002
,  // measure 9
0000
4003
0000
3000
0000
0010
0100
0002
,  // measure 10
0003
1000
0100
0020
0000
0130
1000
0004
,  // measure 11
0000
0003
2000
0000
3010
0200
0000
0302
,  // measure 12
0003
1000
0020
0030
0020
0030
0000
2000
,  // measure 13
3000
0001
0200
0300
0010
2000
0000
3004
,  // measure 14
0000
0000
0003
1000
0100
0020
0000
0034
,  // measure 15
0000
0003
2000
3000
0100
0020
0030
0002
,  // measure 16
0000
1003
0020
0030
0020
0030
0000
2000
,  // measure 17
3000
0001
0200
0300
0010
2000
3000
0002
,  // measure 18
0000
0003
1000
0100
0010
0100
1000
0004
,  // measure 19
0000
0000
0000
0000
0003
1000
0100
0010
,  // measure 20
0002
0000
1003
0010
0100
0010
1000
0002
,  // measure 21
0000
1003
0100
0040
0000
0030
0000
0001
,  // measure 22
0010
0100
1000
0100
0010
0001
1000
0002
,  // measure 23
0003
0000
1000
0010
1000
0001
0010
0001
,  // measure 24
2000
3001
0100
0010
1000
0010
0100
0001
,  // measure 25
1000
0100
0010
0200
0000
1300
0004
0003
,  // measure 26
1000
0020
0000
2030
0000
3002
0000
0043
,  // measure 27
0000
0031
1000
0100
0020
0000
0230
0000
,  // measure 28
1300
0001
0200
0000
0000
0301
0000
2000
,  // measure 29
0000
3100
0010
0001
2000
0000
3400
0000
,  // measure 30
1300
0001
0100
0002
0000
2003
0000
3200
,  // measure 31
0000
0310
0001
1000
0002
0000
2003
0000
,  // measure 32
3010
0000
0200
0000
0302
0000
1003
0200
,  // measure 33
0000
0310
0100
4000
0000
3001
0100
0010
,  // measure 34
1000
0010
0100
0001
1000
0002
0003
0200
,  // measure 35
0000
0310
1000
0001
0010
0100
1000
0001
,  // measure 36
0202
0000
0000
0000
0003
0000
0310
2000
,  // measure 37
0000
0004
0000
0000
3003
1000
0000
0020
,  // measure 38
0000
0130
0001
2000
0000
3100
0010
0002
,  // measure 39
0000
1003
1000
0000
0001
0100
0010
2000
,  // measure 40
0000
3001
0010
0100
1000
0100
0010
0002
,  // measure 41
0000
4003
0000
3000
0000
0010
0100
0001
,  // measure 42
0000
1000
0100
0020
0000
0230
0000
4300
,  // measure 43
0000
3000
0002
0000
1003
0020
0000
0230
,  // measure 44
0000
0301
2000
3000
2000
3000
0000
0002
,  // measure 45
0003
0100
0020
0030
1000
0002
0003
0020
,  // measure 46
0000
0130
2000
3001
0100
0002
0000
4003
,  // measure 47
0000
3000
0020
0030
1000
0002
0003
0020
,  // measure 48
0000
0130
2000
3000
2000
3000
0000
0002
,  // measure 49
0003
0100
0020
0000
1030
0002
0003
0020
,  // measure 50
0030
0000
0100
1000
0001
0100
0001
4000
,  // measure 51
0000
0000
0000
0000
3000
0001
0100
0010
,  // measure 52
2000
0000
3001
0100
0010
1000
0001
0020
,  // measure 53
0000
0031
1000
0200
0000
0320
0030
0001
,  // measure 54
0010
0100
1000
0100
0010
0001
1000
0002
,  // measure 55
0000
1003
0010
0100
0010
0100
0010
1000
,  // measure 56
0002
0013
0100
1000
0001
0100
0010
1000
,  // measure 57
0001
0010
0100
2000
0000
3002
0403
0300
,  // measure 58
0001
2000
0000
3200
0000
0320
0000
0032
,  // measure 59
0000
1003
0010
0100
0001
1000
0002
0000
,  // measure 60
0013
0100
2000
0000
0000
3001
0000
0200
,  // measure 61
0000
0310
1000
0001
0020
0030
0400
0000
,  // measure 62
1300
0001
0010
0200
0000
0320
0000
0032
,  // measure 63
0000
1003
0010
0100
0020
0000
2030
0000
,  // measure 64
3002
0000
0013
0000
0200
0000
1300
0004
,  // measure 65
0000
1003
0010
0200
0300
0001
1000
0100
,  // measure 66
1000
0001
0100
0001
1000
0040
0030
0100
,  // measure 67
0000
0001
1000
0100
0010
0100
1000
0100
,  // measure 68
0220
0000
0000
0000
0300
0000
0031
2000
,  // measure 69
0000
0004
0000
0000
3003
1000
0010
0200
,  // measure 70
0000
0310
1000
0002
0000
0013
0100
2000
,  // measure 71
0000
3001
0001
0000
1000
0010
0100
0002
,  // measure 72
0000
1003
0100
0010
0001
0010
0100
2000
,  // measure 73
0000
3002
0000
0003
0000
1000
0010
0200
,  // measure 74
0300
0001
1000
0002
0000
2003
0000
3200
,  // measure 75
0000
0000
0000
0000
0300
0000
0010
0040
,  // measure 76
0000
0000
0030
0000
0001
0000
1000
0000
0001
0000
0200
0000
0000
0300
0110
0000
,  // measure 77
0000
0000
0010
1000
0001
0010
0100
2000
,  // measure 78
0000
3001
0100
0020
0000
1030
0001
0100
,  // measure 79
0004
0000
0000
0003
0000
1000
0100
2000
,  // measure 80
0000
3001
0100
0010
0100
0001
1000
0020
,  // measure 81
0000
0000
0230
0000
0302
0000
1003
0200
,  // measure 82
0000
0300
0000
0000
1000
0001
0100
0002
,  // measure 83
0000
2003
3000
0100
0010
0100
1000
0002
,  // measure 84
0000
0103
0010
2000
0000
3001
0010
0100
,  // measure 85
2000
0000
0000
3001
0000
0000
0011
0000
0000
0000
0001
0000
1000
0000
0001
0000
,  // measure 86
0020
0000
0000
0130
0000
0000
1100
0000
0000
0000
1000
0000
0001
0000
2000
0000
,  // measure 87
0000
3001
0010
0100
0100
0010
0001
1000
,  // measure 88
0000
0100
0000
0010
0000
0001
0000
2000
,  // measure 89
0000
3010
0100
0010
1000
0001
0000
0010
,  // measure 90
0000
0001
1000
0010
0100
0010
0000
2000
,  // measure 91
0000
3001
0010
0100
0010
0001
0000
2001
,  // measure 92
0000
0000
3010
0000
1000
0000
0001
0000
0010
0000
0100
0000
1000
0002
0003
1000
,  // measure 93
0020
0030
0020
0030
0000
0200
0300
0001
2000
3000
2000
3000
0000
0200
0300
0010
,  // measure 94
0002
0003
0002
0003
0000
4000
0000
0000
0000
0000
0000
0000
3000
0002
0003
0100
,  // measure 95
0020
0030
0020
0030
0000
2000
3000
0001
0200
0300
0200
0300
0000
0020
0030
1000
,  // measure 96
0002
0003
0002
0003
0000
0020
0000
0000
0000
0030
0000
0000
0100
0000
0000
0000
,  // measure 97
2200
0000
0000
0000
0300
0000
3001
0200
,  // measure 98
0000
0040
0000
0000
0330
0100
0000
0002
,  // measure 99
0000
1003
0100
0020
0000
0130
1000
0002
,  // measure 100
0000
0000
0003
0000
1000
0010
0100
0020
,  // measure 101
0000
1030
0001
0010
0100
0010
0001
2000
,  // measure 102
0000
3004
0000
0003
0000
1000
0010
0200
,  // measure 103
0300
0010
1000
0002
0000
0013
0100
2000
,  // measure 104
0000
0000
0000
3000
0000
0001
1000
0001
,  // measure 105
0022
0000
0000
0000
0003
0000
0130
2000
,  // measure 106
0000
0004
0000
0000
3003
1000
0010
0200
,  // measure 107
0000
0301
1000
0200
0000
0310
0001
2000
,  // measure 108
0000
3001
0200
0301
1000
0100
0010
0002
,  // measure 109
0000
1003
0010
0100
0001
1000
0001
0020
,  // measure 110
0000
0430
0000
0300
0000
1000
0001
0200
,  // measure 111
0300
0010
1000
0002
0000
0013
0100
4000
,  // measure 112
0000
3000
0002
0000
1003
0020
0000
0230
,  // measure 113
0300
0001
2000
3000
2000
3000
0000
0002
,  // measure 114
0003
0010
0200
0000
1300
0002
0000
0203
,  // measure 115
0300
0010
2000
3001
0020
0130
0000
2000
,  // measure 116
0000
3000
0002
0000
0103
0020
0000
2030
,  // measure 117
3000
0001
0020
0030
0020
0030
0000
0002
,  // measure 118
0003
1000
0200
0000
1300
0002
0000
0203
,  // measure 119
0000
0300
0010
1000
0001
0010
0100
2000
,  // measure 120
0000
0000
0000
0000
3040
0000
0000
0030
,  // measure 121
0220
0000
0000
0000
0030
0000
0301
2001
,  // measure 122
0000
0400
0000
0000
0000
0000
3300
2000
,  // measure 123
0000
3001
0100
0010
0100
0001
0000
1001
,  // measure 124
0000
1000
0000
1100
0000
0100
0010
0001
,  // measure 125
2002
0000
0000
0000
0003
0000
3010
0210
,  // measure 126
0000
0004
0000
0000
0000
0303
0000
0200
,  // measure 127
0000
0310
1000
0001
0010
0100
0000
1100
,  // measure 128
0000
1000
0001
0100
0010
1000
0001
1000
,  // measure 129
2020
0000
0000
0000
3000
0000
0130
0102
,  // measure 130
0000
4000
0000
0000
0000
0000
3003
0002
,  // measure 131
0003
0100
0020
0030
0020
0030
0000
2000
,  // measure 132
3000
0001
0020
0030
0020
0031
1000
2020
,  // measure 133
0000
0000
0000
0000
3000
0000
0130
0102
,  // measure 134
0000
4000
0000
0000
0000
0000
3003
0002
,  // measure 135
0003
0010
0200
0300
0100
1000
0001
0402
,  // measure 136
0000
0000
0000
0000
,  // measure 137
0000
0300
0000
0000
0000
0000
0000
0000
,  // measure 138
0000
0000
0000
0003
0000
0000
0000
0000
;

//---------------dance-single - AceOfArrows (2017)----------------
#NOTES:
     dance-single:
     AceOfArrows (2017):
     Medium:
     5:
     0.367,0.236,0.000,0.671,0.015:
0000
0000
0000
0000
0000
0000
0000
2000
,
3000
0001
0010
0000
0020
0030
0000
0002
,
0003
1000
0100
0000
0200
0300
0000
0000
,
0020
0000
0000
0000
0000
0000
0031
2000
,
0000
3004
0000
0000
0003
0010
0000
0002
,
0000
1003
0000
0020
0000
0000
1030
0004
,
0000
0000
0003
0000
1000
0000
0001
0020
,
0000
0031
1000
0000
0001
0000
1000
0020
,
0000
0430
0000
0300
0000
0001
0000
2000
,
0000
0000
3001
0020
0000
0000
0130
4000
,
0000
0000
3002
0000
1003
0020
0000
0230
,
0000
0000
0000
0000
0000
0300
0000
0000
,
0000
0000
0002
0000
1003
0200
0000
0320
,
0000
0000
0030
0001
2000
0000
0000
3010
,
0000
0000
2000
0000
3001
0020
0000
0230
,
0000
0000
0300
0000
,
0000
0000
0020
0000
0031
2000
0000
3002
,
0000
0000
2003
0000
3020
0000
1030
0004
,
0000
0000
0003
0000
,
0000
0000
1000
0000
0001
0000
1000
0020
,
0000
0000
1030
0004
0000
0003
0000
1000
,
0020
0000
1030
0000
0001
0000
0010
0100
,
0000
0000
0000
0000
0000
0010
0000
0000
,
0000
0001
1000
0000
0010
0000
1000
0001
,
1000
0000
0001
0200
0000
0310
1000
0000
,
0001
0020
0000
0230
0000
2300
0000
3002
,
0000
1003
0100
0000
0020
0000
0230
0000
,
2300
0000
0000
0000
0000
3000
0000
0000
,
0000
0001
0010
0000
0001
0000
4000
0000
,
3002
0000
1003
0200
0000
0310
0000
0002
,
0000
1003
0010
0000
1000
0000
0002
0000
,
0003
0000
1000
0000
0200
0000
1300
0002
,
0000
0000
1003
0100
0000
1000
0001
0000
,
1000
0100
1000
0000
0001
0100
0000
0000
,
0000
0010
1000
0000
0001
0010
0001
0000
,
2000
0000
0000
0000
0000
0000
3001
0020
,
0000
0430
0000
0000
0300
0010
0000
0002
,
0000
0000
1003
0020
0000
0000
1030
0002
,
0000
0003
0000
0000
1000
0000
0100
0020
,
0000
0130
1000
0000
0001
0000
1000
0020
,
0000
0430
0000
0300
0000
0001
0000
2000
,
0000
3001
0010
0002
0000
1003
0000
0400
,
0000
0300
2000
0000
3001
0010
0000
0200
,
0000
0000
0000
0000
0000
0000
0000
0300
,
0000
0000
0020
0000
0031
1000
0000
0020
,
0000
0030
0000
1000
0001
2000
0000
3010
,
0000
0000
2000
0000
3001
0010
0000
0002
,
0000
0000
0000
0000
0000
0000
0000
0003
,
0000
0000
2000
0000
3001
0200
0000
0320
,
0000
0000
2030
0000
3002
0000
0013
0400
,
0000
0000
0300
0000
,
0020
0000
0031
0000
1000
0000
0001
0200
,
0000
0310
0100
0020
0000
0030
0000
1000
,
0001
0000
0010
0000
0001
0000
1000
0200
,
0000
0300
2000
0000
3002
0000
1003
0010
,
0000
1000
0001
0000
0010
0000
0001
1000
,
0001
0000
0100
0002
0000
1003
0100
0000
,
1000
0002
0000
1003
0000
0010
0000
2000
,
0000
3001
0010
0000
0001
1000
0001
0000
,
0200
0000
0000
0000
0000
0300
0000
0000
,
0000
0010
1000
0000
0002
0000
2003
0000
,
3020
0000
1030
0002
0000
0013
0000
0200
,
0000
0310
0001
0000
1000
0000
0002
0000
,
0003
0000
2000
0000
3020
0000
1030
0004
,
0000
1003
0100
1000
0000
0001
0100
0000
,
0010
1000
0010
0000
1000
0001
0000
0000
,
0000
1000
0100
0000
1000
0001
1000
0000
,
0020
0000
0000
0000
0000
0000
1030
0002
,
0000
0403
0000
0000
0300
0010
0000
2000
,
0000
3001
0010
0002
0000
1003
0100
2000
,
0000
0000
3000
0000
0001
0000
1000
0020
,
0000
1030
0001
0000
0010
0000
0001
2000
,
0000
3200
0000
0300
0000
0010
0000
0002
,
0000
1003
0010
2000
0000
3001
0000
0200
,
0000
0000
0000
0300
0000
0000
0004
0000
,
0000
0003
2000
0000
3001
0200
0000
0310
,
0000
0000
1000
0001
1000
0000
0100
0020
,
0000
0000
0031
2000
0000
3001
0100
0000
,
0004
0000
0000
0003
0000
1000
0100
2000
,
0000
3001
0100
0000
0001
0000
1000
0020
,
0000
0000
2030
0000
3002
0000
0013
0200
,
0000
0300
0000
0000
1000
0000
0001
0020
,
0000
0031
0000
1000
0010
0000
1000
0002
,
0000
1003
0000
0200
0000
0000
0000
0300
,
0020
0000
0031
2000
0000
3001
0200
0000
,
0302
0000
1003
0100
0000
1000
0000
0002
,
0000
1003
0010
0000
0200
0000
0301
1000
,
0000
0100
0000
0010
0000
0001
0000
2000
,
0000
3001
0100
0000
0001
1000
0000
0001
,
0000
0010
0100
0000
1000
0001
0000
0200
,
0000
0310
1000
0000
0001
0010
0000
0200
,
0000
0000
0310
0000
0001
0000
0000
0000
1000
0000
0000
0000
0001
2000
0000
3000
,
0001
0000
0002
0000
0003
2000
0000
0000
3010
0000
0020
0000
0030
0200
0000
0000
,
0301
0000
0002
0000
0003
2000
0000
0000
3100
0000
0200
0000
0300
0020
0000
0000
,
0031
0000
0002
0000
0003
2000
0000
0000
3010
0000
0020
0000
0030
2000
0000
0000
,
3001
0000
0002
0000
0000
0023
0000
0000
0000
0030
0000
0000
0000
0000
0000
0000
,
0002
0000
0000
0000
0000
0000
1003
0020
,
0000
0430
0000
0000
0300
0010
0000
2000
,
0000
3001
0100
0002
0000
1003
0010
2000
,
0000
3000
0000
0000
0001
0000
1000
0200
,
0000
1300
0001
0000
0100
0000
0001
2000
,
0000
3400
0000
0300
0000
0010
0000
0002
,
0000
1003
0010
2000
0000
3001
0000
0200
,
0000
0000
0300
0000
,
0020
0000
0000
0000
0000
0000
1030
0002
,
0000
0043
0000
0000
0030
0001
0000
2000
,
0000
3010
0100
0020
0000
1030
0001
2000
,
0000
0000
3000
0000
0001
0000
1000
0200
,
0000
0310
0001
0000
1000
0000
0001
0020
,
0000
0034
0000
0003
0000
1000
0010
1000
,
0000
0001
0100
0001
0000
2000
0000
3400
,
0000
0300
0020
0000
0031
2000
0000
3020
,
0000
0000
0000
0000
0000
0000
0000
0030
,
0000
0000
2000
0000
3001
0010
0000
0200
,
0000
0300
0000
0010
0100
0020
0000
0031
,
0000
0000
2000
0000
3001
1000
0000
0200
,
0000
0000
0000
0000
0000
0000
0000
0300
,
0000
0000
0020
0000
0031
1000
0000
0002
,
0000
0003
1000
0100
2000
0000
3001
0200
,
0000
0000
0000
0000
0000
0300
0000
0000
,
0002
0000
0000
0000
0000
0000
1003
0020
,
0000
0430
0000
0000
0000
0000
0300
0002
,
0000
1003
0100
0000
1000
0001
0000
1000
,
0000
0100
0000
0010
0000
0001
1000
0000
,
0020
0000
0000
0000
0000
0000
1030
0002
,
0000
0403
0000
0000
0000
0300
0000
0020
,
0000
1030
0001
0000
1000
0010
0000
1000
,
0000
0001
0010
0000
0100
0000
1000
0000
,
0002
0000
0000
0000
0000
0000
1003
0200
,
0000
0340
0000
0000
0000
0000
0030
0002
,
0000
1003
0010
0000
0020
0000
0030
2000
,
0000
3001
0100
0000
0200
0000
0300
0002
,
0000
0000
0000
0000
0000
0000
0103
0020
,
0000
4030
0000
0000
0000
0000
3000
0002
,
0000
0013
0100
0000
0200
0000
2300
0004
,
0000
0000
0000
0000
,
0000
0003
0000
0000
0000
0000
0000
0000
,
0000
0000
0000
3000
0000
0000
0000
0000
;

//---------------dance-single - AceOfArrows (2017)----------------
#NOTES:
     dance-single:
     AceOfArrows (2017):
     Challenge:
     10:
     0.784,0.681,0.660,0.744,0.381: // measure 1
0000
0000
0000
0000
0000
0000
0000
2001
,  // measure 2
3010
0100
0001
0000
2001
0000
0000
0000
3200
0000
0320
0000
0030
0000
0012
0000
,  // measure 3
1003
0010
0100
0000
0102
0000
2003
0000
3200
0000
0310
0000
0001
0000
1000
0000
,  // measure 4
1020
0000
0130
0001
1000
0000
0100
0000
0010
0000
0001
0000
1000
0000
1020
0000
,  // measure 5
0000
0000
1030
0001
0100
0001
2000
0000
0000
0000
3001
0000
0010
0000
0210
0000
,  // measure 6
0000
0000
1300
0001
0100
0000
0120
0000
0000
0000
1030
0000
0001
0000
0041
0000
,  // measure 7
0000
0000
0130
0000
1100
0000
1000
0000
0001
0000
1000
0010
0100
0000
0102
0000
,  // measure 8
0000
0000
1003
0100
0010
0000
0100
0000
1000
0000
0001
0000
0100
0000
0001
1000
,  // measure 9
0100
0010
0100
1000
0001
0000
0200
0000
0000
0000
0301
1000
0100
0000
0120
0000
,  // measure 10
0000
0000
0031
0100
0010
0000
2010
0000
0000
0000
3001
0000
0010
0000
0410
0000
,  // measure 11
0000
0000
1300
0001
0100
0000
0010
0000
1000
0000
0001
0000
1000
0000
1020
0000
,  // measure 12
0000
0000
0130
0001
1000
0000
0100
0000
0120
0000
0031
0000
1000
0000
1020
0000
,  // measure 13
0000
0000
0130
0001
1000
0000
0100
0000
0120
0000
0031
0000
1000
0000
1020
0000
,  // measure 14
0000
0000
0130
0001
1000
0000
0100
0000
0010
0000
0001
0000
1000
0000
1040
0000
,  // measure 15
0000
0000
1030
0001
0010
0000
0001
0000
1000
0000
0010
0000
0100
0000
0102
0000
,  // measure 16
0000
0000
1003
0001
0010
0000
0100
0000
2100
0000
3001
0000
0100
0000
0120
0000
,  // measure 17
0000
0000
1030
0001
0010
0000
0100
0000
2100
0000
3001
0000
0100
0000
0120
0000
,  // measure 18
0000
0000
0000
0000
0000
0000
1030
0000
0000
0001
0000
0000
0010
0000
0000
0000
0000
0000
0100
0000
0000
0000
0000
0000
2000
0000
0000
0000
0000
0000
3001
0000
0000
0000
0000
0000
0010
0000
0000
0000
0000
0000
0400
0000
4000
0000
0000
0000
,  // measure 19
0000
0000
0000
0000
0000
0000
0000
0000
3300
0000
1000
0000
0001
0010
0100
0010
,  // measure 20
0002
0000
1003
0000
0010
0000
0100
0000
0010
0000
1000
0001
0010
0000
0210
0000
,  // measure 21
0000
0000
1300
0000
0001
0000
0201
0000
0000
0000
0310
1000
0001
0000
0010
0000
,  // measure 22
0001
0000
1000
0000
0010
0000
0100
0000
0001
1000
0010
0000
0100
0000
0101
0000
,  // measure 23
0001
0000
1000
0000
0100
0010
0001
0000
1000
0000
0010
0000
0100
0000
0001
0000
,  // measure 24
2001
0000
3100
0010
0001
0000
1000
0000
0010
0000
0100
0000
0001
0000
1000
0000
,  // measure 25
0100
0000
0010
0001
1000
0000
0020
0000
0000
0000
0130
0000
0004
0000
0003
0000
,  // measure 26
1001
0000
2000
0000
0000
0000
3200
0000
0000
0000
0320
0000
0000
0030
0014
0000
,  // measure 27
0000
0000
1003
0000
0010
0000
0100
0000
0102
0000
1003
0000
0200
0000
0000
0300
,  // measure 28
0120
0000
0031
1000
0010
0000
0100
0000
0001
0000
1000
0000
0100
0000
0120
0000
,  // measure 29
0000
0000
0031
1000
0010
0000
0100
0000
0001
0000
1000
0000
0400
0000
0310
0001
,  // measure 30
1000
0010
0100
0002
0000
1003
0000
1200
,  // measure 31
0000
0000
0310
0001
1000
0000
0001
0000
0201
0000
0310
0000
2000
0000
3001
0100
,  // measure 32
0010
0000
1010
0000
2000
3001
0010
0210
,  // measure 33
0000
0000
1300
0001
0100
0000
0040
0000
0030
0000
1000
0000
0001
0000
0010
0000
,  // measure 34
0100
1000
0001
0000
0100
0000
0010
0000
1010
0000
1000
0001
0010
0001
1000
0000
,  // measure 35
0000
0000
0001
0000
0100
0000
0010
0000
1000
0000
0001
0000
0010
0000
0100
1000
,  // measure 36
1002
0000
0103
0010
1000
0000
0001
0000
0010
0000
0100
0000
1000
0000
1002
0000
,  // measure 37
0000
0000
0013
0100
1000
0100
0020
0000
0000
0000
0031
1000
0010
0000
0210
0000
,  // measure 38
0000
0000
0301
1000
0100
0000
0120
0000
0000
0000
0031
1000
0001
0000
0201
0000
,  // measure 39
0000
0000
0310
0000
1010
0000
1000
0000
0001
0000
0010
0100
1000
0000
1002
0000
,  // measure 40
0000
0000
0103
0010
1000
0000
0001
0000
0010
0100
1000
0000
0001
0000
1000
0010
,  // measure 41
0100
0001
0100
0010
1000
0000
0002
0000
0000
0000
1003
0100
0010
0000
0012
0000
,  // measure 42
0000
0000
1003
0010
0100
0000
0102
0000
0000
0000
1003
0100
0010
0000
0014
0000
,  // measure 43
0000
0000
1003
0010
0100
0000
0010
0000
1000
0000
0001
0000
0010
0000
0210
0000
,  // measure 44
0000
0000
1300
0001
0100
0000
0010
0000
2010
0000
3001
0000
0010
0000
0210
0000
,  // measure 45
0000
0000
1300
0001
0020
0000
0130
0000
1100
0000
2000
0000
3001
0000
0201
0000
,  // measure 46
0000
0000
0310
1000
0001
0000
0010
0000
0110
0000
0100
0000
1000
0000
1004
0000
,  // measure 47
0003
0000
0001
0100
0010
0000
1000
0000
0001
0000
0010
0000
0100
0000
2100
0000
,  // measure 48
0000
0000
3001
0100
0010
0000
1000
0000
1001
0000
0001
0000
0010
0000
0210
0000
,  // measure 49
0000
0000
1300
0001
0100
0000
0010
0000
2010
0000
3001
0000
0010
0000
0210
0000
,  // measure 50
0000
0000
0000
0000
0000
0000
1300
0000
0000
0001
0000
0000
0100
0000
0000
0000
0000
0000
0001
0000
0000
0000
0000
0000
0100
0000
0000
0000
0000
0000
0010
0000
0000
0000
0000
0000
1000
0000
0000
0000
0000
0000
0004
0000
0400
0000
0000
0000
,  // measure 51
0000
0000
0000
0000
0000
0000
0000
0000
0303
0000
0001
0000
1000
0100
0010
0100
,  // measure 52
2000
0000
3001
0010
0100
0000
1000
0000
0001
0100
0010
0000
1000
0000
0002
0000
,  // measure 53
0000
0000
1003
0100
0010
0000
0200
0000
0000
0300
1100
0000
1000
0000
0001
0000
,  // measure 54
0100
0000
0010
0100
0001
0000
1000
0000
0100
0010
0001
0000
1000
0000
1010
0000
,  // measure 55
0010
0100
0002
1003
0002
0013
0002
1003
,  // measure 56
1010
0000
0010
0100
0001
0000
1000
0000
0100
0010
0001
0000
1000
0000
0010
0000
,  // measure 57
0110
0000
0100
0001
1000
0000
1200
0000
0000
0000
0310
0000
0011
0000
0001
1000
,  // measure 58
0010
0000
0200
0000
0000
0000
0302
0000
0000
0000
2003
0000
0000
3000
1200
0000
,  // measure 59
0000
0000
0310
0001
1000
0000
0010
0000
0110
0000
0100
0000
0002
0000
0000
0003
,  // measure 60
2001
0000
3010
0100
0001
0000
1000
0000
0100
0000
0010
0000
0001
0000
2001
0000
,  // measure 61
0000
0000
3010
0100
0001
0000
1000
0000
1100
0000
0000
0000
0200
0000
0310
0001
,  // measure 62
1000
0010
0100
0102
0000
1003
0000
1200
,  // measure 63
0000
0000
0310
0001
1000
0000
0010
0000
0110
0000
0000
0000
0200
0000
0301
1000
,  // measure 64
0020
0000
0000
0000
2030
0000
0000
0000
3002
0000
0013
0100
1000
0000
1004
0000
,  // measure 65
0000
0000
0103
0001
1000
0000
1400
0000
0000
0000
0310
0100
1000
0000
0001
0000
,  // measure 66
0101
0000
0100
0000
0010
1000
0001
0000
0011
0000
0010
0100
1000
0100
0020
0000
,  // measure 67
0000
0000
0031
0000
1001
0000
1000
0000
0010
0000
0100
0001
1000
0000
0100
0000
,  // measure 68
0120
0000
0031
1000
0010
0000
0100
0000
0001
0000
1000
0000
0100
0000
0120
0000
,  // measure 69
0000
0000
0031
0010
0100
0010
0002
0000
0000
0000
1003
0000
0010
0000
0210
0000
,  // measure 70
0000
0000
0301
1000
0100
0000
0120
0000
0000
0000
0031
1000
0010
0000
0210
0000
,  // measure 71
0000
0000
0301
0000
1001
0000
1000
0000
0100
0000
0010
0001
1000
0000
1020
0000
,  // measure 72
0000
0000
0130
0001
1000
0000
0100
0000
0010
0001
1000
0000
0010
0000
1000
0100
,  // measure 73
0010
0001
0010
0100
1000
0000
0002
0000
0000
0000
1003
0010
0100
0000
0102
0000
,  // measure 74
0000
0000
1003
0100
0010
0000
0012
0000
0000
0000
1003
0010
0100
0000
0102
0000
,  // measure 75
0000
0000
0000
0000
0000
0000
0000
0000
0003
0000
0000
0000
1000
0010
0400
0000
,  // measure 76
0000
0000
0300
0000
0101
0000
0001
0000
1001
0000
1000
0010
0100
0010
1000
0000
,  // measure 77
1002
0000
0013
0000
0100
1000
0001
0000
0100
0000
0010
0000
1000
0000
0002
0000
,  // measure 78
0000
0000
0013
0100
1000
0000
0002
0000
0000
0000
1003
0010
0100
0000
0001
0000
,  // measure 79
2001
3010
0100
0002
0000
0103
0010
2000
,  // measure 80
0000
0000
3001
1000
0010
0000
0200
0000
0301
0000
1000
0100
0010
0000
0012
0000
,  // measure 81
0000
0000
1003
0010
0100
0000
0001
0000
1000
0000
0100
0000
0010
0000
0012
0000
,  // measure 82
0000
0000
2003
0000
3000
0000
0010
0000
0100
0001
1000
0000
0100
0000
0120
0000
,  // measure 83
0000
0000
0032
0000
0003
0000
1000
0010
0100
0000
0001
0000
1000
0000
1200
0000
,  // measure 84
0000
0000
0310
0000
0001
0000
2001
0000
0000
0000
3010
0100
0001
0100
0010
1000
,  // measure 85
0002
0000
0000
0200
0000
0000
0010
0000
0303
0000
0100
0000
0001
0000
1000
0000
,  // measure 86
0200
0000
0000
2000
0000
0000
0001
0000
3300
0000
1000
0000
0001
0000
0201
0000
,  // measure 87
0000
0310
1010
1000
1001
0001
0100
0202
,  // measure 88
0000
0010
0000
1000
0000
0010
0303
0120
,  // measure 89
0000
0000
1030
0001
0010
0000
0100
0000
1000
0000
0001
0000
0100
0000
0110
0000
,  // measure 90
0000
0000
0010
1000
0001
0000
0010
0000
0100
0000
1000
0000
0000
0000
1002
0000
,  // measure 91
0000
0000
0103
0000
0020
0000
1030
0001
0010
0000
0100
0000
0000
0000
2100
0000
,  // measure 92
0000
0000
3001
0000
0100
0000
0010
0000
1010
0000
1000
0000
0001
0021
0000
0130
,  // measure 93
2200
3300
2020
3030
0000
0102
0000
1003
2200
3300
0022
0033
0000
0202
0003
0310
,  // measure 94
2020
0000
0000
3030
0000
0000
0202
0000
0000
0303
0000
0000
0000
0000
0000
0004
4000
0000
0000
0000
0000
0000
0000
0000
0000
0000
0000
0000
0000
0000
0000
0000
0000
0000
0000
0000
3003
0000
0000
0002
0000
0000
0000
0000
0000
0000
0000
0000
,  // measure 95
0000
0000
0003
0010
0001
2000
0000
0000
0000
0000
0000
0000
0000
3020
0000
0000
,  // measure 96
0000
0000
0000
4030
0000
3002
0000
0000
0000
0010
0000
0003
1001
0000
1000
0000
,  // measure 97
1200
0000
0310
0001
1000
0000
0010
0000
0100
0000
0001
0000
1000
0000
1200
0000
,  // measure 98
0000
0000
0310
0001
1000
0001
0020
0000
0000
0000
0130
1000
0001
0000
0201
0000
,  // measure 99
0000
0000
0310
1000
0001
0000
0021
0000
0000
0000
0130
1000
0001
0000
0201
0000
,  // measure 100
0000
0000
0310
0000
1010
0000
1000
0000
0001
0000
0010
0100
1000
0000
1002
0000
,  // measure 101
0000
0000
0103
0010
1000
0000
0001
0000
0010
0100
1000
0000
0001
0000
1000
0010
,  // measure 102
0100
0001
0100
0010
1000
0000
0002
0000
0000
0000
0013
0100
1000
0000
1002
0000
,  // measure 103
0000
0000
0103
0010
1000
0000
1200
0000
0000
0000
0310
0001
1000
0000
1020
0000
,  // measure 104
0000
0130
0001
1000
1100
0100
0010
0001
,  // measure 105
2001
0000
3010
0100
0001
0000
1000
0000
0100
0000
0010
0000
0001
0000
2001
0000
,  // measure 106
0000
0000
3100
0010
0001
0010
0200
0000
0000
0000
1300
0001
0100
0000
0120
0000
,  // measure 107
0000
0000
1030
0001
0010
0000
0210
0000
0000
0000
1300
0001
0100
0000
0120
0000
,  // measure 108
0000
0000
1030
0000
1001
0000
0001
0000
0010
0000
0001
1000
0010
0000
0210
0000
,  // measure 109
0000
0000
0301
1000
0100
0000
0010
0000
0100
1000
0001
0000
0100
0000
0010
1000
,  // measure 110
0001
0100
0001
1000
0100
0000
0020
0000
0000
0000
0130
1000
0001
0000
0201
0000
,  // measure 111
0000
0000
0310
1000
0001
0000
0021
0000
0000
0000
0130
1000
0001
0000
0401
0000
,  // measure 112
0000
0000
0310
1000
0001
0000
0010
0100
0010
0001
0010
0001
1000
0001
0201
0000
,  // measure 113
0000
0000
0310
1000
0001
0000
0010
0000
0210
0000
1300
0000
0001
0000
0201
0000
,  // measure 114
0000
0000
0310
1000
0001
0000
0010
0000
0210
0000
1300
0000
0001
0000
0201
0000
,  // measure 115
0000
0000
0310
1000
0001
0000
0010
0000
0100
0000
1000
0000
0001
0000
0201
0000
,  // measure 116
0000
0000
0310
1000
0001
0000
0010
0000
0001
0000
1000
0000
0010
0000
0210
0000
,  // measure 117
0000
0000
0301
1000
0100
0000
0010
0000
0012
0000
1003
0000
0010
0000
0210
0000
,  // measure 118
0000
0000
0301
1000
0100
0000
0010
0000
0001
0000
1000
0010
0100
0000
0102
0000
,  // measure 119
0000
0000
1003
0000
0100
0000
0010
0000
0001
0000
0010
0100
1000
0000
2002
0000
,  // measure 120
3000
0000
0000
0000
0000
0000
0103
0000
0000
0000
0000
0000
0010
0000
0000
0000
0000
0000
1000
0000
0000
0000
0000
0000
0001
0000
0010
0000
0001
0000
0010
0000
0000
0100
0000
0000
1000
0000
0000
0000
0000
0000
0001
0000
0000
0000
0000
0000
,  // measure 121
0201
0000
0310
1000
0001
0000
0010
0000
0100
0000
1000
0000
0001
0000
0100
0010
,  // measure 122
1000
0001
1000
0010
0100
0000
0002
0000
0000
0000
1003
0000
0100
0000
0120
0000
,  // measure 123
0000
0000
0031
1000
0010
0000
0100
0000
0001
0000
1000
0000
0100
0000
0110
0000
,  // measure 124
0000
0000
0011
0000
0000
0000
1001
0000
0000
0000
1000
0010
0100
0000
0001
0000
,  // measure 125
2001
0000
3010
0100
0001
0000
1000
0000
0100
0000
0010
0000
0001
0000
2001
0000
,  // measure 126
0000
0000
3010
0100
0001
0100
0020
0000
0000
0000
1030
0000
0000
0000
1002
0000
,  // measure 127
0000
0000
0013
0100
1000
0000
0001
0000
0101
0000
0100
0000
0000
0000
0110
0000
,  // measure 128
0000
0000
1010
0000
1000
0000
0001
0000
0011
0000
0010
0100
1000
0100
0010
0100
,  // measure 129
2100
0000
3001
0100
0010
0000
1000
0000
0001
0000
0010
0000
0100
0000
2100
0000
,  // measure 130
0000
3001
0100
0120
0000
1030
0001
0201
,  // measure 131
0000
0000
0310
1000
0001
0000
0010
0000
0210
0000
1300
0000
0001
0000
0201
0000
,  // measure 132
0000
0000
0310
1000
0001
0000
0010
0000
0100
0000
0010
0000
0001
0000
2001
0000
,  // measure 133
0000
0000
3010
0100
0001
0000
1000
0000
0100
0000
0010
0000
0001
0000
2002
0000
,  // measure 134
0003
0040
0000
0000
0000
0000
3030
0210
,  // measure 135
0000
0000
0301
1000
0100
0000
0010
0000
0011
0000
0001
0000
1000
0000
2400
0000
,  // measure 136
0000
0000
0000
0000
,  // measure 137
0000
0300
0000
0000
0000
0000
0000
0000
,  // measure 138
0000
0000
0000
3000
0000
0000
0000
0000
;

//---------------dance-single - AceOfArrows (2017)----------------
#NOTES:
     dance-single:
     AceOfArrows (2017):
     Easy:
     4:
     0.209,0.130,0.000,0.301,0.000: // measure 1
0000
0000
0000
0000
0000
0000
0000
0001
,  // measure 2
0000
0000
0001
0000
0001
0000
0000
0010
,  // measure 3
0000
0010
0010
0000
,  // measure 4
0002
0000
0000
0000
0000
0000
0000
1003
,  // measure 5
0000
4000
0000
0000
3000
0000
0000
0100
,  // measure 6
0000
0000
0000
0100
0000
0000
0000
0400
,  // measure 7
0000
0300
0000
0000
0000
0000
0000
0010
,  // measure 8
0000
0000
0010
0000
0010
0000
0000
0002
,  // measure 9
0000
0000
0000
0003
0000
0000
0000
1000
,  // measure 10
0000
1000
0000
1000
0000
0000
0000
0004
,  // measure 11
0000
0003
0100
0000
0100
0000
0000
0200
,  // measure 12
0000
0000
0000
0000
0000
0000
0000
0300
,  // measure 13
0000
0000
0001
0000
0001
0000
0000
0002
,  // measure 14
0000
0003
0000
0000
1000
0000
0000
1000
,  // measure 15
0000
0000
0010
0000
0010
0000
0000
0020
,  // measure 16
0000
0000
0000
0000
0000
0000
0000
0030
,  // measure 17
0000
0000
1000
0000
1000
0000
0000
2000
,  // measure 18
0000
3000
0001
0000
0001
0000
0000
0004
,  // measure 19
0000
0000
0003
0000
,  // measure 20
0000
0000
1000
0000
1000
0000
0000
2000
,  // measure 21
0000
0000
0000
3004
0000
0003
0000
0000
,  // measure 22
0010
0000
0010
0000
0010
0000
0000
0010
,  // measure 23
0000
0000
0000
0000
,  // measure 24
0000
0001
0001
0000
,  // measure 25
0100
0000
0000
0200
0000
0000
0300
0000
,  // measure 26
0010
0000
0000
0020
0000
0000
0000
0230
,  // measure 27
0000
0300
0001
0001
,  // measure 28
0002
0000
0000
0000
0000
0003
0000
0000
,  // measure 29
0000
1000
1000
4000
,  // measure 30
3000
0000
0000
0000
,  // measure 31
0010
0010
0010
0020
,  // measure 32
0030
0000
1000
0000
1000
0000
0000
0001
,  // measure 33
0000
0000
0000
0002
0000
0000
0003
0000
,  // measure 34
0010
0010
0010
0000
,  // measure 35
0000
0001
0001
0001
,  // measure 36
2000
0000
0000
0000
0000
0000
0000
3001
,  // measure 37
0000
0004
0000
0000
0003
0000
0000
1000
,  // measure 38
0000
1000
0000
2000
0000
0000
0000
3020
,  // measure 39
0000
0030
0000
0000
1000
0000
0000
2000
,  // measure 40
0000
0000
3001
0000
0001
0000
0000
0002
,  // measure 41
0000
0003
0000
0000
0000
0010
0000
0010
,  // measure 42
0000
0000
0000
0001
0000
0001
0000
0004
,  // measure 43
0000
0003
1000
0000
1000
0000
0000
2000
,  // measure 44
0000
0000
0000
0000
0000
0000
0000
3000
,  // measure 45
0000
0000
0010
0000
0010
0000
0000
0020
,  // measure 46
0000
0030
0000
0000
0100
0000
0000
0100
,  // measure 47
0000
0000
0001
0000
0001
0000
0000
0002
,  // measure 48
0000
0000
0000
0000
0000
0000
0000
0003
,  // measure 49
0000
0000
1000
0000
1000
0000
0000
2000
,  // measure 50
0000
3000
0010
0000
0010
0000
0000
4000
,  // measure 51
0000
0000
3000
0000
,  // measure 52
0000
0000
0001
0000
0001
0000
0000
0020
,  // measure 53
0000
0000
0000
0031
0000
0000
0000
0000
,  // measure 54
1000
0000
1000
0000
1000
0000
0000
0100
,  // measure 55
0000
0000
0000
0000
,  // measure 56
0000
0010
0020
0030
,  // measure 57
0001
0000
0000
0002
0000
0000
0003
0000
,  // measure 58
1000
0000
0000
2000
0000
3000
0000
0020
,  // measure 59
0000
0030
1000
1000
,  // measure 60
2000
0000
0000
0000
0000
3000
0000
0000
,  // measure 61
0000
0001
0001
0001
,  // measure 62
0000
0000
0000
0000
0000
0000
0000
0010
,  // measure 63
0000
0010
0010
0010
,  // measure 64
0000
0000
0001
0000
0002
0000
0000
1003
,  // measure 65
0000
0000
0000
0001
0000
0000
0100
0000
,  // measure 66
0100
0100
0100
0000
,  // measure 67
0000
0010
0010
0010
,  // measure 68
2000
0000
0000
0000
0000
0000
0000
3001
,  // measure 69
0000
0004
0000
0000
0003
0010
0000
0020
,  // measure 70
0000
0000
0000
0031
0000
0001
0000
0002
,  // measure 71
0000
0003
0000
0000
1000
0000
0000
2000
,  // measure 72
0000
0000
3010
0000
0010
0000
0000
0010
,  // measure 73
0000
0020
0000
0030
0000
1000
0000
2000
,  // measure 74
0000
0000
0000
3001
0000
0001
0000
0002
,  // measure 75
0000
0000
0000
0003
0000
0000
4000
0000
,  // measure 76
0000
3000
0001
0000
0002
0000
0000
1003
,  // measure 77
0000
0000
1000
0000
1000
0000
0000
0020
,  // measure 78
0000
0030
0000
0100
0000
0000
0100
0000
,  // measure 79
0400
0000
0000
0300
0000
0000
0000
0002
,  // measure 80
0000
0003
1000
0000
1000
0000
0000
0020
,  // measure 81
0000
0000
1030
0000
1000
0000
0000
0002
,  // measure 82
0000
0003
0000
0000
1000
0000
0000
1000
,  // measure 83
0000
1000
0000
0000
0001
0000
0000
0001
,  // measure 84
0000
0001
0000
0010
0000
0020
0000
0000
,  // measure 85
0032
0000
0000
1003
0000
0000
1000
0000
,  // measure 86
0002
0000
0000
1003
0000
0000
0000
0020
,  // measure 87
0000
0000
0130
0000
0100
0000
0000
0001
,  // measure 88
0000
0001
0000
0001
0000
0001
0000
2000
,  // measure 89
0000
0000
3001
0000
0001
0000
0000
0010
,  // measure 90
0000
0000
0001
0000
0001
0000
0000
2000
,  // measure 91
0000
0000
3010
0000
0010
0000
0000
0200
,  // measure 92
0000
0000
0301
0000
0001
0000
0000
2000
,  // measure 93
0000
3000
0000
0020
0000
0030
0000
0200
,  // measure 94
0000
0300
0000
0002
0000
0003
0000
2000
,  // measure 95
0000
3000
0000
0200
0000
0300
0000
0020
,  // measure 96
0000
0030
0000
0002
0000
0003
0000
0000
,  // measure 97
0020
0000
0000
0000
0000
0000
0000
0130
,  // measure 98
0000
0400
0000
0000
0300
1000
0000
2000
,  // measure 99
0000
0000
0000
3001
0000
0001
0000
0002
,  // measure 100
0000
0003
0000
0000
1000
0000
0000
2000
,  // measure 101
0000
0000
3001
0000
0001
0000
0000
0002
,  // measure 102
0000
0000
0003
0000
0000
0100
0000
0200
,  // measure 103
0000
0000
0000
0310
0000
0010
0000
0020
,  // measure 104
0000
0000
0000
0030
0000
0000
0000
0000
,  // measure 105
2000
0000
0000
0000
0000
0000
0000
3001
,  // measure 106
0000
0004
0000
0000
0003
1000
0000
2000
,  // measure 107
0000
0000
0000
3100
0000
0100
0000
0200
,  // measure 108
0000
0300
0000
0000
0010
0000
0000
0020
,  // measure 109
0000
0000
0031
0000
0001
0000
0000
0002
,  // measure 110
0000
0000
0000
0003
0000
1000
0000
2000
,  // measure 111
0000
0000
0000
3010
0000
0010
0000
0010
,  // measure 112
0000
0000
0100
0000
0100
0000
0000
0200
,  // measure 113
0000
0000
0000
0000
0000
0000
0000
0300
,  // measure 114
0000
0000
0001
0000
0001
0000
0000
0002
,  // measure 115
0000
0003
0000
0000
1000
0000
0000
1000
,  // measure 116
0000
0000
0010
0000
0010
0000
0000
0020
,  // measure 117
0000
0000
0000
0000
0000
0000
0000
0030
,  // measure 118
0000
0000
0100
0000
0100
0000
0000
0200
,  // measure 119
0000
0300
0001
0000
0001
0000
0000
0002
,  // measure 120
0000
0000
0003
0000
,  // measure 121
2000
0000
0000
0000
0000
0000
0000
3010
,  // measure 122
0000
0040
0000
0000
0000
0000
0030
0000
,  // measure 123
0000
0000
1000
0000
1000
0000
0000
0001
,  // measure 124
0000
0001
0000
0001
0000
0000
0000
0000
,  // measure 125
0020
0000
0000
0000
0000
0000
0000
0130
,  // measure 126
0000
0400
0000
0000
0000
0300
0000
0020
,  // measure 127
0000
0000
0130
0000
0100
0000
0000
1000
,  // measure 128
0000
1000
0000
1000
0000
0000
0000
0000
,  // measure 129
0002
0000
0000
0000
0000
0000
0000
1003
,  // measure 130
0000
4000
0000
0000
0000
0000
3000
0010
,  // measure 131
0000
0000
0010
0000
0010
0000
0000
0100
,  // measure 132
0000
0000
0100
0000
0100
0000
0000
0002
,  // measure 133
0000
0000
0000
0000
0000
0000
0000
0103
,  // measure 134
0000
0400
0000
0000
0000
0000
0300
0010
,  // measure 135
0000
0000
0010
0000
0010
0000
0000
4000
,  // measure 136
0000
0000
0000
0000
,  // measure 137
0000
3000
0000
0000
0000
0000
0000
0000
;

//---------------dance-single - AceOfArrows (2017)----------------
#NOTES:
     dance-single:
     AceOfArrows (2017):
     Beginner:
     2:
     0.126,0.104,0.000,0.130,0.000: // measure 1
0000
0000
0000
0000
,  // measure 2
2000
0000
3000
0000
,  // measure 3
2000
0000
3000
0000
,  // measure 4
0002
0000
0000
0003
,  // measure 5
0004
0000
0003
0000
,  // measure 6
1000
0000
1000
0000
,  // measure 7
1000
0000
0000
0000
,  // measure 8
0010
0000
0010
0000
,  // measure 9
0010
0000
0000
0000
,  // measure 10
0100
0000
0100
0000
,  // measure 11
0100
0000
0001
0000
,  // measure 12
0002
0000
0000
0000
,  // measure 13
0003
0000
1000
0000
,  // measure 14
1000
0000
0010
0000
,  // measure 15
0010
0000
1000
0000
,  // measure 16
2000
0000
0000
0000
,  // measure 17
3000
0000
0001
0000
,  // measure 18
0001
0000
0100
0000
,  // measure 19
0400
0000
0300
0000
,  // measure 20
0000
0000
0001
0000
,  // measure 21
0001
0000
0001
0000
,  // measure 22
1000
0000
1000
0000
,  // measure 23
1000
0000
0000
0000
,  // measure 24
0000
0000
0100
0000
,  // measure 25
0100
0000
0100
0000
,  // measure 26
0010
0000
0010
0000
,  // measure 27
0010
0000
0001
0000
,  // measure 28
0002
0000
0003
0000
,  // measure 29
0000
0000
1000
0000
,  // measure 30
0000
0000
0000
0000
,  // measure 31
0001
0000
0001
0000
,  // measure 32
0000
0000
1000
0000
,  // measure 33
1000
0000
1000
0000
,  // measure 34
0100
0000
0100
0000
,  // measure 35
0000
0000
1000
0000
,  // measure 36
2000
0000
0000
3000
,  // measure 37
4000
0000
3000
0000
,  // measure 38
0001
0000
0001
0000
,  // measure 39
0001
0000
0000
0000
,  // measure 40
0010
0000
0010
0000
,  // measure 41
0010
0000
0000
0000
,  // measure 42
0100
0000
0100
0000
,  // measure 43
0100
0000
1000
0000
,  // measure 44
2000
0000
0000
0000
,  // measure 45
3000
0000
0001
0000
,  // measure 46
0001
0000
1000
0000
,  // measure 47
1000
0000
0100
0000
,  // measure 48
0200
0000
0000
0000
,  // measure 49
0300
0000
0001
0000
,  // measure 50
0001
0000
1000
0000
,  // measure 51
4000
0000
3000
0000
,  // measure 52
0000
0000
0001
0000
,  // measure 53
0001
0000
0001
0000
,  // measure 54
0010
0000
0010
0000
,  // measure 55
0010
0000
0000
0000
,  // measure 56
0000
0000
0100
0000
,  // measure 57
0100
0000
0100
0000
,  // measure 58
1000
0000
1000
0000
,  // measure 59
1000
0000
0001
0000
,  // measure 60
0002
0000
0003
0000
,  // measure 61
0000
0000
0100
0000
,  // measure 62
0000
0000
0000
0000
,  // measure 63
0010
0000
0010
0000
,  // measure 64
0000
0000
1000
0000
,  // measure 65
1000
0000
1000
0000
,  // measure 66
0001
0000
0001
0000
,  // measure 67
0000
0000
0010
0000
,  // measure 68
0020
0000
0000
0030
,  // measure 69
0040
0000
0030
0000
,  // measure 70
0001
0000
0001
0000
,  // measure 71
0001
0000
0000
0000
,  // measure 72
1000
0000
1000
0000
,  // measure 73
1000
0000
0000
0000
,  // measure 74
0010
0000
0010
0000
,  // measure 75
0020
0000
0030
0000
,  // measure 76
0000
0000
1000
0000
,  // measure 77
1000
0000
0001
0000
,  // measure 78
0001
0000
1000
0000
,  // measure 79
4000
0000
3000
0000
,  // measure 80
0010
0000
0010
0000
,  // measure 81
0010
0000
0100
0000
,  // measure 82
0100
0000
0000
0000
,  // measure 83
0001
0000
0001
0000
,  // measure 84
1000
0000
1000
0000
,  // measure 85
0020
0000
0000
0030
0000
0000
0000
0000
,  // measure 86
2000
0000
0000
3000
0000
0000
0000
0000
,  // measure 87
0001
0000
0001
0000
,  // measure 88
1000
0000
1000
0000
,  // measure 89
0020
0000
0000
0030
0000
0000
0000
0000
,  // measure 90
0200
0000
0000
0300
0000
0000
0000
0000
,  // measure 91
0001
0000
0001
0000
,  // measure 92
1000
0000
0000
0000
1000
0000
0000
0002
,  // measure 93
0000
0003
0000
0002
0000
0003
0000
2000
,  // measure 94
0000
3000
0000
2000
0000
3000
0000
0020
,  // measure 95
0000
0030
0000
0020
0000
0030
0000
0200
,  // measure 96
0000
0300
0000
0200
0000
0300
0000
0000
,  // measure 97
0002
0000
0000
0003
,  // measure 98
0004
0000
0003
0000
,  // measure 99
1000
0000
1000
0000
,  // measure 100
1000
0000
0000
0000
,  // measure 101
0100
0000
0100
0000
,  // measure 102
0100
0000
0000
0000
,  // measure 103
1000
0000
1000
0000
,  // measure 104
2000
0000
3000
0000
,  // measure 105
0002
0000
0000
0003
,  // measure 106
0004
0000
0003
0000
,  // measure 107
0100
0000
0100
0000
,  // measure 108
0100
0000
0000
0000
,  // measure 109
0010
0000
0010
0000
,  // measure 110
0010
0000
0000
0000
,  // measure 111
1000
0000
1000
0000
,  // measure 112
1000
0000
0001
0000
,  // measure 113
0002
0000
0000
0000
,  // measure 114
0003
0000
0010
0000
,  // measure 115
0010
0000
0100
0000
,  // measure 116
0100
0000
1000
0000
,  // measure 117
2000
0000
0000
0000
,  // measure 118
3000
0000
0001
0000
,  // measure 119
0001
0000
0100
0000
,  // measure 120
0200
0000
0300
0000
,  // measure 121
0020
0000
0000
0030
,  // measure 122
0040
0000
0000
0030
,  // measure 123
1000
0000
1000
0000
,  // measure 124
0001
0000
0001
0000
,  // measure 125
0200
0000
0000
0300
,  // measure 126
0400
0000
0300
0000
,  // measure 127
0010
0000
0010
0000
,  // measure 128
1000
0000
1000
0000
,  // measure 129
0002
0000
0000
0003
,  // measure 130
0004
0000
0000
0003
,  // measure 131
1000
0000
1000
0000
,  // measure 132
0100
0000
0100
0000
,  // measure 133
2000
0000
0000
3000
,  // measure 134
4000
0000
0000
3000
,  // measure 135
0001
0000
0001
0000
,  // measure 136
0400
0000
0000
0000
,  // measure 137
0000
0300
0000
0000
0000
0000
0000
0000
;
