#TITLE:Colorful Precious Life;
#SUBTITLE:;
#ARTIST:Chata;
#TITLETRANSLIT:;
#SUBTITLETRANSLIT:;
#ARTISTTRANSLIT:;
#GENRE:J-Pop;
#CREDIT:Ace Of Arrows;
#BANNER:Colorful Precious Banner.png;
#BACKGROUND:Colorful Precious Background.jpg;
#LYRICSPATH:;
#CDTITLE:Ace Of Arrows.png;
#MUSIC:Colorful Precious Life.ogg;
#OFFSET:0.940;
#SAMPLESTART:53.700;
#SAMPLELENGTH:12.000;
#SELECTABLE:YES;
#DISPLAYBPM:90.000:180.000;
#BPMS:0.000=180.000,209.500=360.000,210.000=180.000,210.500=360.000,211.000=180.000,228.000=90.000,260.000=180.000,369.500=360.000,370.000=180.000,370.500=360.000,371.000=180.000,388.000=90.000,408.000=180.000,480.000=90.000,496.000=360.000,496.500=180.000,499.500=360.000,500.250=180.000,503.500=360.000,504.250=180.000,509.500=360.000,510.000=180.000,510.500=360.000,511.000=180.000,540.000=360.000,540.250=180.000,540.500=360.000,541.000=180.000,541.500=360.000,542.000=180.000,542.500=360.000,543.000=180.000;
#STOPS:209.500=0.083
,210.500=0.083
,369.500=0.083
,370.500=0.083
,496.000=0.083
,499.500=0.125
,503.500=0.125
,509.500=0.085
,510.500=0.085
,540.000=0.042
,540.500=0.083
,541.500=0.083
,542.500=0.083
;
#BGCHANGES:;
#KEYSOUNDS:;

//---------------dance-single - Ace Of Hearts (2015)----------------
#NOTES:
     dance-single:
     Ace Of Hearts (2015):
     Hard:
     8:
     0.653,0.000,0.197,1.000,0.092: // measure 1
0000
0000
0000
0000
,  // measure 2
0000
0000
0000
0000
,  // measure 3
0000
0000
0000
0000
,  // measure 4
0000
0000
0000
0000
,  // measure 5
0000
0000
0000
0000
,  // measure 6
1000
0100
0010
0100
0000
0010
0100
0010
,  // measure 7
0001
0010
0001
1000
0000
0001
0100
0010
,  // measure 8
0100
0001
1000
0001
0000
0100
0010
0100
,  // measure 9
0000
0001
0000
1000
0040
0000
0000
0030
,  // measure 10
0210
0000
0000
0000
,  // measure 11
0300
0001
0000
1000
0000
0010
0100
0010
,  // measure 12
2000
0000
0000
0000
3002
0000
0000
0023
,  // measure 13
0000
0130
1000
0100
0000
0010
0001
1000
,  // measure 14
0200
0000
0000
0000
0000
0310
0001
1000
,  // measure 15
0002
0000
0000
0000
0000
0103
0010
1000
,  // measure 16
0020
0000
0000
0000
0000
0000
0030
0110
,  // measure 17
0000
0100
0001
0100
0001
4000
0000
0000
,  // measure 18
3002
0000
0013
0200
0000
2300
0000
3002
,  // measure 19
0000
1003
0020
0000
0230
0000
0304
0000
,  // measure 20
0003
0000
2000
0000
3100
0020
0000
0230
,  // measure 21
0000
1300
0001
1000
0020
0000
0230
0000
,  // measure 22
0304
0000
0003
0000
1000
0020
0000
0230
,  // measure 23
0000
0301
2000
0000
3200
0000
0320
0000
,  // measure 24
0230
0000
2300
0000
3001
0200
0000
0320
,  // measure 25
0000
0000
0000
0000
0200
0000
0000
0330
,  // measure 26
0102
0000
1003
0200
0000
0320
0000
0032
,  // measure 27
0000
1003
0020
0000
2030
0000
3002
0000
,  // measure 28
0003
0000
0010
0200
0000
2300
0000
3002
,  // measure 29
0000
0203
0000
0310
2000
0000
3002
0000
,  // measure 30
0203
0000
0300
0000
0010
0200
0000
0302
,  // measure 31
0000
0000
2003
0000
0000
0000
3001
0000
0020
0000
0000
0000
0230
0000
0000
0300
,  // measure 32
2100
0000
0000
0000
3001
0000
0200
0000
0000
0000
0320
0000
0000
0030
2020
0000
,  // measure 33
0000
0000
0030
0000
0002
0000
0000
3003
,  // measure 34
0021
0000
0000
0000
0130
0000
2000
0000
0000
0000
3002
0000
0000
0003
0201
0000
,  // measure 35
0000
0310
1000
0000
0001
0010
0001
0010
,  // measure 36
0200
0000
0000
0000
1300
0000
0002
0000
0000
0000
0203
0000
0000
0300
0120
0000
,  // measure 37
0000
1030
0001
0000
0010
0100
0010
0001
,  // measure 38
2000
0000
0000
0000
3010
0000
0200
0000
0000
0000
0302
0000
0000
0003
2001
0000
,  // measure 39
0000
0000
0000
0000
3100
0000
0020
0000
0000
0000
0032
0000
0000
0003
2002
0000
,  // measure 40
0000
0000
0000
0000
0000
0000
3003
1010
,  // measure 41
0000
0101
0000
0001
1000
0000
0400
0000
,  // measure 42
0310
0002
0000
2003
0000
3001
0010
0100
,  // measure 43
0010
0002
0000
2003
0000
3010
0100
0010
,  // measure 44
2000
0000
3001
0020
0000
0000
0230
0000
,  // measure 45
2300
0000
3001
0200
0000
0000
0320
0030
,  // measure 46
1000
0001
1000
0100
0000
0010
0001
0010
,  // measure 47
0100
0000
0020
0000
0000
0000
0034
0000
0000
0003
0000
0000
2000
0000
0000
3000
,  // measure 48
1020
0000
0000
0000
0000
0000
0130
0000
0000
0000
0002
0000
0000
0003
2002
0000
,  // measure 49
0000
0000
0000
0000
3003
4000
0000
0000
,  // measure 50
3001
0200
0000
0320
0000
1030
0001
0010
,  // measure 51
0001
2000
0000
3020
0030
1000
0001
1000
,  // measure 52
0200
0000
0310
0002
0000
2003
0000
3020
,  // measure 53
0000
0000
0000
0000
0130
0000
0002
0003
0000
0000
1000
0000
0000
0000
1200
0000
,  // measure 54
0000
0000
0310
0002
0000
2003
0000
3020
,  // measure 55
0000
0000
0000
0000
0230
0000
0000
0000
0302
0000
0000
0000
2003
0000
0000
3000
,  // measure 56
1200
0000
0000
0000
0000
0310
0000
0022
,  // measure 57
0000
0000
0033
0000
,  // measure 58
1001
0000
0000
2000
0000
0000
0000
3000
1100
0000
0000
0200
0000
0000
0000
0300
,  // measure 59
0120
0000
0032
2003
3020
0230
0302
2003
,  // measure 60
3002
0000
0403
0000
0302
0000
1003
0100
,  // measure 61
0040
0000
0034
4003
,  // measure 62
3200
0000
0310
0002
0000
0023
0000
0230
0000
1300
0002
0000
2003
0000
3040
0000
,  // measure 63
0030
0000
1000
0002
0000
0023
0000
0130
1000
0100
0010
0100
2000
0000
3002
0000
,  // measure 64
0203
0000
0300
0000
0010
0200
0000
0302
0000
1003
0200
0000
0320
0000
0230
0000
,  // measure 65
2300
0000
3002
0000
0103
0020
0000
2030
0000
0000
0000
0000
3002
0000
0000
0003
,  // measure 66
0021
0000
0130
2000
0000
3002
0000
0203
,  // measure 67
0000
0300
0020
0000
2030
0000
3004
0000
,  // measure 68
0003
0000
1000
0200
0000
0320
0000
0032
,  // measure 69
0000
2003
0000
3010
0200
0000
0302
0000
,  // measure 70
4003
0000
3000
0000
0010
0200
0000
0302
,  // measure 71
0000
0000
1003
0000
0200
0000
0000
0000
0320
0000
0000
0000
0032
0000
0000
0003
,  // measure 72
2001
0000
0000
0000
3010
0000
0200
0000
0000
0000
0302
0000
0000
0003
2002
0000
,  // measure 73
0000
0003
0200
3300
,  // measure 74
0120
0000
0000
0000
0031
0000
2000
0000
0000
0000
3020
0000
0000
0030
0210
0000
,  // measure 75
0000
0301
1000
0000
0001
0100
0010
0100
,  // measure 76
0002
0000
0000
0000
1003
0000
0200
0000
0000
0000
0320
0000
0000
0030
0012
0000
,  // measure 77
0000
1003
0010
0000
0100
0010
1000
0010
,  // measure 78
0200
0000
0000
0000
0301
0000
2000
0000
0000
0000
3200
0000
0000
0300
0120
0000
,  // measure 79
0000
0000
0000
0000
0031
0000
2000
0000
0000
0000
3020
0000
0000
0030
0220
0000
,  // measure 80
0000
0000
0000
0000
0000
0000
0330
0101
,  // measure 81
0000
1010
0000
1000
0001
0000
0040
0000
,  // measure 82
0130
2000
0000
3002
0000
1003
0100
0010
,  // measure 83
0100
2000
0000
3002
0003
0100
0010
0100
,  // measure 84
0002
0000
1003
0200
0000
0000
0320
0000
,  // measure 85
0032
0000
1003
0020
0000
0230
0300
0000
,  // measure 86
0001
0100
0010
0200
0000
0301
1000
0100
,  // measure 87
1000
0000
0002
0000
0000
0000
0203
0000
0000
0000
0310
0000
2000
0000
0000
3000
,  // measure 88
1002
0000
0000
0000
0000
0000
0023
0000
0000
0000
0230
0000
0000
0300
2200
0000
,  // measure 89
0000
0000
3300
4000
,  // measure 90
3001
0200
0000
0320
0000
1030
0001
0010
,  // measure 91
0001
2000
0000
3020
0000
0130
0010
1000
,  // measure 92
0020
0000
0130
0002
0000
2003
0000
3020
,  // measure 93
0000
0000
0000
0000
0130
0000
0002
0003
0000
0000
1000
0000
0000
0000
1200
0000
,  // measure 94
0000
0000
0310
0002
0000
2003
0000
3200
,  // measure 95
0000
0000
0300
0000
2000
0000
0000
0000
3002
0000
0000
0000
0203
0000
0000
0300
,  // measure 96
0220
0000
0300
0000
0000
1030
0002
0020
,  // measure 97
0000
0000
0000
0000
0000
0033
0000
0000
,  // measure 98
0020
0000
0000
0230
0000
0000
2300
0000
3002
0000
0000
0203
0000
0000
0320
0000
,  // measure 99
2030
0000
0000
3002
0000
0000
0023
0000
0230
0000
0000
2300
0000
0000
3002
0000
,  // measure 100
0203
0000
0000
0320
0000
0000
0230
0000
0302
0000
0000
2003
0000
0000
3200
0000
,  // measure 101
0320
0000
0000
0230
0000
0000
2300
0000
3002
0000
0000
0203
0000
0000
0320
0000
,  // measure 102
2030
0000
0000
3002
0000
0000
2003
0000
0020
0000
0000
0000
0000
0000
3030
0000
,  // measure 103
1000
0001
0010
0002
0000
0023
0000
0230
,  // measure 104
0000
1300
0000
2000
0000
3001
0020
0000
,  // measure 105
0032
0000
1003
0200
0000
0310
0000
0020
,  // measure 106
0000
0031
0010
0002
0000
1003
0010
1000
,  // measure 107
0002
0000
1003
0200
0000
0320
0000
0032
,  // measure 108
0000
1003
0000
2000
0000
3010
0100
0010
,  // measure 109
2000
0000
3001
0020
0000
0230
0000
2300
,  // measure 110
0000
3001
0010
0200
0000
0340
0000
0000
,  // measure 111
0031
2000
0000
3002
0000
0103
0000
0200
,  // measure 112
0000
0310
1000
0002
0000
1003
0100
1000
,  // measure 113
0001
0100
0100
0010
1000
0001
1000
0020
,  // measure 114
0000
0130
0001
4000
0000
3001
0010
0001
,  // measure 115
2000
0000
3001
0200
0000
0320
0000
2030
,  // measure 116
0000
3001
0100
0020
0000
1030
0001
0010
,  // measure 117
0100
1000
0100
0010
0100
1000
0001
0100
,  // measure 118
0010
0100
0001
1000
0100
0010
0100
1000
,  // measure 119
0001
0100
0001
1000
0100
1000
0001
2000
,  // measure 120
0000
3001
0010
0100
4000
0000
0000
3000
,  // measure 121
0001
0010
0000
0200
0000
1300
0100
0010
0100
2000
0000
3002
0000
1003
0100
1000
,  // measure 122
0002
0000
0013
0200
0000
0000
0320
0000
0032
0000
1003
0200
0000
0000
2300
3000
,  // measure 123
0001
0020
0000
0230
0000
1300
0100
0010
0200
0000
2300
0000
3002
0000
0203
0000
,  // measure 124
0320
0000
0000
0000
0000
1030
0001
2000
0000
0000
0000
0000
3000
0000
0000
0000
,  // measure 125
0001
0000
0022
0000
0030
1003
0010
0100
,  // measure 126
0000
0000
0202
0000
0300
1003
0100
0010
,  // measure 127
0000
0000
0022
0000
0030
2003
0000
3020
,  // measure 128
0000
0000
0130
0000
0001
0000
2000
3000
0000
0000
1100
0000
0000
0000
0012
0000
,  // measure 129
0000
0000
1003
0020
0000
0230
0000
0302
,  // measure 130
0000
0000
0000
0000
2003
0000
0000
0000
3200
0000
0000
0000
0320
0000
0000
0030
,  // measure 131
0012
0000
0000
0000
0000
1003
0000
2020
,  // measure 132
0000
0000
0000
0000
0000
3030
0000
0000
,  // measure 133
1000
0002
0000
0043
0000
0030
0000
0000
,  // measure 134
0100
2000
0000
3002
0003
0000
2000
0000
,  // measure 135
3010
0200
0000
0304
0000
0003
0000
0000
,  // measure 136
1000
0000
0200
0300
0000
0000
0020
0030
0000
0000
0002
0003
0000
0000
2000
0000
,  // measure 137
0000
0000
0000
0000
,  // measure 138
0000
0001
0000
0010
0000
3001
0010
0001
,  // measure 139
2000
0000
0000
0000
3400
0000
0000
0320
,  // measure 140
0000
0031
1000
0001
0000
1000
0010
1000
,  // measure 141
0002
0000
0000
0000
0000
1003
0001
1000
,  // measure 142
0020
0000
0000
0000
0000
0130
0001
1000
,  // measure 143
0200
0000
0000
0000
0000
0000
0300
0110
,  // measure 144
0000
0000
0010
0000
0001
0000
0010
0000
0100
0000
4000
0000
0000
3000
1001
0000
,  // measure 145
0000
0000
0001
0000
0100
0000
0001
0000
1000
0000
0400
0000
0000
0300
0240
0000
,  // measure 146
0000
0000
0000
0000
,  // measure 147
0000
0000
0000
0000
,  // measure 148
0000
0000
0000
0000
0000
0030
0000
0310
;

//---------------dance-single - Ace Of Hearts (2015)----------------
#NOTES:
     dance-single:
     Ace Of Hearts (2015):
     Challenge:
     11:
     0.874,0.000,0.475,1.000,0.289:
0000
0000
0000
0000
,
0000
0000
0000
0000
,
0000
0000
0000
0000
,
0000
0000
0000
0000
,
0000
0000
0000
0000
,
0011
0010
0100
1000
0000
1000
0100
0010
,
0011
0001
1000
0010
0000
0010
0100
0001
,
1001
1000
0100
0010
0000
0010
0001
1000
,
0000
0000
1010
0000
0000
0000
0110
0000
0100
0000
0001
0100
0001
0100
0010
1000
,
0020
0000
0130
0001
1000
0100
0010
0100
,
0010
0001
0000
1001
0000
1000
0010
0100
,
0102
1003
0100
0000
0100
0010
0001
2001
,
0000
3010
0100
0101
0000
0001
1000
0100
,
0120
0031
1000
0010
1000
0001
0010
0100
,
2100
3001
0100
0010
1000
0010
0100
0001
,
2001
3100
0010
0100
1000
0001
0100
0110
,
0000
0000
0010
0000
1010
0000
1000
0000
1001
0000
0001
0010
0100
1000
0100
0010
,
0002
0000
1003
1020
0000
0130
0001
2001
,
0000
3100
0010
0001
1001
1000
0010
0100
,
0101
0000
0001
1000
0100
0010
0001
2001
,
0000
0000
3010
0000
0100
0000
0001
0000
1000
0000
0100
0000
0020
0000
0000
0030
,
0014
0000
1003
0010
0100
0001
1000
0001
,
0010
0100
2000
0000
3001
0100
0010
1000
,
0001
0000
0010
0000
0200
0000
0000
0000
0310
0000
0002
0000
0000
0000
1003
0010
,
1000
0000
0001
0010
0001
0000
1000
0000
0010
0100
0010
0000
1000
0001
1000
0000
,
1200
0000
0000
0000
0310
0000
0012
0000
0000
0000
2003
0000
0000
3000
1020
0000
,
0000
0130
0001
1000
0100
0010
0001
1000
,
1010
0000
0010
0110
0000
0100
0000
0102
,
0000
1003
0100
0010
0001
0010
0100
1000
,
1002
0000
0000
0000
0103
0000
0010
0000
1000
0000
0002
0000
0000
0003
0201
0000
,
0000
0000
0320
0000
0000
0000
1030
0000
0002
0000
0000
0000
0013
0100
1000
0000
,
1002
0000
0000
0000
0103
0000
0120
0000
0000
0000
2030
0000
0000
3000
1002
0000
,
0000
0000
0013
0000
0100
0000
0010
0000
0001
0000
1000
0010
0100
0001
0100
0010
,
2000
0000
0000
0000
0002
3000
0020
0000
0000
0003
2000
0000
0000
0030
0002
0000
,
3000
0103
1000
0000
0001
0100
1000
0100
,
0002
0000
0000
0000
0020
0003
2000
0000
0000
0030
0002
0000
0000
3000
0200
0000
,
0003
1300
0001
0000
1000
0010
0100
0001
,
2002
0000
0003
0000
3100
0000
0020
0000
0000
0000
0032
0000
0000
0003
2002
0000
,
0000
0003
3010
0200
0000
0301
0000
0022
,
0003
0130
1000
0001
0100
1000
0100
0101
,
0000
0000
1001
0000
0000
0000
1000
0000
1100
0000
0100
0000
0010
0100
0010
0001
,
0010
0100
1000
0002
0000
0103
0010
1000
,
1001
0001
0010
0200
0000
1300
0001
0100
,
0110
0010
1000
0002
0000
0013
0100
1000
,
1001
0001
0100
0020
0000
1030
0001
0010
,
0110
0100
1000
0002
0000
0103
0010
1000
,
1001
0001
0010
0200
0000
1300
0001
0100
,
0120
0000
1030
0000
0001
0000
0020
0000
0000
0000
0230
0000
0000
0300
2100
0000
,
0000
0000
3001
0000
0100
0000
0010
0000
1000
0001
1000
0100
0010
0001
0010
0100
,
1000
0001
0100
0020
0000
0130
0001
1000
,
1100
0100
0010
0002
0000
1003
0010
0100
,
0101
0001
1000
0200
0000
0320
0000
0032
,
0000
0000
1003
1020
0030
0110
0000
0212
,
0000
0300
1003
0100
0010
0001
1000
0020
,
0000
0130
0001
1000
0100
0010
0001
1000
,
1020
0000
0130
0001
1000
0100
1000
2020
,
3000
0000
0130
0000
0001
0000
1000
0000
0100
0000
0010
0100
1000
0100
0010
0001
,
1000
0000
0000
0020
0000
0000
0000
0030
0110
0000
0000
0200
0000
0000
0000
0300
,
0102
2003
3200
0320
0032
2003
3020
0230
,
0302
0000
0043
0000
0230
0000
2300
3002
,
0403
0000
0000
0000
0000
0000
0000
0000
0000
0000
0000
0000
0000
0000
0000
0000
0340
0000
0000
0000
0000
0000
0000
0000
1030
0001
1000
0001
0010
0100
0010
0100
,
2000
0000
3001
0200
0000
0320
0000
2030
0000
3001
0020
0000
0230
0000
4300
0000
,
3000
0000
0001
0200
0000
0320
0000
1030
0001
0100
1000
0100
0002
0000
1003
0000
,
1200
0000
0300
0000
0010
0002
0000
2003
0000
0000
3010
0000
0200
0000
0302
0000
,
2003
0000
0000
0000
3200
0000
0000
0000
0310
0000
0002
0000
0000
0000
2003
0000
0000
0000
3010
0100
0010
0000
1000
0000
0001
0010
0001
0000
1000
0100
1000
0000
,
1002
0000
0013
2000
0000
3020
0000
0032
,
0000
0000
1003
0010
0100
0001
1000
0100
,
0110
0000
0010
0002
0000
2003
0000
3020
,
0000
0000
0032
0000
0000
0000
0013
0000
2000
0000
0000
0000
3200
0000
0000
0300
,
0240
0300
0031
1000
0010
0200
0000
0302
,
0000
0000
1003
0000
0200
0000
0000
0000
0320
0000
0031
0010
0100
0000
1000
0000
,
1002
0103
0010
2010
0000
3001
0000
0021
,
0000
0000
0130
0000
1000
0000
0001
0000
1000
0100
0010
0001
1000
0010
0100
0001
,
2000
0000
0000
0000
0200
3000
0002
0000
0000
0300
2000
0000
0000
0003
0020
0000
,
0000
3000
0032
0000
1003
0000
0000
0000
0002
0000
0013
0000
1000
0000
0010
0000
,
0002
0000
0000
0000
2000
0003
0020
0000
0000
3000
0002
0000
0000
0030
2000
0000
,
0000
0003
3200
0000
0301
0000
0000
0000
1000
0000
0100
0000
0010
0000
0001
0000
,
2002
0000
0003
0000
3010
0000
0210
0000
0000
0000
0302
0000
0000
0003
2002
0000
,
0000
0003
3100
0020
0000
0032
0003
0202
,
0003
0310
1000
0001
0010
0100
1000
1001
,
0000
0000
0101
0000
0000
0000
0100
0000
0110
0000
0010
0000
1000
0001
0010
0001
,
1000
0010
0100
0002
0000
1003
0100
0010
,
0011
0001
1000
0020
0000
0130
0001
1000
,
1100
0000
0100
0000
0010
0000
0002
0000
0000
0000
0000
0000
2003
0000
0000
3000
,
1010
0010
0100
0002
0000
1003
0100
0010
,
0011
0001
1000
0020
0000
0130
0001
1000
,
1010
0010
0100
0002
0000
1003
0100
0000
,
0120
0000
0000
0000
0000
0000
0031
0000
0000
0000
2000
0000
0000
3000
2020
0000
,
3000
0000
0130
0000
0001
0000
1000
0000
0001
0100
0010
1000
0001
1000
0100
0010
,
0001
0010
0100
2000
0000
3001
0100
0010
,
1010
1000
0001
0020
0000
0130
1000
0001
,
0101
0100
0010
2000
0000
3001
0010
0200
,
0000
0000
1300
1002
0003
0101
0000
2120
,
0000
0030
3001
0010
0100
1000
0000
0002
,
0000
0103
0010
1000
1001
0001
0010
0100
,
2100
0000
3001
0100
0010
1000
0001
0022
,
0003
0000
0130
0000
1000
0000
0001
0000
0100
0000
0010
0100
0010
1000
0001
0010
,
0200
0000
0000
0010
0000
0000
1300
0000
2000
0000
0000
0001
0000
0000
3010
0000
,
0020
0000
0000
0001
0000
0000
0130
0000
0200
0000
0000
1000
0000
0000
0301
0000
,
0002
0000
0000
0010
0000
0000
1003
0000
2000
0000
0000
0100
0000
0000
3001
0000
,
0002
0000
0000
0023
0000
0000
0130
0000
2000
0000
0000
3002
0000
0000
0103
0000
,
0020
0000
0000
0000
0000
0000
2030
0000
0000
0000
0000
0000
3002
0000
0013
0100
2000
0000
0000
0000
0000
0000
0000
0000
3001
0010
0001
0010
0100
1000
0100
1000
,
0001
0100
0010
2000
0000
3002
0000
2003
,
0000
0000
3010
0000
0000
0000
0020
0000
0000
0000
0130
0001
0100
0000
0010
0000
,
1000
1000
0001
0200
0000
0320
0000
2030
,
0000
0000
3001
0000
0100
0000
0002
0000
0000
0000
1003
0100
1000
0000
0001
0000
,
0100
0010
1000
0002
0000
0023
0000
0230
,
0000
1300
0001
0200
0000
0310
1000
0001
,
0020
0000
0130
2000
0000
3002
0000
0203
,
0000
0000
0310
0000
1000
0000
0002
0000
1003
0100
0010
0001
0010
0100
1000
0001
,
2000
3010
0100
0002
0000
1003
0000
0200
,
0000
0000
0310
0000
0001
0000
2000
0000
0000
0000
3001
0100
0001
0000
1000
0000
,
0200
0000
0010
0300
0010
0000
0002
0000
1003
0000
0200
0000
0310
0000
0002
0000
,
0000
0000
1003
0000
0010
0000
0400
0000
0000
0000
0301
1000
0001
0000
0010
0000
,
0100
1000
0001
0100
0010
1000
0000
0002
,
0000
0000
1003
0000
0100
0000
0020
0000
0000
0000
0130
0010
0100
0000
1000
0000
,
0002
0013
0100
2000
3001
0100
0020
1030
,
0001
0200
0301
1000
0200
0310
0001
1000
,
0020
0130
0001
1000
0200
0310
0001
2000
,
0000
0000
3001
0000
0100
0000
0010
1000
0002
0000
1003
0100
0010
0001
0010
0100
,
1000
0001
0000
2000
0000
3001
0100
1000
0100
0002
0000
2003
0000
3100
0010
1000
,
0020
0000
0031
2000
0000
0000
3020
0000
0230
0000
0301
2000
0000
0000
3100
0000
,
0010
0000
0002
0000
0000
0000
2003
0000
0000
0000
3001
0000
0010
0000
1000
0000
0020
0000
0000
0000
0032
0000
0000
0000
2003
0000
0000
0000
3020
0000
0000
0030
,
0220
0000
0000
0000
0000
0000
0030
0000
0000
0000
0301
0000
1000
0000
0001
0010
0002
0000
0000
0000
0000
0000
0000
0000
0000
0000
1003
0000
0001
0010
0100
0010
,
0001
0000
2012
0000
0003
3010
0100
0101
,
0000
0000
2102
0000
0003
3100
0010
0001
,
0000
0000
1022
0000
0003
0130
0001
1000
,
1100
0100
0010
0012
0003
1011
0000
1212
,
0003
0310
1000
0001
0011
0010
0100
2000
,
0000
3001
0100
0010
1010
1000
0001
0010
,
0220
0030
1300
0001
0100
0010
1000
2200
,
3000
0000
0310
0000
0001
0010
0001
0000
1000
0000
0001
0100
0010
1000
0010
0100
,
0001
2000
0000
3200
0000
0310
0001
1000
,
1010
0020
0000
0230
0000
0301
1000
0100
,
0010
0200
0000
1300
0001
0100
0010
1000
,
0001
0000
0020
0000
0030
0000
0210
0000
0000
0000
2300
0000
0000
3000
1002
0000
,
0000
0103
0010
1000
0001
0010
0100
1000
,
0100
0010
0000
0011
0000
0001
1000
0010
,
0200
0000
0301
1000
0001
0000
0010
0000
0200
0000
1300
0001
1000
0000
0020
0000
,
0000
0000
0130
0000
0001
0000
1000
0100
1000
0000
0001
0000
0100
0000
0010
0000
,
2010
0000
3001
0010
0001
0000
1000
0000
0010
0000
1000
0000
0001
0000
0100
0000
,
0020
0000
0130
0000
0001
0000
1000
0100
1000
0000
0001
0000
0010
0000
0100
0000
,
2100
3001
0100
0010
1000
0001
0010
0110
,
0000
0000
0100
0000
1000
0000
0001
0000
0101
0000
0100
0010
1000
0010
0100
0000
,
0000
0000
0001
0000
1000
0000
0100
0000
0110
0000
0010
0001
0010
0200
4000
0000
,
0000
0000
0000
0000
,
0000
0000
0000
0000
,
0000
0000
0000
0000
0000
0000
0000
0000
0000
0000
3000
0000
0000
0300
1001
0000
;

//---------------dance-single - Ace Of Hearts (2015)----------------
#NOTES:
     dance-single:
     Ace Of Hearts (2015):
     Medium:
     6:
     0.352,0.000,0.004,0.663,0.054:
0000
0000
0000
0000
,
0000
0000
0000
0000
,
0000
0000
0000
0000
,
0000
0000
0000
0000
,
0000
0000
0000
0000
,
0001
0000
0000
0001
0000
0000
1000
0000
,
1000
0000
0000
1000
0000
0000
0010
0000
,
0010
0000
0000
0010
0000
0000
0100
0000
,
0000
0100
0000
0100
0000
0000
0000
0000
,
0002
0000
0000
0000
,
0003
1000
0000
1000
0000
0000
0001
0000
,
0002
0000
0000
0000
0203
0000
0000
0310
,
0000
0000
0000
0010
0000
0000
1000
0000
,
2000
0000
3000
0001
,
0002
0000
0003
1000
,
2000
0000
0000
0000
3000
0000
0000
0001
,
0000
0001
0000
0000
0001
0000
0000
0000
,
0000
0000
0000
1000
0000
0000
0000
1000
,
0000
0001
0010
0004
,
0003
0000
1000
0000
1000
0000
0000
0010
,
0000
0010
0010
1000
,
4000
0000
3000
0000
0001
0000
0000
0002
,
0000
1003
2000
3000
,
0001
0000
1000
0000
0001
0000
0000
0020
,
0000
0000
0032
0000
,
0003
0000
0000
1000
0000
0000
0000
2000
,
0000
3100
0010
0100
,
0000
0000
0000
0020
0000
0030
0000
0001
,
0000
0002
0000
0000
1003
0000
0001
0000
,
2000
0000
3000
0000
0010
0000
0000
0020
,
0000
0030
0100
0100
,
0002
0000
0000
1003
0000
0100
0000
2000
,
0000
0000
0000
0000
3002
0000
0000
0003
,
0020
0000
0000
0031
0000
1000
0000
0001
,
0000
0001
1000
0010
,
2000
0000
0000
3001
0000
0100
0000
0001
,
0000
0001
1000
1000
,
0002
0000
0000
1003
0000
0100
0000
2000
,
0000
0000
0000
3001
0000
0020
0000
0200
,
0000
0000
0000
0000
0000
0000
0330
0010
,
0000
0010
0000
0000
0001
0000
0000
0000
,
1000
0000
0000
2000
0000
0000
3001
0000
,
0001
0000
0000
0100
0000
0000
0010
0000
,
0020
0000
0000
2030
0000
0000
3010
0000
,
2000
0000
0000
3002
0000
0000
0013
0000
,
0200
0000
0000
1300
0000
0000
1000
0000
,
0002
0000
0000
0103
0000
0000
0010
0000
,
2000
0000
0000
3001
0000
0010
0000
0002
,
0000
0000
0003
0000
,
1000
0000
0000
2000
0000
0000
3001
0000
,
0200
0000
0000
0301
0000
0000
1000
0000
,
0002
0000
0000
0023
0000
0031
0000
2000
,
0000
0000
0000
3001
0000
0010
0000
0200
,
0000
0000
0000
2300
0000
3001
0000
0200
,
0000
0301
1000
0001
,
0020
0000
0000
0000
0000
0230
0000
2000
,
0000
0000
3300
0000
,
1000
0000
0000
2000
0000
0000
3000
0000
0001
0000
0000
0002
0000
0000
0003
0000
,
0200
0300
0002
2003
,
3002
0043
0230
2300
,
3004
0000
0043
0000
,
0030
0000
0000
0001
0000
0000
0000
0002
0000
0000
1003
0000
0010
0000
4000
0000
,
3000
0000
0000
0001
0000
0100
0000
0002
0000
0000
0003
0000
1000
0000
0100
0000
,
2000
0000
3000
0000
0001
0000
0000
0002
0000
0000
1003
0000
1000
0000
0000
0000
,
0100
0000
0010
0000
0100
0000
0000
2000
0000
0000
0000
0000
3002
0000
0000
0000
,
0003
0000
0000
1000
0000
0100
0000
2000
,
0000
3001
0100
0004
,
0003
0000
0000
1000
0000
0100
0000
2000
,
0000
3002
0000
0000
0203
0000
0320
0000
,
0430
0000
0300
0000
0002
0000
0000
2003
,
0000
3001
0010
0001
,
2000
0000
0000
3010
0000
0100
0000
0020
,
0000
0000
2030
3000
,
0002
0000
0000
0103
0000
0010
0000
0200
,
0000
0301
0100
0001
,
0200
0000
0000
0310
0000
1000
0000
0020
,
0000
1030
0001
1000
,
0002
0000
0000
0013
0000
0100
0000
0020
,
0000
0000
0000
0031
0000
2000
0000
0200
,
0000
0000
0000
0000
0000
0000
3300
1000
,
0000
1000
0000
0000
0001
0000
0000
0000
,
1000
0000
0000
2000
0000
0000
3010
0000
,
0010
0000
0000
0100
0000
0000
0001
0000
,
0001
0000
0000
2000
0000
0000
3002
0000
,
0023
0000
0000
0031
0000
0001
0000
0000
,
2000
0000
0000
3010
0000
0000
0100
0000
,
0200
0000
0000
0301
0000
0000
2000
0000
,
3002
0000
0000
1003
0000
0002
0000
0203
,
0000
0000
0300
0000
,
0010
0000
0000
0020
0000
0000
1030
0000
,
2000
0000
0000
3000
0000
0001
0000
0000
,
0002
0000
0000
0013
0000
0100
0000
0020
,
0000
0000
0000
0130
0000
0010
0000
0002
,
0000
0000
0000
1003
0000
0100
0000
2000
,
0000
3001
1000
0001
,
0020
0000
0000
0000
0000
0032
0000
2000
,
0000
0000
0000
0000
0000
3003
0000
0000
,
0001
0000
0000
0002
0000
0000
0003
0000
0010
0000
0000
0020
0000
0000
0030
0000
,
0100
0000
0000
0200
0000
0000
0300
0000
1000
0000
0000
2000
0000
0000
3000
0000
,
0001
0000
0000
0002
0000
0000
0003
0000
1000
0000
0000
2000
0000
0000
3000
0000
,
0100
0000
0000
0200
0000
0000
0300
0000
0010
0000
0000
0010
0000
0000
0010
0000
,
0001
0000
0000
0001
0000
0000
0001
0000
2000
0000
0000
0000
0000
0000
3000
0000
,
0002
0000
0000
1003
0000
0010
0000
1000
,
0000
0001
0000
0002
0000
0000
0003
0000
,
2000
0000
0000
3001
0000
0010
0000
0002
,
0000
0000
0000
2003
0000
0000
3100
0000
,
0020
0000
0000
0130
0000
1000
0000
0200
,
0000
0000
0000
0320
0000
0000
0030
0000
,
0002
0000
0000
1003
0000
0010
0000
2000
,
0000
0000
0000
3002
0000
0000
0003
0000
,
0010
0000
0010
0000
0010
0000
0000
0200
,
0000
0000
0000
2300
0000
0000
3001
0000
,
0020
0000
0000
0031
0000
1000
0000
0002
,
0000
0000
0000
0403
0000
0000
0301
0000
,
1000
0000
0001
0000
1000
0000
0000
0010
,
0000
0000
0000
0020
0000
0000
1030
0000
,
0001
0010
0002
0003
,
1000
0010
2000
3000
,
0001
0000
0100
0000
0002
0000
0000
1003
,
0000
0001
0000
0000
0200
0000
0000
0300
,
0010
0000
0000
0010
0000
0000
0000
0000
1000
0000
0000
1000
0000
0000
0000
0000
,
0001
0000
0000
0002
0000
0000
0003
0000
0010
0000
0000
0020
0000
0000
0030
0000
,
0100
0000
0000
0100
0000
0000
0000
0000
1000
0000
0001
0000
1000
0000
0000
0000
,
0002
0000
0000
0000
0000
0003
0000
0200
0000
0000
0000
0000
0300
0000
0000
0000
,
0010
2000
0000
3001
,
0000
0020
0000
0130
,
0000
2000
0000
3001
,
2000
0000
0000
3001
0000
0010
0000
0200
,
0000
0000
0000
1300
0000
0001
0000
2000
,
0000
3010
0100
0010
,
2000
0000
0000
0000
0000
3002
0000
0020
,
0000
0000
0000
0000
0000
0033
0000
0000
,
0001
0000
0000
0002
0000
0003
0000
0000
,
1000
0000
0000
2000
0000
3000
0010
0000
,
0010
0000
0000
0200
0000
0300
0000
0000
,
0002
0000
0000
1003
0000
0100
0000
2000
,
0000
0000
0000
0000
,
0000
3001
0000
0100
0000
0000
0001
0000
,
2000
0000
0000
0000
3200
0000
0000
0320
,
0000
0000
0000
0031
0000
0000
1000
0000
,
0200
0000
0300
1000
,
0002
0000
0003
1000
,
0020
0000
0000
0000
0030
0000
0000
1000
,
0000
1000
0000
0000
0100
0000
0000
0010
,
0000
0010
0000
0000
0001
0000
0000
0204
,
0000
0000
0000
0000
,
0000
0000
0000
0000
,
0000
0000
0000
0000
0000
0003
0000
0310
;

//---------------dance-single - Ace Of Hearts (2015)----------------
#NOTES:
     dance-single:
     Ace Of Hearts (2015):
     Easy:
     4:
     0.215,0.000,0.004,0.291,0.000:
0000
0000
0000
0000
,
0000
0000
0000
0000
,
0000
0000
0000
0000
,
0000
0000
0000
0000
,
0000
0000
0000
0000
,
1000
0000
1000
0000
,
0001
0000
0001
0000
,
0010
0000
0010
0000
,
0100
0000
0100
0000
,
2000
0000
0000
0000
,
3000
0000
0001
0000
,
0002
0000
2003
0000
,
3010
0000
0010
0000
,
0020
0000
0030
0000
,
0200
0000
0300
0000
,
0002
0000
0003
0000
,
1000
1000
1000
0000
,
0000
0000
0001
0000
,
0001
0000
0001
0000
,
0000
0000
0010
0000
,
0010
0000
0100
0000
,
0100
0000
1000
0000
,
1000
0000
1000
0000
,
0001
0000
0001
0000
,
0002
0000
2003
0000
,
3000
0000
0010
0000
,
0010
0000
0010
0000
,
0000
0000
0100
0000
,
0100
0000
0001
0000
,
0001
0000
1000
0000
,
1000
0000
1000
0000
,
0100
0000
0100
0000
,
0200
0000
0320
0000
,
0031
0000
0001
0000
,
1000
1000
1000
0000
,
0010
0000
0010
0000
,
0100
0100
0100
0000
,
0001
0000
0001
0000
,
1000
0000
1000
0000
,
2000
0000
0000
3000
,
0010
0010
0010
0000
,
0100
0000
0100
0000
,
0001
0000
0001
0000
,
1000
0000
1000
0000
,
0100
0000
0100
0000
,
0010
0000
0010
0000
,
0001
0000
0001
0000
,
1000
0000
1000
0000
,
2000
0000
3000
0000
,
0010
0000
0010
0000
,
0100
0000
0100
0000
,
0001
0000
0001
0000
,
2000
0000
0000
0000
,
3001
0000
0001
0000
,
0100
0100
0100
0000
,
0020
0000
0000
0000
0000
0030
0000
0000
,
2000
0000
0000
3000
,
0002
0000
0000
0003
0000
0000
0000
0000
2000
0000
0000
3000
0000
0000
0000
0000
,
0200
0300
1000
1000
,
2000
3000
0001
0001
,
0004
0003
0040
0030
,
0000
0001
0001
0001
,
0000
1000
1000
0100
,
0100
0010
0010
0010
,
0100
0100
0200
2300
,
3000
0000
0001
0000
,
0001
0000
0001
0000
,
0000
0000
0100
0000
,
0010
0000
0010
0000
,
0010
0000
1000
0000
,
1000
0000
1000
0000
,
0001
0000
0001
0000
,
0002
0000
2003
0000
,
3010
0000
0010
0000
,
0100
0100
0100
0000
,
0001
0000
0001
0000
,
1000
1000
1000
0000
,
0001
0000
0001
0000
,
0010
0000
0010
0000
,
0020
0000
0000
0030
,
0100
0100
0100
0000
,
1000
0000
1000
0000
,
0001
0000
0001
0000
,
0100
0000
0100
0000
,
0010
0000
0010
0000
,
1000
0000
1000
0000
,
0001
0000
0001
0000
,
0002
0000
0103
0000
,
0200
0000
0300
0000
,
0010
0000
0010
0000
,
1000
0000
1000
0000
,
0001
0000
0001
0000
,
0020
0000
0000
0000
,
0130
0000
0100
0000
,
1000
0000
1000
0000
,
0002
0000
0000
0000
0000
0003
0000
0000
,
0200
0000
0000
0300
,
0020
0030
0200
0300
,
0002
0003
2000
3000
,
0001
0001
1000
1000
,
0100
0100
0010
0010
,
0001
0000
0001
0000
0020
0000
0000
0030
,
0200
0000
1300
0000
,
1000
0000
1000
0000
,
0002
0000
0103
0000
,
0100
0000
0100
0000
,
0020
0000
1030
0000
,
1000
0000
1000
0000
,
0002
0000
0013
0000
,
0010
0000
0010
0000
,
0400
0000
0300
0000
,
0200
0000
1300
0000
,
0002
0000
2003
0000
,
3020
0000
0230
0000
,
0304
0000
0003
0000
,
0002
0000
2003
0000
,
3040
0000
0000
0000
,
0000
0000
0000
0000
,
0000
0000
0000
0000
,
0130
0100
0200
0000
,
0302
0003
2000
3000
,
0200
0300
0020
0030
,
0001
0001
1000
1000
,
0020
0030
0200
0300
,
0000
0002
0000
0003
,
0000
0200
0000
0300
,
0000
0020
0000
0030
,
1000
0000
1000
0000
,
0001
0000
0001
0000
,
0010
0010
0010
0000
,
0200
0000
0000
0000
0000
0300
0000
0000
,
2000
0000
0000
3000
,
0001
0000
0001
0000
,
0100
0000
0100
0000
,
0010
0000
0010
0000
,
2000
0000
0000
0000
,
3002
0000
0000
0000
,
0003
0000
0010
0000
,
0020
0000
0230
0000
,
1300
0000
1000
0000
,
2000
0000
3000
0000
,
0002
0000
0003
0000
,
0200
0000
0300
0000
,
0010
0010
0010
0000
,
1000
1000
1000
0000
,
2004
0000
0000
0000
,
0000
0000
0000
0000
,
0000
0000
0000
0003
,
3001
0000
0000
0000
;

//---------------dance-single - AceOfHearts (2015)----------------
#NOTES:
     dance-single:
     AceOfHearts (2015):
     Beginner:
     2:
     0.123,0.000,0.000,0.179,0.000:
0000
0000
0000
0000
,
0000
0000
0000
0000
,
0000
0000
0000
0000
,
0000
0000
0000
0000
,
0000
0000
0000
0000
,
0001
0000
0000
0000
,
0001
0000
0000
0000
,
1000
0000
0000
0000
,
1000
0000
0000
0000
,
0020
0000
0000
0000
,
0030
0000
0000
0000
,
1000
0000
0000
0000
,
1000
0000
0000
0000
,
0001
0000
0000
0000
,
0001
0000
0000
0000
,
0001
0000
0000
0000
,
0020
0000
0030
0000
,
0001
0000
0000
0000
,
0002
0000
0003
0000
,
1000
0000
0000
0000
,
1000
0000
0000
0000
,
1000
0000
0000
0000
,
0001
0000
0000
0000
,
0001
0000
0000
0000
,
0002
0000
0003
0000
,
0010
0000
0000
0000
,
0010
0000
0000
0000
,
0100
0000
0000
0000
,
0100
0000
0000
0000
,
0100
0000
0000
0000
,
1000
0000
0000
0000
,
1000
0000
0000
0000
,
2000
0000
3000
0000
,
0001
0000
0000
0000
,
0001
0000
0000
0000
,
0100
0000
0000
0000
,
0100
0000
0000
0000
,
0010
0000
0000
0000
,
0010
0000
0000
0000
,
0020
0000
0030
0000
,
2000
0000
3000
0000
,
0001
0000
0000
0000
,
0001
0000
0000
0000
,
0010
0000
0000
0000
,
0010
0000
0000
0000
,
0100
0000
0000
0000
,
0100
0000
0000
0000
,
1000
0000
0000
0000
,
2000
0000
3000
0000
,
0001
0000
0000
0000
,
0001
0000
0000
0000
,
1000
0000
0000
0000
,
2000
0000
3000
0000
,
0010
0000
0000
0000
,
0010
0000
0000
0000
,
2000
0000
3000
0000
,
2000
0000
3000
0000
,
0001
0000
0001
0000
,
0001
0000
1000
0000
,
1000
0000
1000
0000
,
0200
0300
0020
0030
,
0001
0000
0002
0003
,
1000
0000
1000
0000
,
1000
0000
0100
0000
,
0100
0000
0200
0300
,
0010
0000
0000
0000
,
0020
0000
0030
0000
,
0001
0000
0000
0000
,
0001
0000
0000
0000
,
0001
0000
0000
0000
,
1000
0000
0000
0000
,
1000
0000
0000
0000
,
2000
0000
3000
0000
,
0010
0000
0000
0000
,
0010
0000
0000
0000
,
0100
0000
0000
0000
,
0100
0000
0000
0000
,
0001
0000
0000
0000
,
0001
0000
0000
0000
,
0002
0000
0003
0000
,
2000
0000
3000
0000
,
0010
0000
0000
0000
,
0010
0000
0000
0000
,
0100
0000
0000
0000
,
0100
0000
0000
0000
,
0001
0000
0000
0000
,
0001
0000
0000
0000
,
0001
0000
0000
0000
,
0002
0000
0003
0000
,
1000
0000
0000
0000
,
1000
0000
0000
0000
,
0100
0000
0000
0000
,
0200
0000
0300
0000
,
0010
0000
0000
0000
,
0010
0000
0000
0000
,
0020
0000
0030
0000
,
0002
0000
0003
0000
,
1000
0000
1000
0000
,
0001
0000
0001
0000
,
0010
0000
0010
0000
,
0100
0000
0100
0000
,
1000
0000
2000
3000
,
0001
0000
0000
0000
,
0002
0000
0003
0000
,
1000
0000
0000
0000
,
2000
0000
3000
0000
,
0010
0000
0000
0000
,
0020
0000
0030
0000
,
0100
0000
0000
0000
,
0200
0000
0300
0000
,
0004
0000
0000
0000
,
0003
0000
0000
0000
,
1000
0000
0000
0000
,
2000
0000
3000
0000
,
0040
0000
0000
0000
,
0030
0000
0000
0000
,
0400
0000
0000
0000
,
0000
0000
0000
0000
,
0000
0000
0000
0000
,
0300
0000
0000
0000
,
0001
0000
0001
0000
,
1000
0000
1000
0000
,
0100
0000
0100
0000
,
2000
3000
2000
3000
,
0001
0000
0000
0000
,
1000
0000
0000
0000
,
0010
0000
0000
0000
,
0100
0000
0000
0000
,
0001
0000
0000
0000
,
0001
0000
0000
0000
,
0002
0000
0003
0000
,
2000
0000
3000
0000
,
0010
0000
0000
0000
,
0010
0000
0000
0000
,
0100
0000
0000
0000
,
0100
0000
0000
0000
,
0200
0000
0000
0000
,
0300
0000
0000
0000
,
0001
0000
0000
0000
,
0001
0000
0000
0000
,
2000
0000
3000
0000
,
0002
0000
0003
0000
,
0020
0000
0030
0000
,
0002
0000
0003
0000
,
2000
0000
3000
0000
,
0200
0000
0000
0000
,
0000
0000
0000
0000
,
0000
0000
0000
0000
,
0310
0000
0000
0000
;
