#TITLE:Can't Defeat Air Man;
#SUBTITLE:(SoundHolic Version);
#ARTIST:Hanatan;
#TITLETRANSLIT:;
#SUBTITLETRANSLIT:;
#ARTISTTRANSLIT:;
#GENRE:J-Rock;
#CREDIT:Ace Of Arrows;
#BANNER:Can't Defeat Air Man - BN.png;
#BACKGROUND:Can't Defeat Air Man - BG.png;
#LYRICSPATH:;
#CDTITLE:Ace Of Arrows.png;
#MUSIC:Can't Defeat Air Man (SoundHolic Version).ogg;
#OFFSET:0.900;
#SAMPLESTART:61.060;
#SAMPLELENGTH:12.000;
#SELECTABLE:YES;
#BPMS:0.000=175.000,565.000=87.500,573.000=175.000;
#STOPS:;
#BGCHANGES:;
#KEYSOUNDS:;

//---------------dance-single - Ace Of Hearts (2017)----------------
#NOTES:
     dance-single:
     Ace Of Hearts (2017):
     Challenge:
     11:
     0.922,0.493,0.509,1.000,0.376:
0000
0000
0000
0000
0000
0000
0000
1000
,
0100
0010
0002
0000
0000
0000
1003
0020
,
0000
0230
0000
0000
0302
0000
1003
0010
,
1000
0001
0200
0000
0320
0000
2030
0000
,
3002
0000
0013
0100
1000
0002
0000
0103
,
0010
1000
1002
0000
0000
0000
0103
0020
,
0000
2030
0000
0000
3002
0000
0013
0100
,
1000
0001
0200
0000
0320
0000
2030
0000
,
3002
0003
0011
0010
0100
1100
0000
1000
,
0001
0100
0120
0000
2030
0000
3001
0020
,
0030
0210
0000
1300
0001
0001
0100
0010
,
1000
0001
0010
0010
0100
0100
1000
1000
,
0001
0000
0001
0000
0100
0000
0010
0000
1000
0000
0002
0000
0000
0000
0013
0100
,
1000
0100
0010
0000
0012
0000
0000
0000
2003
0000
0000
0000
3010
0000
0200
0000
,
0000
0302
0000
1003
0010
0010
1000
0001
,
0010
0100
1000
1000
0001
0001
0100
0100
,
0010
0000
0010
0000
0100
0000
0001
0000
1000
0000
0100
0010
0100
0010
0001
1000
,
0001
1000
0010
0000
0210
0000
0000
0000
0301
0000
1001
0000
0000
0000
1000
0000
,
0000
0000
1100
0000
0000
0000
0100
0000
0000
0000
0210
0000
1300
0100
1000
0100
,
0010
0001
1001
1000
0000
0000
1010
0010
,
0000
0000
0110
0100
0000
0101
0000
0001
,
0000
2002
0003
0000
3200
0000
0320
0000
,
0031
2001
0000
3010
0400
0000
0300
0001
,
1000
0100
0020
0000
0230
0000
2300
0000
,
3002
0000
0103
0010
1000
0004
0000
0013
,
0100
1000
0002
0000
0203
0000
0320
0000
,
1030
0002
0000
2003
0000
3010
0100
0001
,
1000
0100
2000
0000
0001
0000
0200
0300
,
0001
0000
0020
0000
0000
0000
0000
0000
3030
0000
1000
0001
1000
0001
0010
0100
,
0010
0100
1000
0001
0020
0000
0000
0000
0230
0000
0000
0000
2300
0000
3002
0000
,
0103
0120
0000
2030
3001
0021
0000
0130
,
2000
3001
0201
0000
0310
1000
0001
0020
,
0130
2100
0000
3002
0103
0020
1030
0001
,
0020
0031
2001
0000
0000
3400
0000
0320
,
0031
2000
3010
0200
0301
2000
3200
0320
,
0031
1000
1020
0130
0001
1000
1100
0100
,
0010
0011
0000
1001
1000
1010
0000
0101
,
0001
1000
0001
1000
0200
0000
0000
0000
0310
0000
0001
0000
1000
0000
0020
0000
,
0130
0002
1003
0200
0000
2300
0000
3001
,
0200
0310
0200
0002
0300
1003
0100
0020
,
0031
1000
1020
0000
0230
0000
0302
0000
,
2003
0000
0000
3000
1200
0000
0000
0000
0320
0000
0000
0030
0012
0000
0003
0000
,
1000
0010
0210
0000
0302
0000
2003
0000
,
3100
0000
0010
0000
0011
0000
0001
0000
1000
0010
1000
0010
0100
0001
0100
0001
,
1000
0100
0010
0100
2000
0000
0000
0000
3002
0000
0000
0000
0203
0000
0000
0000
,
0320
0000
0000
0030
2M20
0000
003M
0000
3M01
0000
0010
0000
0100
0000
2000
0000
,
0000
3000
102M
0000
0M00
0000
M130
0000
0002
0000
0000
0000
1003
0000
0100
0000
,
0010
0100
21M0
000M
3M02
0000
0203
0000
,
0310
1000
10M1
0M01
M010
0210
0300
1000
,
0001
1000
102M
0M00
M000
0000
0130
0002
,
0003
20M1
0M00
310M
0010
0001
1000
0010
,
1000
0001
0M11
M010
010M
0100
1100
1000
,
0001
0001
10M1
0M01
M100
0101
0000
0001
,
1000
0100
0010
0100
200M
0000
00M0
0000
3M01
0000
0000
0000
0010
0000
0100
0000
,
0000
21M0
000M
3M01
0100
0010
1000
0001
,
0010
0100
M010
0M01
10M0
0010
0100
0001
,
1000
002M
0M00
M130
0001
1001
0000
1000
,
0100
0010
0001
0010
0100
1000
0000
0004
,
0000
2003
0000
3010
0100
0104
0003
1000
,
0100
0010
0001
0010
0200
0000
0000
0000
2300
0000
0000
0000
3001
0000
0100
0000
,
0001
0000
2000
0000
3010
0100
0010
0100
0001
1000
0001
1000
0100
0010
0100
1000
,
0001
0000
0010
0000
0100
1000
0002
0000
0000
0000
0000
0000
1003
0000
0010
0000
,
0000
0210
0301
1000
0001
0200
0000
0301
,
1000
0100
0110
0000
0010
0000
0011
0001
,
1000
0010
0110
0100
0001
2001
0000
3100
,
0010
0001
0201
0000
0310
0000
0000
1010
,
0000
0000
2000
0000
0000
0000
3001
0000
1000
0100
0010
0100
1000
0000
0001
0100
,
0010
1000
0010
0100
0001
0000
1000
0000
0100
0000
0010
0000
0100
0000
1000
0000
,
0001
0000
0100
0000
0110
0000
0010
0000
1000
0000
1020
0000
0000
0000
0130
0001
,
1000
0100
1000
0001
0200
0000
0000
0000
0302
0000
0000
0000
2003
0000
3020
0000
,
0000
0000
0230
0000
0000
0000
0302
0000
1003
0100
0020
0000
0034
0000
0000
0000
,
1003
0400
0000
0310
0001
1000
0010
0010
,
1000
0000
0001
0000
0010
0000
0100
1000
0100
0010
0004
0000
0000
0000
0000
0000
,
1003
0010
0220
0030
0301
1000
0000
0100
,
0000
0220
0300
0031
1000
2020
3000
0130
,
0001
0000
1000
0000
0200
0000
0310
0001
0010
0001
1000
0001
0020
0000
0130
1000
,
0001
0000
0100
0000
0000
0000
0110
0000
0000
0000
1010
0000
1000
0100
1000
0001
,
0100
0001
1000
0100
4000
0000
0000
0000
0001
0000
0010
0000
0000
0000
0001
0000
,
0000
0000
0100
0000
0000
0000
0001
0000
0000
0000
3010
0000
1000
0010
0100
0010
,
2000
3000
1001
0001
0000
0000
0011
0010
,
0000
0000
0110
0100
0000
1100
0000
1001
,
0000
0202
0000
0003
0320
0000
2030
0000
,
3001
0021
0000
0130
4000
0000
3000
0001
,
0100
0010
0200
0000
0302
0000
1003
0100
,
0020
0000
0230
0000
1300
0002
0000
1003
,
0010
0100
0020
0000
2030
0000
3002
0000
,
0013
0200
0000
1300
0002
0000
0103
0010
,
1000
0001
0200
0000
0020
0030
0002
0003
,
0001
0000
0320
0000
1030
0001
1000
0001
0100
0010
0100
0010
1000
0001
1000
0001
,
0010
0100
0010
0100
2000
0000
0000
0000
3002
0000
0013
0000
0100
0000
0020
0000
,
0031
2001
0000
3020
0130
0102
0000
1003
,
0200
0310
0012
0000
1003
0010
0100
0002
,
1003
1200
0310
0001
1000
0010
0100
0010
,
1000
0001
0201
0310
1000
0004
0000
0023
,
0130
2000
3001
0200
0310
2000
3001
0010
,
0100
1000
1002
0103
0010
1000
0001
0010
,
0100
0000
1100
0000
0000
0000
1002
0000
0000
0003
0201
0000
0000
0000
0310
1000
,
0001
1000
0100
0000
0120
0000
0000
0000
0031
0000
2000
0000
0000
0000
3200
0000
,
0301
0100
2000
3002
0000
0403
0000
0310
,
2000
3001
0021
0000
0030
0210
0000
1300
,
0001
0000
0100
0000
0120
0000
0000
0000
2030
0000
0000
3000
1002
0000
0000
0000
,
0013
0000
0100
0000
2100
0000
0000
0000
3002
0000
0000
0003
0201
0000
0300
0000
,
0010
0000
1000
0000
1002
0000
0000
0000
0023
0000
0000
0030
0210
0000
1300
0000
,
0001
0000
0100
0000
0010
0000
1000
0000
0001
0010
0001
0010
0100
1000
0100
1000
,
0001
1000
0001
1000
0200
0000
0000
0000
0000
0000
0000
0000
0300
0000
0000
0000
,
0000
0000
M120
000M
0M32
0000
1003
0010
,
0100
M102
0M00
10M3
0100
1000
0001
0100
,
0010
1000
0M02
00M0
M023
0000
0230
0000
,
13M0
M001
100M
0010
0001
0020
0030
1000
,
0001
0010
M210
00M0
230M
0000
3001
0200
,
0300
M120
0M00
103M
0001
0010
0001
0100
,
0010
1000
0M01
M010
100M
0010
0001
0100
,
1000
0000
0100
0000
0M01
0000
10M0
0000
001M
0000
0100
0000
0000
0000
0001
1000
,
0100
1000
0001
0100
002M
0000
M000
0000
2M30
0000
0000
0000
3001
0000
0020
0000
,
0000
0030
021M
0000
M000
0000
13M0
0000
0001
0000
0100
0000
1000
0000
0100
0000
,
0001
1000
M200
00M0
031M
0001
2000
0000
,
3001
0010
10M0
0M10
M001
2001
3000
0010
,
0100
0001
1000
0100
0010
0001
0000
4000
,
0000
0000
3020
0000
0000
0000
0130
0000
0001
0000
0041
0000
0030
0000
0100
1000
,
0001
0100
0001
1000
0200
0000
0000
0000
0320
0000
0000
0030
0011
0000
0001
0000
,
1000
0000
1010
0000
0010
0100
0010
0100
0001
1000
0100
1000
0001
0100
0010
0100
,
0001
1000
0010
0100
0020
1000
0000
1000
,
0000
0100
0000
0100
0000
1000
0000
1000
,
0000
0000
0130
0001
2000
0000
0100
0000
0000
0000
0001
0000
0100
0000
3001
0000
,
0000
0000
0101
0000
0000
0000
0100
0010
0100
0000
0001
0000
1000
0100
0010
0100
,
2000
3000
1002
0000
0103
0120
0000
2030
,
0000
0000
3001
0010
0002
0000
2003
0000
0000
3000
1200
0000
0000
0000
0000
0000
,
0310
0001
1000
0001
0010
0100
1000
0100
0020
0000
0031
1000
0010
0100
0010
1000
,
0002
0000
1003
0010
0100
0001
0100
0010
1000
0001
1000
0100
0040
0000
0000
0000
,
0000
0000
0130
1000
0002
0000
0103
0000
0010
0000
2000
0000
0000
0000
3100
0000
,
0010
0000
0002
0000
0000
0000
1003
0010
0100
0000
0001
0000
1000
0000
0010
0000
,
0200
0000
0000
0301
1000
0100
1000
0001
0100
0010
1000
0001
,
0010
0000
0000
0000
0100
0000
0000
0000
1000
0000
0000
0000
0001
0000
0000
0000
0000
0000
0002
0000
0000
0000
0000
0000
0000
0000
0000
0000
0000
0000
1003
0000
0000
0100
0000
0000
4000
0000
0000
0000
0000
0000
0000
0000
0000
0000
0000
0000
,
3001
0100
0010
0000
2000
0000
3010
0000
0020
0000
0130
0000
0002
0000
0000
2003
,
0000
3010
0020
0130
0001
2000
0000
0000
,
3000
0000
0002
0000
0000
0000
0013
0000
0100
0000
1000
0001
0100
0000
0010
0000
,
1000
0002
0000
0013
0100
2000
0000
0000
,
3001
0000
0000
0010
0000
0000
0100
0000
0000
0000
0000
0000
0010
0000
0000
0000
0001
0000
0000
0000
1000
0000
0000
0000
0010
0000
0000
0000
0100
0000
0000
0000
0001
0000
0000
0000
1000
0000
0000
0000
0100
0000
0000
0000
0010
0000
0000
0000
,
0001
1000
0010
0100
0001
1000
0100
1000
0001
0040
0000
0000
,
0000
0000
0000
0000
0000
0000
0031
0000
0000
1000
0000
0000
0004
0000
0400
0000
0000
0000
0000
0000
0000
0000
0000
0000
0000
0000
0000
0000
0000
0000
0000
0000
0000
0000
0000
0000
0000
0000
0000
0000
0000
0000
0000
0000
0000
0000
0000
0000
,
0303
0000
0100
0010
1000
0010
0100
0000
0001
0000
1000
0000
0100
0010
0100
0010
,
0001
1000
0001
1000
0100
0010
0001
0010
0100
1000
0001
0100
0010
2000
0000
3002
,
0003
0010
0100
1000
0001
0200
0000
0310
1000
0001
0010
0100
2200
3300
2002
3003
,
0202
0000
0303
0000
0100
0001
0100
0002
0200
0000
0000
0000
0000
0000
0000
0000
1000
0000
0000
0000
0000
0000
0000
0000
0010
0000
0000
0000
0303
0000
0000
0000
,
0001
1000
2200
0000
0010
0000
0001
3300
,
1001
0001
2002
0000
0010
0000
0100
0000
,
0010
0000
3003
0000
1000
0000
0010
0000
1000
0001
0100
0001
1000
0100
0010
0001
,
0010
0100
1000
0001
M200
0000
030M
0000
22M2
0000
3303
0000
1000
0000
22MM
0000
,
3300
222M
3330
0010
M220
0030
1300
1001
,
0001
0100
0010
0100
00M2
0000
M000
0000
2M03
0000
0000
0000
3020
0000
0000
0000
,
1030
M001
0M10
100M
0010
0002
0003
1000
,
0010
0000
0100
0000
01M2
0000
M000
0000
2M03
0000
0000
3000
1200
0000
0320
0000
,
0000
0030
M012
0000
00M0
0000
1M03
0000
0010
0000
0100
0000
0010
0000
1000
0000
,
0001
0000
0010
0000
0100
M00M
0100
0000
0010
M00M
0010
0000
0100
M00M
0100
0000
,
0010
M00M
0010
0000
0011
0000
0001
0000
1000
0000
1100
0000
0000
0000
0100
0010
,
0001
0010
0100
1000
00M2
0000
0M00
0000
M203
0000
0000
0000
0310
0000
2000
0000
,
0000
3000
12M0
0000
M000
0000
031M
0000
0011
0000
0001
0000
1001
0000
1000
0000
,
1010
0000
0010
0000
0100
M00M
0100
0000
0010
M00M
0010
0000
0200
0000
0000
0000
,
0301
2001
0000
3100
0001
0200
0300
1000
,
0001
0100
0010
0100
1000
0100
0000
0040
,
0000
2030
0000
3001
0010
0410
0000
1300
,
0001
0100
0010
0100
0002
MMM0
M003
M000
MM02
M000
MMM0
0000
0013
0000
0100
0000
,
1000
0000
0002
0000
1003
0100
1000
0100
0010
0001
0010
0001
1000
0010
1000
0010
,
0100
0000
0001
0000
1000
0100
2000
0000
0000
0000
0000
0000
0001
0000
0020
0000
,
0030
0002
0003
0100
0001
0001
0010
0010
,
0001
0000
0001
0000
3100
M00M
0100
0000
0010
M00M
0010
0000
0100
M00M
0100
0000
,
0010
M00M
0010
0000
0001
0000
1000
0000
0010
0000
0210
0000
0302
0000
1003
0000
,
0200
0310
0012
0000
1000
0000
0103
0020
,
0030
2020
0030
3001
0010
0010
0001
1000
,
0010
0000
1000
0000
0010
M00M
0010
0000
0100
M00M
0100
0000
0010
M00M
0010
0000
,
0100
M00M
0100
0000
0002
0000
0000
0000
0000
0000
1003
0100
0040
0000
0000
0000
,
0130
1000
0001
1000
0200
0000
0000
0000
0310
0000
0012
0000
0000
0000
2003
0000
,
0000
3000
1200
0000
0000
0000
0000
0000
0310
0000
0012
0000
0000
0000
0000
0000
,
1003
0010
2000
0000
0000
0000
0000
0000
3001
0000
0200
0000
0000
0000
0310
0000
,
1000
0000
0002
0000
0000
0000
1003
0000
0100
0010
0002
0000
2003
0000
3010
0100
,
0001
0100
0010
1000
0002
0000
0000
0000
0023
0000
0130
0000
2000
0000
3001
0100
,
0010
2010
0000
3001
0010
0400
0000
0000
,
2300
0000
3001
0100
0010
0000
1000
0000
0001
0000
0001
0000
0010
0000
0010
0000
,
0100
0000
0100
0000
1000
0000
0001
0000
0100
0000
0020
0000
1030
0001
1000
0001
,
0010
0100
0010
0100
2000
0000
0000
0000
3001
0000
0101
0000
0000
0000
0100
0000
,
0000
0000
0110
0000
0000
0000
0010
0000
0000
0000
2010
0000
3001
0010
0100
0010
,
0001
1000
1010
0010
0000
0000
0110
0100
,
0000
0000
0101
0001
0000
1001
0000
1100
,
0000
0022
0000
0000
0000
0000
0000
0000
,
0000
0000
0000
0000
,
0000
0000
0000
0000
,
0000
0000
0000
0000
,
0000
0000
0000
0000
,
0033
0000
0000
0000
;

//---------------dance-single - AceOfArrows (2017)----------------
#NOTES:
     dance-single:
     AceOfArrows (2017):
     Hard:
     9:
     0.697,0.493,0.105,0.939,0.116: // measure 1
0000
0000
0000
0000
0000
0000
0000
1000
,  // measure 2
0100
1000
0002
0000
0000
0000
1003
0010
,  // measure 3
0000
0200
0000
0000
0302
0000
1003
0100
,  // measure 4
0010
0100
2000
0000
3002
0000
0203
0000
,  // measure 5
0320
0000
1030
0001
1000
0200
0000
0310
,  // measure 6
0001
1000
0002
0000
0000
0000
1003
0010
,  // measure 7
0000
0200
0000
0000
0302
0000
1003
0100
,  // measure 8
1000
0001
2000
0000
3020
0000
0230
0000
,  // measure 9
0302
0000
1003
0100
0010
0001
0000
1000
,  // measure 10
0010
1000
0002
0000
2003
0000
3100
0020
,  // measure 11
0000
0230
0000
1300
0001
0001
1000
0010
,  // measure 12
0100
0001
1000
1000
0100
0100
0010
0010
,  // measure 13
0001
0001
1000
0010
1000
0002
0000
1003
,  // measure 14
0100
0010
0002
0000
2003
0000
3010
0200
,  // measure 15
0000
0302
0000
1003
0100
0100
1000
0001
,  // measure 16
0100
0010
1000
1000
0001
0001
0010
0010
,  // measure 17
0100
0000
0100
0000
1000
0000
0001
0000
0100
0000
0004
0400
0000
0000
0000
0000
,  // measure 18
0000
0303
0200
0000
0310
1000
0000
0001
,  // measure 19
0000
0000
1000
0000
0000
0000
0100
0000
0000
0000
0010
0000
0004
4000
0000
0000
,  // measure 20
3003
0000
1000
1000
0000
0000
0010
0010
,  // measure 21
0000
0000
0100
0100
0000
0001
0000
1000
,  // measure 22
0000
1200
0000
0000
0310
0000
0002
0000
,  // measure 23
1003
0010
0000
0100
0004
0000
0003
1000
,  // measure 24
0100
0010
0200
0000
2300
0000
3002
0000
,  // measure 25
0203
0000
0310
1000
0010
0400
0000
0301
,  // measure 26
1000
0001
0020
0000
0230
0000
2300
0000
,  // measure 27
3001
0200
0000
0302
0000
1003
0100
0010
,  // measure 28
0100
1000
0002
0000
2003
0000
3020
0000
,  // measure 29
0130
0000
0002
0000
0000
0000
4003
0400
0000
0000
0000
0000
0000
0000
0000
0000
,  // measure 30
0000
3300
2000
0000
3001
0000
0100
0010
,  // measure 31
0100
0002
0000
1003
0100
0020
0000
0031
,  // measure 32
1000
0001
0200
0000
0320
0000
2030
0000
,  // measure 33
3002
0000
1003
0100
0010
0001
0010
0100
,  // measure 34
1000
0001
2000
0000
0000
3004
0000
0000
,  // measure 35
0203
0320
2030
3002
,  // measure 36
0023
0000
0130
1000
0001
0100
0001
1000
,  // measure 37
0100
0010
0000
0001
0000
1000
0000
0040
,  // measure 38
0000
0000
0230
0000
0301
1000
0001
0010
,  // measure 39
0100
1000
0001
2000
0000
3200
0000
0310
,  // measure 40
0001
0010
0100
2000
0000
3001
0100
0010
,  // measure 41
0100
0001
2000
0000
3200
0000
0320
0000
,  // measure 42
0032
2003
3020
0130
,  // measure 43
0001
1000
0200
0000
0320
0000
0031
0000
,  // measure 44
1000
0000
0010
0000
0100
0000
0001
0000
4000
0040
0000
0000
0000
0000
0000
0000
,  // measure 45
0000
3030
2000
3002
,  // measure 46
0023
0030
0210
0000
0000
0000
1300
0002
,  // measure 47
0000
0203
0000
0310
2000
0000
3001
0010
,  // measure 48
0100
1000
0002
0000
2003
0000
3020
0000
,  // measure 49
0130
0001
1000
0100
0010
0100
0000
1000
,  // measure 50
0001
0100
0020
0000
0000
0000
1030
0002
,  // measure 51
0000
0203
0000
0310
1000
0001
0010
0100
,  // measure 52
1000
0001
0100
0100
0010
0010
1000
1000
,  // measure 53
0001
0001
0010
0100
0010
0001
0000
1000
,  // measure 54
0010
0100
0002
0000
0003
0000
1000
0200
,  // measure 55
0000
0320
0000
0130
1000
0001
0100
0010
,  // measure 56
0100
0001
1000
0100
0010
0100
2000
0000
,  // measure 57
3001
0020
0000
0031
1000
0100
0000
1000
,  // measure 58
0001
0100
0010
0100
0001
1000
0000
0004
,  // measure 59
0000
0023
0000
0130
0010
0100
0000
1000
,  // measure 60
0001
1000
0020
0000
0130
0000
0001
1000
,  // measure 61
0100
0010
0000
0001
1000
0010
1000
0000
,  // measure 62
0001
0000
1000
0000
0001
0010
0002
0000
0000
0000
0000
0000
1003
0000
0020
0000
,  // measure 63
0000
0230
0000
0301
1000
0200
0000
0310
,  // measure 64
0001
1000
0001
0000
0010
0000
0100
0010
,  // measure 65
0001
1000
0001
0100
0010
2000
0000
3001
,  // measure 66
0010
0100
0000
0000
1100
0000
0000
1000
,  // measure 67
0000
0000
0002
0000
0000
0000
1003
0000
0100
0010
0100
0000
1000
0000
0001
0000
,  // measure 68
1000
0100
0010
0100
1000
0001
0100
0020
,  // measure 69
0000
1030
0001
0010
0100
2000
0000
0004
,  // measure 70
3000
0000
0023
0000
0230
0000
1300
0002
,  // measure 71
0000
0000
0203
0000
0000
0000
0301
0000
1000
0100
1000
0000
0004
0000
0000
0000
,  // measure 72
1003
0400
0000
1300
0001
0100
0010
0100
,  // measure 73
0001
0000
2000
0000
0000
0000
3001
0010
0001
0000
4000
0000
0000
0000
0000
0000
,  // measure 74
3001
0100
0020
0000
1030
0001
0000
0010
,  // measure 75
0000
0200
0000
1300
0001
2000
0000
3001
,  // measure 76
0100
0000
0010
0000
0200
0000
0301
0100
0002
0000
1003
0100
2000
0000
3001
0010
,  // measure 77
0002
0000
1003
0000
0000
0000
0010
0000
0000
0000
0100
0000
0000
0000
0004
4000
,  // measure 78
0000
0000
0000
3003
0002
0000
0000
0000
1003
0000
0100
0000
0000
0000
0010
0000
,  // measure 79
0000
0000
0100
0000
0000
0000
1000
0000
0000
0000
0004
0040
0000
0000
0000
0000
,  // measure 80
0033
0000
0001
0001
0000
0000
1000
1000
,  // measure 81
0000
0000
0010
0010
0000
0100
0000
0001
,  // measure 82
0000
2001
0000
0000
3200
0000
0320
0000
,  // measure 83
0130
2000
0000
3001
0400
0000
0300
0010
,  // measure 84
0100
0001
2000
0000
3200
0000
0310
0001
,  // measure 85
0020
0000
0230
0000
1300
0002
0000
1003
,  // measure 86
0010
0100
0002
0000
2003
0000
3200
0000
,  // measure 87
0310
0002
0000
1003
0020
0000
1030
0001
,  // measure 88
0010
0100
2000
0000
3002
0000
0023
0000
,  // measure 89
0130
0000
2000
0000
0000
0000
3004
0400
0000
0000
0000
0000
0000
0000
0000
0000
,  // measure 90
0000
0303
0220
0300
2030
0000
3001
0010
,  // measure 91
0001
2000
0000
3010
0100
0002
0000
1003
,  // measure 92
0100
0010
0200
0000
2300
0000
3002
0000
,  // measure 93
0203
0000
0310
1000
0001
0010
0100
1000
,  // measure 94
0001
0100
0002
0000
0000
4003
0000
0000
,  // measure 95
3200
0320
0032
2003
,  // measure 96
3020
0000
0130
0001
1000
0100
0010
0100
,  // measure 97
1000
0001
0000
0201
0000
0320
0000
1030
,  // measure 98
0004
0000
0023
0000
0130
2000
0000
3001
,  // measure 99
0100
0010
1000
0002
0000
0403
0000
0310
,  // measure 100
1000
0001
0020
0000
0000
0230
0000
1300
,  // measure 101
0001
0100
0020
0000
0230
0000
0302
0000
,  // measure 102
2003
3100
0020
0031
,  // measure 103
1000
0010
0100
0000
0002
0000
1003
0000
,  // measure 104
0100
0000
0010
0000
0100
0000
1000
0000
0004
0400
0000
0000
0000
0000
0000
0000
,  // measure 105
0000
0303
0002
0000
2003
0000
3200
0000
,  // measure 106
0320
0030
0012
0000
0000
0000
1003
0010
,  // measure 107
0000
0200
0000
0301
1000
0100
0010
0100
,  // measure 108
1000
0001
0200
0000
0320
0000
2030
0000
,  // measure 109
3001
0010
0001
1000
0010
0100
0000
0001
,  // measure 110
1000
0100
0120
0000
0000
0000
0031
1000
,  // measure 111
0000
0020
0000
0130
0001
1000
0100
0010
,  // measure 112
0100
1000
0001
0001
0100
0100
0010
0010
,  // measure 113
1000
1000
0001
0010
0100
1000
0000
0001
,  // measure 114
0100
0010
2010
0000
3000
0000
0001
0010
,  // measure 115
0000
0200
0000
1300
0001
0100
0010
1000
,  // measure 116
0010
0100
0002
0000
1003
0100
0020
0000
,  // measure 117
0130
1000
0001
0100
0010
0100
0000
0001
,  // measure 118
1000
0100
0010
0100
1000
0001
0000
0400
,  // measure 119
0000
0320
0000
1030
0001
0200
0300
0001
,  // measure 120
1000
0100
2000
0000
3001
0100
0010
1000
,  // measure 121
0001
0020
0000
0130
1000
0001
0200
0000
,  // measure 122
0310
1000
0001
0200
0002
0000
0000
0000
,  // measure 123
0000
0000
0000
0000
,  // measure 124
0303
0000
2002
0000
3003
0000
0001
0010
,  // measure 125
0000
0000
0200
0000
0000
0000
0310
0000
0001
0000
1000
0000
0040
4000
0000
0000
,  // measure 126
3030
0000
0020
0000
1030
0002
0000
2003
,  // measure 127
0000
0000
3001
0100
0001
0000
2000
0000
0000
0000
3200
0000
0000
0000
0000
0000
,  // measure 128
0320
0000
0000
0000
0034
4000
0000
0000
0000
0000
0000
0000
0000
0000
0000
0000
,  // measure 129
0000
0000
0000
0000
0000
0000
0000
0000
0000
0000
0000
3003
4000
0000
0000
0000
,  // measure 130
0000
0000
3010
0100
0010
0000
1000
0000
0001
0000
0200
0000
0000
0000
0301
0000
,  // measure 131
1000
0002
0000
0013
0100
2000
0000
3001
,  // measure 132
0200
0000
0000
0301
1000
0001
1000
0100
1000
0001
0010
0001
,  // measure 133
1000
0000
0000
0000
0010
0000
0000
0000
1000
0000
0000
0000
0001
0000
0000
0000
0000
0000
0020
0000
0000
0000
0000
0000
0000
0000
0000
0000
0000
0000
0031
0000
0000
1000
0000
0000
0004
0000
0000
0000
0000
0000
0000
0000
0000
0000
0000
0000
,  // measure 134
0003
0000
0000
0000
1000
0000
0010
0000
0010
0000
0100
0000
0002
0000
0000
0203
,  // measure 135
0000
0310
1000
0001
1000
0020
0000
0000
,  // measure 136
0030
0000
2000
0000
0000
0000
3001
0000
0010
0000
0100
0010
0100
0000
1000
0000
,  // measure 137
0001
0100
0001
1000
0100
2000
0000
0000
,  // measure 138
3001
0000
0000
0010
0000
0000
0001
0000
0010
0000
0001
0000
1000
0000
0100
0000
1000
0000
0001
0000
0100
0000
0001
0000
,  // measure 139
1000
0010
1000
0001
1000
0001
0010
0100
0010
0004
0000
0000
,  // measure 140
0000
0000
0000
1003
0000
0000
0040
0400
0000
0000
0000
0000
0000
0000
0000
0000
0000
0000
0000
0000
0000
0000
0000
0000
,  // measure 141
0330
0000
0010
0000
1000
0001
1000
0000
0100
0000
0040
0000
0000
0000
0000
0000
,  // measure 142
0000
0000
0000
0000
0031
1000
0001
1000
0010
0100
0010
1000
0001
0010
0000
0200
,  // measure 143
0000
1300
0100
1000
0001
0020
0000
0031
1000
0001
0010
0100
2100
0000
3002
0000
,  // measure 144
0203
0000
0000
0000
0340
0000
0000
0030
2010
0000
0000
0000
0000
0000
0000
0000
3002
0000
0000
0000
0000
0000
0000
0000
0013
0000
0000
0000
0000
0000
0000
0000
,  // measure 145
0100
1000
1002
0000
0203
0000
0310
0000
,  // measure 146
1000
0001
0021
0000
0032
0000
2003
0000
,  // measure 147
3020
0000
0000
0000
0130
0000
0001
0000
4000
0400
0000
0000
0000
0000
0000
0000
,  // measure 148
0000
0000
3300
0000
2000
0000
0000
3000
1002
0000
0000
0000
0103
0000
0120
0000
,  // measure 149
0000
2030
0000
3001
0021
0000
0130
1000
,  // measure 150
0001
0100
0010
0000
2000
0000
3002
0000
,  // measure 151
1003
0010
0100
0001
0100
0010
0000
1000
,  // measure 152
0001
0010
0210
0000
0000
0000
1300
0002
,  // measure 153
0000
0203
0000
0310
1000
0001
0010
0001
,  // measure 154
1000
0010
0100
0100
0001
0001
1000
1000
,  // measure 155
0100
0000
0100
0000
0010
0000
0001
0000
0010
0000
0100
0000
0000
0000
4000
0004
,  // measure 156
0000
0000
0000
3003
0002
0000
0000
0000
0003
0000
0000
0000
0100
0000
0020
0000
,  // measure 157
0000
2030
0000
3001
0010
0100
1000
0001
,  // measure 158
0100
0010
1000
1000
0001
0010
0200
0000
,  // measure 159
0310
0012
0000
1003
0010
0100
0000
0010
,  // measure 160
1000
0001
0010
0100
1000
0001
0000
0400
,  // measure 161
0000
0302
0000
1003
0100
0040
0000
0031
,  // measure 162
1000
0010
0200
0000
0302
0000
1003
0100
,  // measure 163
0010
0200
0000
1300
0001
0100
0020
0000
,  // measure 164
1030
0000
0001
0000
0010
0100
0020
0000
0000
0000
0000
0000
0031
0000
2000
0000
,  // measure 165
0000
3002
0000
0103
0010
0010
1000
0001
,  // measure 166
0010
0100
1000
1000
0001
0001
0100
0100
,  // measure 167
0010
0010
1000
0010
0100
0001
2000
0000
,  // measure 168
3200
0000
0320
0000
0000
0000
0130
2000
,  // measure 169
0000
3002
0000
1003
0010
0010
0100
0001
,  // measure 170
1000
0100
0010
0010
0001
0001
1000
1000
,  // measure 171
0010
0000
0010
0000
0200
0000
0000
0000
0000
0000
0301
0100
0002
0000
0000
0000
,  // measure 172
4003
0000
3200
0000
0310
0200
0000
2300
,  // measure 173
0000
3002
0000
0000
1003
0200
0000
0000
,  // measure 174
0310
0001
0020
0000
0000
0000
0000
0000
0130
0000
2000
0000
0000
0000
3001
0000
,  // measure 175
0100
0002
0000
1003
0100
0010
0002
0000
,  // measure 176
2003
0000
3010
0100
0001
1000
0100
0020
,  // measure 177
0000
0230
0000
1300
0001
4000
0000
0000
,  // measure 178
3001
0100
0010
0100
0001
1000
0100
0100
,  // measure 179
0010
0000
0100
0000
1000
0000
0001
0000
0100
0000
0040
4000
0000
0000
0000
0000
,  // measure 180
0000
3030
1002
0000
0013
0100
0000
1000
,  // measure 181
0000
1001
0000
0001
0000
0401
0000
0000
,  // measure 182
0300
0000
0110
0010
0000
0000
1010
1000
,  // measure 183
0000
0000
1001
0001
0000
0011
0000
1001
,  // measure 184
0000
2020
0000
0000
0000
0000
0000
0000
,  // measure 185
0000
0000
0000
0000
,  // measure 186
0000
0000
0000
0000
,  // measure 187
0000
0000
0000
0000
,  // measure 188
0000
0000
0000
0000
,  // measure 189
3030
0000
0000
0000
;

//---------------dance-single - AceOfArrows (2017)----------------
#NOTES:
     dance-single:
     AceOfArrows (2017):
     Medium:
     7:
     0.524,0.317,0.004,0.823,0.009:
0000
0000
0000
0000
,
1000
0100
2000
0000
3000
0000
0001
0010
,
0000
0002
0000
0000
1003
0000
0001
0100
,
0001
1000
0001
0010
,
0001
0000
1000
0000
0001
0200
0000
0000
,
0301
1000
0002
0000
0003
0000
1000
0100
,
0000
0020
0000
0000
0031
0000
1000
0010
,
1000
0001
0010
0001
,
1000
0000
0001
0000
1000
0010
0000
0000
,
1000
0001
2000
0000
0000
0000
3001
0020
,
0000
0230
0000
0000
0310
0000
0001
0000
,
1000
0000
0001
0010
0001
0000
1000
0100
,
1000
0000
0001
0000
1000
0020
0000
0000
,
1030
0001
2000
0000
0000
0000
3001
0020
,
0000
0230
0000
0310
0001
0000
1000
0000
,
0010
0000
1000
0001
1000
0000
0001
0100
,
0001
0000
1000
0000
0100
0040
0000
0000
,
0000
0000
0032
0000
1003
0010
0000
1000
,
0000
0001
0000
0010
0000
0001
0000
0001
,
0000
0000
1000
0010
0000
0000
1000
0001
,
0000
0000
1000
0100
0000
0010
0000
0001
,
0000
2000
0000
0000
3001
0000
0020
0000
,
0031
2000
0000
3001
0400
0000
0000
0301
,
1000
0002
0023
0230
,
2300
0000
3002
0000
1003
0100
0000
0000
,
1000
0100
2000
0000
3001
0000
0100
0000
,
0010
0200
0000
0302
0000
0000
1003
0100
,
1000
0002
0000
0000
,
0000
4003
0000
0000
,
0000
3000
0001
2000
,
3010
0100
0000
0010
2000
0000
3000
0001
,
0010
0001
2000
3020
,
0230
0000
0301
1000
0001
0000
1000
0100
,
1000
0000
0002
0000
0000
0403
0000
0000
,
0320
2030
3002
2003
,
3200
0000
0320
0000
0000
0031
2000
0000
,
0000
0000
0000
0000
,
3000
0000
0002
0000
0013
0100
0010
0000
,
0001
0000
1000
0010
0000
2000
0000
3001
,
0010
0000
0001
2000
0000
0000
3001
0010
,
0001
2000
3020
2030
,
3002
1003
0200
0310
,
0001
0010
0001
0000
2000
0000
3010
0000
,
1000
0001
2000
0000
3200
0000
0320
0000
,
0032
2003
3020
0230
,
0302
0000
2003
0000
0000
0000
3001
0020
,
0000
0230
0000
1300
0002
0000
1003
0100
,
1000
0001
1000
0010
,
1000
0000
0001
0000
1000
0200
0000
1300
,
0001
0000
2000
0000
0000
0000
3001
0100
,
0000
0020
0000
0000
0130
0001
0100
0000
,
0010
0000
1000
0001
1000
0000
0001
0100
,
0001
0000
1000
0000
0001
0010
0000
0000
,
0001
1000
0002
0000
0000
0000
1003
0010
,
0000
0200
0000
0000
0301
0100
0001
0000
,
1000
0000
0100
0010
0100
0000
1000
0000
,
0001
0200
0000
0301
1000
0001
0000
0000
,
1000
0100
2000
0000
3001
0010
0000
0400
,
0000
0320
0000
0031
1000
0001
0000
0000
,
1000
0100
2000
0000
3001
0000
0200
0000
,
0301
2000
0000
0000
3001
0010
0001
0000
,
1000
0100
2000
0000
0000
0000
0000
0000
,
0000
0000
0000
0000
0000
0000
0000
0000
0000
0000
0000
0000
0000
0000
0000
3000
4000
0000
0000
0000
0000
0000
0000
0000
0000
0000
0000
0000
0000
0000
0000
0000
,
0000
0000
3001
0000
0100
0000
0001
1000
,
0001
0000
0100
0000
0010
2000
0000
3001
,
0010
0000
0002
0000
1003
0000
0000
0010
,
0000
2000
0000
3004
0000
0000
0000
0000
,
0003
0000
1000
0100
1000
0000
0001
0020
,
0000
0031
2000
0000
3001
0020
0000
0000
,
0430
0000
2300
0000
3002
0000
1003
0100
,
0000
2000
0000
3001
0400
0000
0000
0000
,
0301
0100
0002
0000
2003
0000
3010
1000
,
0020
0000
1030
0001
4000
0000
0000
0000
,
3001
0010
0002
0000
1003
0100
0000
1000
,
0000
0002
0000
0013
0100
0020
0000
0000
,
0031
1000
0001
0000
1000
0000
0010
0000
,
0100
0001
0000
1000
0000
0100
0000
1000
,
0000
0004
0000
0000
0000
0000
0000
0000
,
0000
0000
0000
0000
,
0003
0000
1000
0100
0000
0000
1000
0001
,
0000
0000
1000
0010
0000
0100
0000
0001
,
0000
2000
0000
0000
3002
0000
0023
0000
,
0130
1000
0000
0001
0400
0000
0300
0001
,
1000
0000
0001
0000
0010
0000
0100
0010
,
0200
0000
0320
0000
0031
2000
0000
3001
,
0100
0001
1000
0100
,
0010
0002
0000
1003
0020
0000
1030
0001
,
1000
0200
0000
0000
,
0000
0340
0000
0000
,
0000
0030
0001
2000
,
3001
0010
0000
0001
2000
0000
3000
0002
,
0000
0023
0230
2300
,
3002
0000
1003
0010
1000
0000
0001
0010
,
0001
0000
2000
0000
0000
3400
0000
0000
,
0320
0032
2003
3002
,
0203
0000
0320
0000
0000
1030
0002
0000
,
0000
0000
0000
0000
,
0003
0000
2000
0000
3001
0020
0000
0031
,
1000
0000
0001
0200
0000
0320
0000
0000
,
1030
0001
2000
0000
0000
3002
0000
0000
,
0013
0100
0020
0000
0032
0000
2003
0000
,
3020
1030
0002
0013
,
0100
1000
0100
0000
0020
0000
0031
0000
,
1000
0010
2000
0000
3000
0000
0002
0000
,
0023
0230
2300
3002
,
0203
0000
0320
0000
0000
0000
1030
0001
,
0000
0200
0000
0000
0301
1000
0001
0000
,
1000
0100
1000
0000
0002
0000
0013
0000
,
0001
1000
0001
0000
1000
0010
0000
0000
,
1000
0001
2000
0000
0000
0000
3001
0010
,
0000
0002
0000
0000
1003
0100
1000
0000
,
0001
0000
0100
0010
0100
0000
0001
1000
,
0001
0000
1000
0000
0010
0100
0000
0000
,
0001
0100
0002
0000
0003
0000
1000
0100
,
0000
0020
0000
0000
0031
1000
0001
0000
,
0100
0001
0200
0000
0320
0000
2030
0000
,
3001
0020
0000
0000
0031
1000
0000
0001
,
0010
0000
0001
0000
1000
0010
0000
4000
,
0000
3002
0000
1003
0100
1000
0000
0000
,
0001
1000
0002
0000
0023
0000
0130
0010
,
0100
0000
1000
0000
0001
1000
0001
0000
,
0010
0100
0020
0000
0000
0000
0000
0000
,
0000
0000
0000
0000
,
0000
0000
0000
0000
,
0000
0000
0000
0000
,
0030
0000
0002
0000
1003
0100
0000
1000
,
0000
0002
0000
1003
0000
0002
0000
0000
,
1003
0100
4000
0000
0000
0000
0000
0000
,
0000
0000
0000
3004
,
0000
0000
0023
0000
0130
2000
0000
3001
,
0010
0002
0000
1003
0001
2000
0000
0000
,
3200
0000
1300
0001
1000
0000
0001
0100
,
0001
0000
1000
0002
0000
1003
0040
0000
,
0000
0000
1030
0001
1000
0000
0002
0000
,
0000
0013
0200
0000
1300
0002
0000
0000
,
0003
2000
0000
3010
0200
0000
0301
1000
,
0001
0000
0020
0000
0130
2000
0000
0000
,
3002
0000
1003
0100
1000
0000
0001
0010
,
0001
0000
1000
0010
1000
0000
0004
0000
,
0003
4000
0000
0000
,
3000
0002
0000
1003
0010
4000
0000
0000
,
0000
0000
0000
0000
3001
0010
0001
0000
1000
0000
0001
0000
0010
0100
0000
2000
,
0000
0000
3001
0000
0010
0200
0000
0000
1300
0001
1000
0000
0020
0000
2030
0000
,
3002
0043
0130
0000
2000
0000
3001
0000
,
1000
0010
1000
0000
0002
0000
0013
0000
,
0100
0010
0200
0000
2300
0000
3002
0000
,
0203
0320
2030
3002
,
0023
0000
0230
0000
1300
0000
0001
0200
,
0000
0301
0000
1000
0200
0000
0310
0001
,
0010
0100
2000
3001
,
1000
0010
2000
0000
3001
0100
0000
0000
,
0001
1000
0002
0000
0000
0000
1003
0200
,
0000
0320
0000
0031
1000
0000
0001
0100
,
0001
0000
1000
0001
1000
0000
0001
0010
,
0001
0000
2000
0000
3001
0100
0000
0000
,
0010
0100
0020
0000
0000
0000
1030
0002
,
0000
0203
0000
0310
1000
0000
0001
0010
,
0001
0000
1000
0100
1000
0000
0002
0000
,
0013
0200
0000
1300
0001
1000
0000
0001
,
0100
0000
0002
0000
1003
0100
0000
0040
,
0000
0032
0000
1003
0010
1000
0000
0000
,
0001
0010
0002
0000
1003
0000
0010
0000
,
0100
0002
0000
0000
1003
0100
1000
0000
,
0001
0010
0002
0000
0000
0000
0000
0000
,
0000
0000
0000
0000
0000
0000
0000
0000
0000
0000
0000
0000
0000
0000
0000
0003
0004
0000
0000
0000
0000
0000
0000
0000
0000
0000
0000
0000
0000
0000
0000
0000
,
0000
0000
1003
0100
1000
0000
0001
0100
,
0001
0000
1000
0000
0100
0010
0200
0000
,
2300
0000
3002
0000
0000
0000
1003
0020
,
0000
0230
0000
0000
0000
0000
0000
0000
,
0000
0000
0301
1000
0001
0000
1000
0100
,
1000
0000
0002
0000
0000
1003
0200
0000
,
0000
0000
2300
0000
3001
0200
0000
0320
,
0000
0230
0000
0000
0301
2000
0000
0000
,
3001
0020
0000
0000
0031
2000
0000
3001
,
0100
0002
0000
0000
1003
0010
2000
0000
,
3002
0000
0013
0100
0010
0000
0001
2000
,
0000
3002
0000
0000
1003
0200
0000
0000
,
1300
0100
1000
0000
0001
0000
1000
0000
,
0010
0000
0200
0000
0301
4000
0000
0000
,
0000
0000
3002
0000
0013
0100
0000
1000
,
0000
0001
0000
0100
0000
0010
0000
1000
,
0000
0000
0001
0010
0000
0000
0001
1000
,
0000
0000
0001
0010
0000
0100
0000
0010
,
0000
0022
0000
0000
0000
0000
0000
0000
,
0000
0000
0000
0000
,
0000
0000
0000
0000
,
0000
0000
0000
0000
,
0000
0000
0000
0000
,
0033
0000
0000
0000
;

//---------------dance-single - AceOfArrows (2017)----------------
#NOTES:
     dance-single:
     AceOfArrows (2017):
     Easy:
     4:
     0.257,0.176,0.000,0.150,0.000:
0000
0000
0000
0000
,
0000
0001
0000
0001
,
0000
0001
0000
1000
,
0000
0001
0001
0001
,
0000
0010
0010
0010
,
0000
0001
0000
0001
,
0000
0001
0000
1000
,
0000
0010
0000
0010
,
0000
0100
0100
0100
,
0000
0001
0000
1000
,
0000
1000
0000
0001
,
0000
0010
0010
0010
,
0000
0100
0100
0100
,
0000
1000
0000
0001
,
0000
0001
0000
0100
,
0000
0010
0010
0010
,
0000
1000
1000
1000
,
0000
0001
0000
1000
,
0000
0010
0010
0010
,
0000
0100
0000
0001
,
0000
1000
0000
0001
,
0001
0001
1000
1000
,
0100
0200
0300
0000
,
1000
2000
3000
0001
,
0001
0002
0000
0003
,
0100
0001
0001
0001
,
0000
1000
0000
0100
,
0100
0200
0000
0000
,
0000
0000
0000
0000
,
0000
0300
0010
0010
,
0000
0001
0001
0000
,
0000
1000
1000
1000
,
0000
0010
0010
0010
,
0010
0020
0000
0030
,
0000
1000
1000
1000
,
1000
0001
0000
0002
,
0000
0000
0000
0000
,
0003
1000
1000
1000
,
0000
0100
0000
0100
,
0000
0010
0000
0010
,
0000
0001
0001
0001
,
0000
1000
1000
1000
,
0000
0010
0010
0010
,
0000
0100
0100
0100
,
0100
0200
0000
0300
,
0000
0002
0000
1003
,
0000
0010
0010
0010
,
0000
0100
0100
0100
,
0000
0001
0001
0001
,
0001
2000
0000
3100
,
0000
0010
0010
0010
,
0000
0001
0001
0001
,
0001
0002
0000
0003
,
0000
1000
0000
1000
,
0000
0010
0010
0010
,
0000
0100
0100
0100
,
0100
0200
0000
0300
,
0000
0001
0001
0001
,
0000
1000
1000
1000
,
0000
0100
0100
0100
,
0000
0010
0010
0010
,
0001
0002
0000
0000
,
0000
0000
0000
0000
,
0000
1003
1000
1000
,
0000
0010
0010
0010
,
0000
0000
0100
0000
,
0001
0001
0004
0000
,
0000
1003
1000
1000
,
0000
0100
0000
0100
,
0000
0010
0010
0010
,
0000
0001
0001
0001
,
0000
1000
1000
1000
,
0000
0010
0010
0040
,
0000
0130
0000
0100
,
0000
0001
0001
0001
,
0000
1000
1000
1000
,
0000
0100
0100
0100
,
0100
0200
0000
0000
,
0000
0000
0000
0000
,
0300
0010
0000
0001
,
0000
1000
0000
0001
,
0001
0001
0100
0100
,
0000
0200
0300
0000
,
0001
1000
1000
1000
,
0000
0001
0000
0001
,
0000
0010
0010
0010
,
0000
0100
0100
0100
,
0100
0200
0000
0000
,
0000
0000
0000
0000
,
0000
0300
1000
1000
,
0000
0002
0003
0000
,
2000
3000
0000
0001
,
0001
0100
0100
0100
,
0100
0200
0000
0300
,
0000
0001
0001
0001
,
0000
1000
0000
2000
,
0000
0000
0000
0000
,
3000
0001
0001
0001
,
0000
1000
0000
0010
,
0010
0010
0000
1000
,
1000
0001
0001
0001
,
0000
0010
0010
0010
,
0000
0100
0100
0100
,
0000
2000
3000
0001
,
0000
0010
0010
0010
,
0010
0020
0030
0001
,
0000
1000
1000
1000
,
0000
0010
0010
0010
,
0000
0100
0000
0100
,
0000
0001
0000
1000
,
0000
0100
0100
0100
,
0000
0010
0010
0010
,
0000
0001
0000
1000
,
1000
1000
0000
0001
,
0000
0100
0100
0100
,
0000
0010
0010
0010
,
0000
2000
0000
3000
,
0000
0001
0001
0001
,
0000
0010
0010
0010
,
0000
0001
0001
0001
,
0000
1000
1000
1000
,
0000
0020
0000
0000
,
0000
0000
0000
0000
,
0000
0000
0000
0000
,
0000
0000
0000
0000
,
0030
1000
0000
0001
,
0001
0002
0000
0003
,
0000
0400
0000
0000
,
0000
0000
0000
0300
,
0000
0001
0000
1000
,
0000
0001
0001
0001
,
0000
0100
0100
0100
,
0000
0010
0000
0040
,
0000
1030
1000
1000
,
0000
0001
0001
0002
,
0003
1000
1000
1000
,
0000
0100
0100
0100
,
0000
0010
0010
0010
,
0000
0001
0001
0002
,
0003
4000
0000
0000
,
3000
0004
0000
0003
,
0000
0010
0010
0100
,
0100
1000
1000
0001
,
0001
0100
0100
0100
,
0000
0001
0001
0001
,
0000
1000
1000
1000
,
0000
0100
0100
0100
,
0000
0020
0030
0001
,
0000
1000
1000
1000
,
0000
0010
0010
0010
,
0000
0100
0000
0001
,
0001
0001
0000
1000
,
0000
0100
0100
0100
,
0000
0010
0010
0010
,
0000
0002
0000
0003
,
0000
1000
0000
0010
,
0000
0100
0100
0100
,
0000
0001
0001
0001
,
0000
2000
0000
3000
,
0000
0100
0000
0010
,
0010
0010
0000
0001
,
0001
0002
0000
0003
,
0000
1000
1000
1000
,
0000
0020
0000
0000
,
0000
0000
0000
0000
,
0030
1000
1000
1000
,
0000
0002
0000
1003
,
1000
1000
0000
0100
,
0000
0010
0010
0010
,
0000
0001
0001
0001
,
0000
2000
3000
2000
,
0000
3002
0003
0010
,
0010
0010
0000
0100
,
0000
2000
0000
3002
,
0000
0000
0000
0103
,
0100
0010
0010
0010
,
0000
2000
3000
2000
,
3000
0001
0001
0001
,
0000
0010
0000
0010
,
0000
0001
0001
0001
,
0000
1000
1000
1000
,
0000
0010
0000
0100
,
0000
0001
0000
1000
,
1000
2000
0000
0000
,
0000
0000
0000
0000
,
0000
0000
0000
0000
,
0000
0000
0000
0000
,
0000
0000
0000
0000
,
3000
0000
0000
0000
;

//---------------dance-single - AceOfArrows (2017)----------------
#NOTES:
     dance-single:
     AceOfArrows (2017):
     Beginner:
     2:
     0.146,0.106,0.000,0.120,0.000:
0000
0000
0000
0000
,
0000
0001
0000
0001
,
0000
0001
0000
0000
,
0000
1000
0000
1000
,
0000
1000
0000
0000
,
0000
0010
0000
0010
,
0000
0010
0000
0000
,
0000
0100
0000
0100
,
0000
0100
0000
0000
,
0000
0001
0000
0001
,
0000
0001
0000
0000
,
0000
1000
0000
1000
,
0000
1000
0000
0000
,
0000
0001
0000
0001
,
0000
0001
0000
0000
,
0000
0100
0000
0100
,
0000
0100
0000
0000
,
0000
0010
0000
0010
,
0000
0010
0000
0000
,
0000
1000
0000
1000
,
0000
2000
0000
0000
,
0000
3000
0000
0001
,
0000
0001
0000
0000
,
0000
0010
0000
0010
,
0000
0010
0000
0000
,
0000
0001
0000
0000
,
0000
1000
0000
1000
,
0000
2000
0000
0000
,
0000
0000
0000
3000
,
0000
0000
0000
0001
,
0000
0001
0000
0000
,
0000
0010
0000
0010
,
0000
0040
0000
0000
,
0000
0030
0000
0000
,
0000
0100
0000
0100
,
0000
0200
0000
0000
,
0000
0000
0000
0300
,
0000
1000
0000
1000
,
0000
1000
0000
0000
,
0000
0001
0000
0001
,
0000
0002
0000
0003
,
0000
0100
0000
0000
,
0000
0100
0000
0000
,
0000
0010
0000
0000
,
0000
0010
0000
0000
,
0000
0100
0000
0100
,
0000
0100
0000
0000
,
0000
0001
0000
0001
,
0000
0001
0000
0000
,
0000
1000
0000
1000
,
0000
1000
0000
0000
,
0000
0100
0000
0100
,
0000
0100
0000
0000
,
0000
1000
0000
1000
,
0000
1000
0000
0000
,
0000
0001
0000
0001
,
0000
0001
0000
0000
,
0000
0100
0000
0100
,
0000
0100
0000
0000
,
0000
0020
0000
0030
,
0000
1000
0000
1000
,
0000
2000
0000
0000
,
0000
0000
0000
3000
,
0000
0001
0000
0001
,
0000
0001
0000
0000
,
0000
0010
0000
0010
,
0000
0010
0000
0000
,
0000
0001
0000
0001
,
0000
0001
0000
0000
,
0000
2000
0000
0000
,
0000
3000
0000
0000
,
0000
0010
0000
0010
,
0000
0010
0000
0000
,
0000
0100
0000
0100
,
0000
0200
0000
0300
,
0000
0002
0000
0003
,
0000
1000
0000
1000
,
0000
2000
0000
0000
,
0000
0000
0000
0000
,
3000
0010
0000
0010
,
0000
0020
0000
0000
,
0000
0030
0000
0100
,
0000
0100
0000
0000
,
0000
0001
0000
0001
,
0000
0001
0000
0000
,
0000
1000
0000
1000
,
0000
1000
0000
0000
,
0000
0200
0000
0000
,
0000
0000
0000
0000
,
0000
0300
0000
0010
,
0000
0010
0000
0000
,
0000
0001
0000
0001
,
0000
0004
0000
0000
,
0000
0003
0000
0000
,
0000
1000
0000
1000
,
0000
2000
0000
0000
,
0000
0000
0000
3000
,
0000
0001
0000
0001
,
0000
0001
0000
0000
,
0000
0010
0000
0010
,
0000
0010
0000
0000
,
0000
0100
0000
0100
,
0000
0100
0000
0000
,
0000
1000
0000
1000
,
0000
2000
0000
3000
,
0000
0001
0000
0001
,
0000
0001
0000
0000
,
0000
0100
0000
0100
,
0000
0100
0000
0000
,
0000
0010
0000
0010
,
0000
0010
0000
0000
,
0000
1000
0000
1000
,
0000
1000
0000
0000
,
0000
0001
0000
0001
,
0000
0001
0000
0000
,
0000
0010
0000
0010
,
0000
0020
0000
0030
,
0000
0100
0000
0100
,
0000
0100
0000
0000
,
0000
2000
0000
3000
,
0000
0001
0000
0001
,
0000
0002
0000
0000
,
0000
0000
0000
0000
,
0000
0000
0000
0000
,
0000
0000
0000
0000
,
0003
1000
0000
1000
,
0000
2000
0000
3000
,
0000
0040
0000
0000
,
0000
0000
0000
0030
,
0000
0100
0000
0100
,
0000
0200
0000
0300
,
0000
0004
0000
0000
,
0000
0003
0000
0000
,
0000
1000
0000
1000
,
0000
2000
0000
3000
,
0000
0100
0000
0100
,
0000
0200
0000
0300
,
0000
4000
0000
0000
,
0000
0000
0000
3000
,
0000
0004
0000
0000
,
0000
0000
0000
0003
,
0000
0010
0010
0010
,
0000
0100
0100
0100
,
0000
1000
0000
1000
,
0000
1000
0000
0000
,
0000
0001
0000
0001
,
0000
0002
0000
0003
,
0000
0100
0000
0100
,
0000
0100
0000
0000
,
0000
0010
0000
0010
,
0000
0010
0000
0000
,
0000
1000
0000
1000
,
0000
1000
0000
0000
,
0000
0001
0000
0001
,
0000
0001
0000
0000
,
0000
0010
0000
0010
,
0000
0010
0000
0000
,
0000
0100
0000
0100
,
0000
0100
0000
0000
,
0000
1000
0000
1000
,
0000
2000
0000
3000
,
0000
0002
0000
0003
,
0000
0100
0000
0100
,
0000
0200
0000
0000
,
0000
0000
0000
0300
,
0000
0001
0000
0001
,
0000
0001
0000
0000
,
0000
1000
0000
1000
,
0000
2000
0000
3000
,
0000
0100
0000
0100
,
0000
0200
0000
0300
,
0000
0010
0000
0010
,
0000
0020
0000
0030
,
0000
0001
0000
0001
,
0000
0002
0000
0003
,
0000
1000
0000
1000
,
0000
2000
0000
3000
,
0000
0010
0000
0010
,
0000
0020
0000
0030
,
0000
0100
0000
0100
,
0000
0100
0000
0000
,
0000
0001
0000
0001
,
0000
0001
0000
1000
,
0000
0200
0000
0000
,
0000
0000
0000
0000
,
0000
0000
0000
0000
,
0000
0000
0000
0000
,
0000
0000
0000
0000
,
0300
0000
0000
0000
;
