#TITLE:All I Can Do;
#SUBTITLE:;
#ARTIST:Jump5;
#TITLETRANSLIT:;
#SUBTITLETRANSLIT:;
#ARTISTTRANSLIT:;
#GENRE:;
#CREDIT:Ace Of Arrows;
#BANNER:All I Can Do - BN.png;
#BACKGROUND:All I Can Do - BG.png;
#LYRICSPATH:;
#CDTITLE:Ace Of Arrows.png;
#MUSIC:All I Can Do.ogg;
#OFFSET:2.600;
#SAMPLESTART:68.200;
#SAMPLELENGTH:12.000;
#SELECTABLE:YES;
#BPMS:0.000=57.250,8.000=114.500,174.000=57.250,176.000=114.500;
#STOPS:;
#BGCHANGES:0.000=All I Can Do - BG.png=1.000=0=0=1=====,
2.500=All I Can Do Music Video.avi=1.000=1=0=1===CrossFade==,
99999=-nosongbg-=1.000=0=0=0 // don't automatically add -songbackground-
;
#KEYSOUNDS:;

//---------------dance-single - Ace Of Hearts (2017)----------------
#NOTES:
     dance-single:
     Ace Of Hearts (2017):
     Challenge:
     10:
     0.792,0.431,0.576,1.000,0.414:
0000
0000
0000
0000
0000
0000
0000
0000
0000
0000
0000
0000
0000
0000
0000
0001
,
0100
0010
2000
0000
3001
0010
0100
2100
0000
3002
0003
0201
0000
0310
2000
3000
,
1001
0000
0001
0010
0100
0010
0001
0000
1000
0100
1000
0000
1001
0000
0001
0100
,
0004
0000
0000
0003
2000
0000
0000
3000
1200
0000
0310
0001
0010
0000
0100
0000
,
2000
0000
3002
0000
1003
0100
0010
0001
0010
0100
1000
0001
0100
0010
2000
0000
,
3001
0100
0002
0000
1003
0100
1000
0001
0010
0100
0000
0100
0010
0001
0010
0100
,
2000
0000
3001
0100
0002
0000
1003
0100
0020
0000
0000
0000
0031
1000
0002
0000
,
0203
0000
0301
0000
2001
0000
3010
0000
2010
0000
3001
0000
0010
0100
0010
0000
,
0001
0000
1000
0000
0010
0100
0001
0100
0010
1000
0001
1000
0010
0100
0020
0000
,
2030
0000
3001
0000
0020
0000
0130
0000
2000
0000
3001
0010
0100
0010
0001
1000
,
0002
0000
1003
0000
0020
0000
0130
0000
0002
0000
1003
0100
0010
0100
1000
0000
,
0002
0000
1000
0003
1001
0000
1000
0000
1020
0000
0000
0130
0001
0000
1000
0000
,
1200
0000
0310
0000
0001
0010
0100
0010
0001
1000
0100
1000
0001
0010
0002
0000
,
0103
0010
1010
1000
1001
0001
0010
0210
,
1300
0000
0001
0000
0101
0000
0100
0000
0010
0100
0000
0100
0001
1000
0001
1000
,
0200
0000
0310
0001
0020
0000
0130
0000
1000
0001
1000
0000
1010
0000
0010
0000
,
0210
0000
0301
0000
1000
0010
0100
0001
0100
0010
1000
0001
1000
0100
0020
0000
,
0130
0010
0200
0000
1300
0000
0001
0000
0101
0000
0100
0010
0100
0000
0102
0000
,
0000
1003
0100
0000
0110
0000
0010
0000
0002
0000
0000
1003
0010
0000
0100
0000
,
0020
0000
2030
0000
3001
0000
0010
0100
0020
0000
0031
2000
0000
3001
0100
0001
,
0200
0000
0310
2000
0000
0000
3001
0010
0001
1000
0001
1000
0010
0000
0100
0001
,
0200
0000
0000
0000
0310
0000
0000
0000
0000
0000
2000
0000
0000
0000
0000
3001
0000
0000
0010
0000
0000
0100
0000
0000
0020
0000
0000
0000
0000
0000
0130
0000
0000
0000
0000
0000
1000
0000
0000
0000
0000
0000
1002
0000
0000
0000
0000
0000
,
0203
0000
0320
0030
1010
0000
2000
0000
3001
0010
0000
0010
0100
0010
0001
1000
,
0001
0100
0001
1000
0002
0013
0200
0000
1300
0001
0200
0000
0301
1000
0100
1000
,
0001
0100
0000
0110
0000
0010
1000
0000
0001
0010
0002
0000
1003
0010
2000
0000
,
3001
0020
0030
0210
0000
0000
1300
0000
1001
0000
0001
0000
0100
0000
0220
0000
,
0030
0302
2000
3003
1100
0000
0100
0000
0010
0001
1000
0001
0010
0000
0100
0000
,
1100
0000
1000
0000
0001
0100
0001
0100
0020
0000
0000
1030
0001
0000
0010
0000
,
0200
0000
1300
0000
0001
0000
0100
0000
0120
0000
0000
1030
0001
0000
0010
0000
,
0100
0000
1000
0000
0001
0000
0100
0000
0120
0000
0000
1030
0001
0000
1000
0000
,
1100
0100
0010
0001
2002
0003
3100
0010
,
0012
0000
0000
0000
0200
0000
0000
0000
0303
0000
0000
0100
0010
0000
1000
0000
,
0001
0010
0001
0000
0020
0000
0000
0030
0110
0000
0100
0000
1000
0000
2020
0000
,
3000
0130
0000
0202
0300
1003
1200
0300
,
0220
0030
1300
0001
0202
0003
0310
2020
,
0030
0000
3001
0000
0010
0000
0210
0000
2300
0000
3001
0100
0001
0000
1000
0000
,
0100
0010
0001
1000
1010
0010
0100
0202
,
0303
0002
0003
2002
0003
3100
0010
0022
,
0033
0001
1000
0010
0110
0100
0001
2002
,
0003
3100
0010
0022
0030
1003
0020
0130
,
0102
0000
1003
0010
0200
0000
0301
1000
0200
0000
0000
0310
0001
0010
0200
0000
,
2300
0000
3001
0100
0010
0100
0002
0000
0103
0010
1000
0010
0100
0001
2000
0000
,
3001
0010
0002
0000
1003
0100
0010
0001
0010
0100
1000
0000
1001
0000
0001
0000
,
0100
0010
0100
0000
0102
0000
0000
0000
1003
0100
0010
0400
2300
3004
1003
0010
,
0110
0000
0100
0000
0002
0000
0000
0003
0021
0000
0000
0000
0130
1000
0001
1000
,
0100
0010
0001
1000
0001
0100
0002
0000
1003
0010
2000
0000
3001
0100
0001
0000
,
1001
0000
1000
0000
0100
0000
0120
0000
0031
1000
0001
0000
0100
0000
0010
0000
,
1000
0001
0000
0001
0100
0001
1000
0100
0020
0000
0130
1000
0002
0000
1003
0010
,
1000
0000
0000
0001
0000
0000
2000
0000
0000
0000
0000
0000
3002
0000
0000
0000
0000
0000
0203
0000
0000
0000
0000
0000
0310
0000
0000
2000
0000
0000
0000
0000
0000
3002
0000
0000
0000
0000
0000
0023
0000
0000
0000
0000
0000
0000
0230
0000
,
0000
0000
0000
0000
2300
0000
0000
0000
0000
0002
3000
0000
0000
0000
0000
0000
0000
0000
1003
0000
0000
0010
0000
0000
2000
0000
0000
0000
0000
0000
3001
0000
0000
0020
0000
0000
0000
0000
0000
0000
0000
0000
0130
0000
0000
0000
0000
0000
,
1100
0000
1000
0000
0001
0000
0402
0000
0000
0000
0303
0000
0100
0000
0010
1000
,
0010
0000
1000
0001
0020
0000
0130
0000
1100
0000
1000
0000
1001
0000
0001
0000
,
0201
0000
0000
0310
1000
0000
0001
0000
0010
0000
0001
0000
1000
0000
0010
0000
,
0210
0000
0000
0301
1000
0000
0100
0000
0010
0000
0100
0000
1000
0000
0001
0000
,
0201
0000
0000
0310
1000
0000
0001
0000
0010
0000
0001
0000
1000
0000
0010
0000
,
0220
0030
0301
1000
1200
0010
2000
0000
,
3300
0000
2002
0000
3003
0202
0000
0303
0110
0000
0010
0000
2000
0000
3000
0000
,
1002
0000
0013
0000
0100
0000
2200
0000
0300
0000
3002
0000
0000
0003
0202
0000
,
0003
0320
2030
3000
2200
3000
0310
0001
,
2002
0003
3010
0220
0030
0301
1000
1200
,
0320
0000
0031
1000
0001
0000
0200
0000
0320
0000
2030
0000
3001
0000
0010
0000
,
0100
1000
0001
0202
0303
0200
0300
0220
,
0300
1030
0001
0022
0033
0010
0100
1000
,
1001
0001
0100
0020
0000
1030
0001
0022
,
0003
0000
0130
0000
2000
0000
3000
0000
1002
0000
0013
0100
2000
0000
3001
0000
,
0401
0000
0000
0000
0000
0000
0000
0000
0000
0000
0300
0000
0010
0000
1000
0001
,
2000
0000
0000
0000
0000
0000
3000
0000
0000
0010
0000
0000
2000
0000
0000
3001
0010
0100
1000
0000
0000
0001
0000
0000
,
0201
0000
0000
0310
1000
0000
0001
0000
0010
0000
0001
0000
1000
0000
0010
0000
,
0210
0000
0301
2000
0000
3000
0100
0000
0010
0000
0100
0000
1000
0000
0001
0000
,
0201
0000
0310
0200
0000
0000
0300
0000
0110
0000
0010
0000
1000
0000
0001
0000
,
0021
0000
0130
1000
1002
0013
0200
0000
,
2300
3000
2002
0000
3003
0202
0000
0303
0200
0000
0310
0000
2000
0000
3000
0000
,
1200
0310
0001
2002
0003
3020
0030
2020
,
0030
3001
0020
0130
2200
3000
0310
0001
,
2002
0003
3010
0220
0030
0301
1000
1200
,
0020
0300
0032
1003
0020
0130
0001
0010
,
0100
1000
0001
0202
0303
0200
0300
0220
,
0300
0000
1030
0000
0001
0000
1000
0010
0200
0000
0300
0000
0001
0000
1000
0000
,
1200
0310
0001
2001
0000
3010
0100
0102
,
0000
0000
1003
0000
0200
0000
0300
0000
0120
0000
0031
1000
0010
1000
0001
0000
,
0011
0010
0100
2000
0000
3001
0000
0201
,
0000
0302
2000
0000
0010
0003
3001
0010
,
0210
0000
1300
1002
0000
0103
0010
2010
,
3002
0203
0000
0320
1030
0001
0010
0100
,
1100
1000
0001
0202
0303
0200
0300
0120
,
0000
0000
1030
0000
0001
0000
0010
0100
2000
0000
3000
0000
0001
0000
0100
0000
,
0110
0010
1000
1002
0000
0013
0100
2100
,
0000
0000
3001
0000
0200
0000
0000
0000
0302
0000
0013
0100
2000
0000
0000
0000
,
0000
3000
0000
0000
0000
0000
0000
0000
;

//---------------dance-single - AceOfArrows (2017)----------------
#NOTES:
     dance-single:
     AceOfArrows (2017):
     Hard:
     7:
     0.506,0.340,0.082,0.715,0.075:
0000
0000
0000
0000
0000
0000
0000
0000
0000
0000
0000
0000
0000
0000
0000
1000
,
0100
1000
0100
0000
0010
0001
0010
0002
0000
1003
0000
0020
0000
1030
0002
0000
,
1003
0100
0010
0001
0010
0100
1000
0001
,
4000
0000
3002
0000
0023
0000
0031
1000
,
0010
1000
0001
0000
1000
0010
0100
0001
,
0100
0000
0010
0000
1000
0000
0000
0000
0001
0000
0000
1000
0100
0000
0010
0000
,
0100
1000
0001
1000
0002
0000
0023
0000
,
0130
0010
0002
0003
2000
0000
3010
0100
,
0010
1000
0001
2000
0000
3001
0000
0010
,
0001
0010
0100
1000
0002
1003
0000
0010
,
1000
0010
0200
0000
0301
1000
0001
1000
,
0200
0000
0310
0001
2000
0000
3001
0010
,
0200
0000
2300
0000
3001
0100
0001
1000
,
0100
0010
0100
1000
0001
0100
0010
0200
,
0000
0000
0301
0000
1000
0000
0001
0000
1000
0000
0000
0001
0010
0000
0100
0000
,
0020
0000
0031
1000
0020
0000
1030
0001
,
0200
0000
0320
0000
1030
0000
0001
0010
,
0100
0010
0001
1000
0010
0100
0010
2000
,
0000
3001
0200
0000
0000
0000
0301
0000
1000
0000
0001
0000
0010
0000
0001
0000
,
1000
0000
0100
0000
0010
0000
0001
0000
0010
0000
0000
0100
0000
0000
0010
0000
,
0001
0000
0000
2000
0000
0000
3010
0000
0100
0000
0010
0000
1000
0000
0001
0000
,
0010
0000
0000
0002
0000
0000
1003
0000
0010
0000
1000
0000
0001
0000
0100
0000
,
0001
0000
1000
0000
0010
0000
1000
0000
0001
0000
0000
0010
0100
0000
1000
0000
,
0002
0000
1003
0010
0100
0001
1000
0100
,
0010
0000
0000
0100
0000
0000
1000
0000
0001
0000
1000
0000
0010
0000
1000
0000
,
0001
0000
0000
0020
0000
0000
0031
0000
0010
0000
0100
0000
1000
0000
0002
0000
,
0000
1003
0200
0000
0000
0000
1300
0000
0001
0000
0100
0000
0010
0000
1000
0000
,
0001
0010
0100
1000
0002
0000
0003
1000
,
0010
0100
0001
1000
0200
0000
0300
1000
,
0100
0010
0100
1000
0002
0000
0003
0000
,
1000
0010
1000
0001
0020
0000
0130
1000
,
0002
0000
0200
0000
0303
0000
0000
0001
,
1000
0100
0020
0000
0031
1000
0010
0200
,
0000
0301
0000
2000
0000
3001
0020
0030
,
0220
0030
1300
0001
0200
0000
0310
2000
,
0000
3001
0010
0200
0000
0000
0000
0000
,
0300
0000
1000
0001
0100
0001
1000
0020
,
0030
1000
0000
0002
0000
0013
0100
2000
,
3000
0000
0001
0100
0010
1000
0001
0020
,
0000
0031
1000
0002
0000
1003
0020
0000
,
0230
0000
0000
0000
0302
0000
0000
0000
2003
0000
0000
3001
0010
0000
0100
0000
,
0010
0000
0001
0000
1000
0000
0010
0000
0200
0000
0000
0301
1000
0000
0001
0000
,
0010
0100
0010
0001
1000
0010
1000
0001
,
0010
0000
0100
0000
0010
0000
0001
0000
1000
0100
1000
0004
0000
0000
0003
1000
,
0100
1000
0002
0003
0020
0000
0230
0000
,
1300
0001
0100
0001
1000
0001
0010
0100
,
0010
0001
1000
0200
0000
1300
0001
2000
,
0000
0000
0000
3001
0010
0000
0001
0000
1000
0000
0010
0000
0100
0000
0001
0000
,
1000
0000
0100
0000
0010
0000
0100
0000
1000
0000
0000
0002
0000
0000
1003
0000
,
0010
0000
0000
0200
0000
0000
0310
0000
1000
0000
0000
0002
0000
0000
1003
0000
,
0100
0010
0001
4000
0000
3000
0001
0020
,
0000
0130
2000
0000
0000
0000
3001
0000
0100
0000
0010
0000
0100
0000
0001
0000
,
2000
0000
3000
0001
0010
0001
1000
0010
,
0200
0000
0300
0001
1000
0100
0010
0001
,
2000
0000
3000
0010
1000
0001
0010
0100
,
2000
0000
3001
0100
0020
0000
0200
0000
,
0330
0102
0000
1003
0100
0010
0200
0000
,
1300
0001
0100
0020
0000
1030
0000
0002
,
0000
0013
0200
0300
2200
0300
3001
0100
,
0020
0000
0130
0002
0000
1003
0010
0200
,
0000
0000
0301
2000
0000
3100
0010
0001
,
1000
0010
1000
0002
0003
0010
0000
0200
,
0000
0310
0001
2002
3003
0000
1000
0010
,
0100
0010
1000
0002
0000
0013
0100
2000
,
0000
3001
0200
0300
0220
0300
2030
0000
,
3004
0000
0000
0000
0000
0003
1000
0010
,
2000
0000
3000
0001
0010
0004
0000
1003
,
0200
0000
0300
1000
0001
0100
0001
1000
,
0020
0000
1030
0002
0000
0003
1000
0000
0100
0000
0010
0000
0100
0000
1000
0000
,
0002
0000
1003
0002
0000
0003
0000
0000
1000
0000
0010
0000
0100
0000
0001
0000
,
2000
0000
3100
0010
0002
2003
0020
0000
,
3030
0210
0000
0301
1000
0100
0020
0000
,
0031
1000
0001
0201
0000
0310
0000
2000
,
0000
3001
2000
3000
2200
3000
0310
0001
,
2000
0000
3001
0200
0000
0310
1000
0002
,
0200
0003
0320
0000
2030
0000
3001
0010
,
0100
1000
0001
0200
0300
0001
0000
2000
,
0000
3100
0010
0024
0000
0033
0001
1000
,
0010
0100
0010
2000
0000
3001
0010
0200
,
0000
0310
0002
0003
2001
0000
3040
0000
,
0130
0001
1000
0200
0000
0310
0000
0012
,
0000
1003
0020
0030
0220
0030
0301
1000
,
0200
0000
0310
0002
0000
1003
0010
0200
,
0302
2003
0000
0000
3200
0000
0310
0001
,
1000
0010
0100
0101
0000
0001
0000
2000
,
0000
3001
1000
2040
0000
3030
0010
0100
,
0001
1000
0001
0020
0000
0130
1000
1002
,
0000
1003
0200
0300
0210
0000
2300
0000
,
0000
3000
0000
0000
0000
0000
0000
0000
;

//---------------dance-single - AceOfArrows (2017)----------------
#NOTES:
     dance-single:
     AceOfArrows (2017):
     Medium:
     5:
     0.343,0.000,0.000,0.448,0.000:
0000
0000
0000
0000
,
0000
0000
0000
0000
,
1000
0100
1000
0000
0001
0010
0001
0000
,
4000
3000
0002
1003
,
0001
0010
0001
0000
2000
0000
3010
0000
,
1000
0001
1000
0000
0002
0000
1003
0000
,
0100
1000
0100
0000
0020
0000
0031
0000
,
1000
0001
1000
0000
0200
0000
0310
0000
,
0001
0000
1000
0200
0000
0300
0000
1000
,
0001
0000
1000
0100
2000
0000
3000
0001
,
0200
0301
2000
0000
,
3000
0000
0001
0010
0002
0000
1003
0100
,
2000
3002
0000
0003
,
0000
1000
0010
0000
1000
0000
0001
0200
,
0000
0000
0300
0000
0010
0000
1000
0001
,
1000
0000
0001
0010
0002
0000
1003
0100
,
2000
3002
0000
0003
,
0000
1000
0100
0000
1000
0000
0001
0200
,
0000
0300
0001
1000
,
0001
0000
0010
0100
0020
0000
0031
1000
,
0002
0000
1003
0000
0010
1000
0010
0000
,
0100
0000
0100
0000
0002
0000
1003
0100
,
0000
0000
0010
0000
0100
0000
1000
0001
,
1000
0000
0001
0000
0010
0100
0010
0000
,
0001
0000
1000
0000
0001
0100
0001
0000
,
1000
0000
0100
0000
0010
0000
0001
2000
,
0000
3000
0001
0100
,
0001
0100
0001
0000
2000
0000
3000
0000
,
0010
0100
0010
0000
0200
0000
0300
0000
,
0001
1000
0001
0000
0020
0000
0030
0000
,
0001
1000
0001
0000
0200
0000
0301
0100
,
0002
2003
3000
0000
,
0001
0010
0001
0000
1000
0000
0001
0200
,
0000
0301
0000
2000
0000
3001
0010
0000
,
0001
0000
1000
0001
2000
0000
3001
0200
,
0000
0301
1000
0002
0000
0000
0000
0000
,
0003
0000
1000
0100
1000
0000
0001
0100
,
0000
0001
0000
2000
0000
3001
0010
0001
,
0000
0000
1000
0100
1000
0000
0001
0020
,
0000
0031
1000
0002
0000
1003
0010
0000
,
0200
0000
0302
1003
,
0001
0010
0001
0000
2000
0000
3010
0000
,
0100
0001
0100
0000
0001
1000
0001
0000
,
1000
0100
1000
0000
0001
0000
0004
0003
,
1000
0010
1000
0000
0002
0000
0203
0000
,
0000
0000
0300
0000
0001
0000
1000
0001
,
1000
0000
0001
0200
0000
0000
0300
0000
,
0010
0000
0100
0000
0001
0100
0001
0000
,
1000
0100
1000
0000
0001
0000
0010
0000
,
0001
1000
0001
0000
1000
0000
0100
0000
,
0010
0000
0100
4000
0000
3000
0001
0200
,
0000
0000
0300
0000
0001
1000
0001
0000
,
0020
0000
0030
0000
0100
1000
0100
0000
,
0020
0000
0030
0000
0001
1000
0001
0000
,
0200
0000
0300
0000
0010
0100
0010
0000
,
2000
0000
3001
0010
0002
0000
2003
0000
,
3000
0002
0000
0000
0013
0100
0010
0000
,
0001
0000
1000
0020
0000
1030
0000
0002
,
0000
0013
0100
0000
2000
0000
3001
0100
,
0002
0000
1003
0200
0000
0310
0100
0020
,
0000
0000
0000
0000
0030
0000
0001
1000
,
0001
0000
1000
0010
0000
1000
0000
0002
,
0000
1003
0100
1000
0000
0000
0001
0010
,
0001
0000
1000
0020
0000
1030
0001
2000
,
0000
3001
0010
0000
0200
0000
0000
0000
,
2300
0000
0000
0000
3000
0000
0001
1000
,
0002
0000
0003
0000
1000
0100
1000
0000
,
0002
0000
0003
0000
0010
0100
0010
0000
,
0400
0000
0300
0000
1000
0100
1000
0000
,
0004
0000
0003
0000
1000
0010
1000
0000
,
0002
0000
1003
0100
2000
0000
3002
0000
,
0000
0023
0000
0000
0031
1000
0001
0000
,
1000
0000
0001
0200
0000
0301
0000
2000
,
0000
3001
0020
0000
0130
0000
0010
0001
,
0020
0000
0130
2000
0000
3001
1000
0002
,
0000
0000
0000
0000
0003
0000
1000
0010
,
1000
0000
0001
0010
0000
0001
0000
2000
,
0000
3001
0100
0004
0000
0003
1000
0100
,
1000
0000
0001
0200
0000
0301
1000
0002
,
0000
1003
0100
0000
0020
0000
0000
0000
,
0031
0000
1000
0200
0000
1300
0000
0002
,
0000
1003
0020
0000
0130
0000
0001
0100
,
0002
0000
1003
0200
0000
0310
0001
0020
,
0000
0000
0000
0000
0030
0000
0001
1000
,
0001
0000
0100
0010
0000
0100
0000
0002
,
0000
1003
0100
4000
0000
3000
0001
0010
,
0001
0000
1000
0020
0000
1030
0001
2000
,
0000
3001
0020
0000
0230
0000
0000
0000
,
0000
0300
0000
0000
0000
0000
0000
0000
;

//---------------dance-single - AceOfArrows (2017)----------------
#NOTES:
     dance-single:
     AceOfArrows (2017):
     Easy:
     3:
     0.213,0.000,0.000,0.247,0.000: // measure 1
0000
0000
0000
0000
,  // measure 2
0000
0000
0000
0000
,  // measure 3
0001
0001
0001
0000
,  // measure 4
4000
3000
0010
0010
,  // measure 5
0010
0000
0100
0100
,  // measure 6
0100
0000
0001
0001
,  // measure 7
0002
0003
1000
1000
,  // measure 8
2000
3000
0100
0000
,  // measure 9
0010
0010
0010
0000
,  // measure 10
0001
0001
0001
0000
,  // measure 11
1000
1000
2000
0000
,  // measure 12
0000
3001
0001
0001
,  // measure 13
0100
0200
0000
0300
,  // measure 14
0000
0001
0001
1000
,  // measure 15
2000
3000
0000
0000
,  // measure 16
0000
0001
0001
0100
,  // measure 17
0100
0200
0000
0300
,  // measure 18
0000
0010
0010
0010
,  // measure 19
0020
0030
0000
0000
,  // measure 20
0000
0000
1000
1000
,  // measure 21
2000
3000
0001
0001
,  // measure 22
0002
0003
0010
0010
,  // measure 23
0010
0000
0100
0100
,  // measure 24
0200
0300
1000
1000
,  // measure 25
2000
3000
0001
0001
,  // measure 26
0002
0003
0100
0100
,  // measure 27
0200
0300
0000
0000
,  // measure 28
0010
0010
0020
0030
,  // measure 29
1000
1000
2000
3000
,  // measure 30
0001
0001
0002
0003
,  // measure 31
1000
1000
0010
0010
,  // measure 32
0010
0020
0000
0030
,  // measure 33
1000
1000
0001
0001
,  // measure 34
0002
0003
1000
1000
,  // measure 35
1000
0000
0010
0010
,  // measure 36
0100
0100
0200
0000
,  // measure 37
0300
0001
0001
0001
,  // measure 38
0001
0000
1000
1000
,  // measure 39
1000
0000
0100
0100
,  // measure 40
0200
0300
0010
0010
,  // measure 41
0020
0000
0031
0001
,  // measure 42
0001
0000
1000
1000
,  // measure 43
1000
0000
0020
0030
,  // measure 44
0020
0030
0020
0030
,  // measure 45
1000
1000
1000
2000
,  // measure 46
0000
3000
0000
0000
,  // measure 47
0001
0001
0002
0003
,  // measure 48
0000
0000
0000
0000
,  // measure 49
1000
1000
2000
3000
,  // measure 50
0010
0010
0020
0030
,  // measure 51
0100
0100
0400
0300
,  // measure 52
0002
0003
1000
1000
,  // measure 53
2000
3000
0001
0001
,  // measure 54
0002
0003
0010
0010
,  // measure 55
0020
0030
0100
0100
,  // measure 56
1000
1000
1000
2000
,  // measure 57
3000
0000
0001
0001
,  // measure 58
1000
1000
2000
3000
,  // measure 59
0010
0010
0010
0000
,  // measure 60
0100
0100
0001
0001
,  // measure 61
0002
0000
0003
1000
,  // measure 62
1000
0100
0100
0000
,  // measure 63
0010
0010
0010
0000
,  // measure 64
0001
0001
0002
0003
,  // measure 65
1000
1000
2000
3000
,  // measure 66
0002
0000
0000
0003
,  // measure 67
2000
3000
0010
0010
,  // measure 68
0020
0030
0100
0100
,  // measure 69
0400
0300
0001
0001
,  // measure 70
0004
0003
1000
1000
,  // measure 71
0010
0010
0010
0020
,  // measure 72
0000
0030
0100
0100
,  // measure 73
0001
0001
0002
0003
,  // measure 74
1000
1000
2000
3000
,  // measure 75
0100
0100
0010
0010
,  // measure 76
0020
0000
0030
0001
,  // measure 77
0001
0001
0001
0000
,  // measure 78
1000
1000
4000
3000
,  // measure 79
0010
0010
0010
0000
,  // measure 80
0100
0100
0200
0300
,  // measure 81
0001
0001
0001
1000
,  // measure 82
1000
1000
2000
3000
,  // measure 83
0010
0010
0100
0100
,  // measure 84
0400
0000
0300
0001
,  // measure 85
0001
0001
0001
1000
,  // measure 86
1000
1000
1000
0000
,  // measure 87
0100
0100
0200
0300
,  // measure 88
0010
0010
0020
0000
,  // measure 89
0000
0030
0000
0000
0000
0000
0000
0000
;

//---------------dance-single - AceOfArrows (2017)----------------
#NOTES:
     dance-single:
     AceOfArrows (2017):
     Beginner:
     2:
     0.112,0.000,0.000,0.206,0.000: // measure 1
0000
0000
0000
0000
,  // measure 2
0000
0000
0000
0000
,  // measure 3
1000
0000
1000
0000
,  // measure 4
4000
0000
3000
0000
,  // measure 5
0001
0000
0001
0000
,  // measure 6
0001
0000
0002
0000
,  // measure 7
0003
0000
0100
0000
,  // measure 8
0200
0000
0300
0000
,  // measure 9
0010
0000
0010
0000
,  // measure 10
0020
0000
0030
0000
,  // measure 11
0100
0000
0200
0000
,  // measure 12
0300
0000
0001
0000
,  // measure 13
0002
0000
0003
0000
,  // measure 14
0000
0000
1000
0000
,  // measure 15
1000
0000
0000
0000
,  // measure 16
0000
0000
0010
0000
,  // measure 17
0020
0000
0030
0000
,  // measure 18
0000
0000
1000
0000
,  // measure 19
2000
0000
3000
0000
,  // measure 20
0000
0000
0004
0000
,  // measure 21
0003
0000
4000
0000
,  // measure 22
3000
0000
0002
0000
,  // measure 23
0003
0000
0000
0000
,  // measure 24
0000
0000
0040
0000
,  // measure 25
0030
0000
0400
0000
,  // measure 26
0300
0000
0020
0000
,  // measure 27
0030
0000
0000
0000
,  // measure 28
0002
0000
0003
0000
,  // measure 29
0002
0000
0003
0000
,  // measure 30
2000
0000
3000
0000
,  // measure 31
0010
0000
0010
0000
,  // measure 32
0020
0000
0030
0000
,  // measure 33
0100
0000
0100
0000
,  // measure 34
0100
0000
0200
0000
,  // measure 35
0300
0000
0001
0000
,  // measure 36
0001
0000
0002
0000
,  // measure 37
0003
0000
1000
0000
,  // measure 38
1000
0000
2000
0000
,  // measure 39
3000
0000
0010
0000
,  // measure 40
0010
0000
0020
0000
,  // measure 41
0030
0000
0100
0000
,  // measure 42
0100
0000
0100
0000
,  // measure 43
0000
0000
0002
0000
,  // measure 44
0003
0000
2000
3000
,  // measure 45
0001
0000
0002
0000
,  // measure 46
0003
0000
0000
0000
,  // measure 47
0100
0000
0100
0000
,  // measure 48
0000
0000
0000
0000
,  // measure 49
0004
0000
0003
0000
,  // measure 50
0400
0000
0300
0000
,  // measure 51
0040
0000
0030
0000
,  // measure 52
0010
0000
2000
0000
,  // measure 53
3000
0000
2000
0000
,  // measure 54
3000
0000
0002
0000
,  // measure 55
0003
0000
0010
0000
,  // measure 56
0010
0000
0020
0000
,  // measure 57
0030
0000
0100
0000
,  // measure 58
0100
0000
0100
0000
,  // measure 59
0200
0000
0300
0000
,  // measure 60
1000
0000
1000
0000
,  // measure 61
2000
0000
3000
0000
,  // measure 62
0001
0000
0001
0000
,  // measure 63
0002
0000
0003
0000
,  // measure 64
0100
0000
0100
0000
,  // measure 65
0200
0000
0300
0000
,  // measure 66
0020
0000
0030
0000
,  // measure 67
1000
0000
0002
0000
,  // measure 68
0003
0000
0002
0000
,  // measure 69
0003
0000
0200
0000
,  // measure 70
0300
0000
0010
0000
,  // measure 71
0010
0000
0020
0000
,  // measure 72
0030
0000
1000
0000
,  // measure 73
1000
0000
1000
0000
,  // measure 74
2000
0000
3000
0000
,  // measure 75
0001
0000
0001
0000
,  // measure 76
0002
0000
0003
0000
,  // measure 77
0010
0000
0010
0000
,  // measure 78
0020
0000
0030
0000
,  // measure 79
0100
0000
0100
0000
,  // measure 80
0200
0000
0300
0000
,  // measure 81
1000
0000
1000
0000
,  // measure 82
2000
0000
3000
0000
,  // measure 83
0001
0000
0001
0000
,  // measure 84
0004
0000
0003
0000
,  // measure 85
1000
0000
1000
0000
,  // measure 86
2000
0000
3000
0000
,  // measure 87
0100
0000
0100
0000
,  // measure 88
0200
0000
0300
0000
;
