#TITLE:The Grasshopper Song;
#SUBTITLE:;
#ARTIST:Sunny Hill;
#TITLETRANSLIT:;
#SUBTITLETRANSLIT:;
#ARTISTTRANSLIT:;
#GENRE:K-Pop;
#CREDIT:Ace Of Hearts;
#BANNER:The Grasshopper Song - Bn.png;
#BACKGROUND:The Grasshopper Song - Bg.png;
#LYRICSPATH:;
#CDTITLE:Ace Of Hearts.png;
#MUSIC:The Grasshopper Song.ogg;
#OFFSET:0.965;
#SAMPLESTART:67.800;
#SAMPLELENGTH:12.000;
#SELECTABLE:YES;
#DISPLAYBPM:153.000;
#BPMS:0.000=153.000,78.000=306.000,78.667=76.500,79.000=153.000,173.000=306.000,173.667=153.000,302.000=306.000,302.667=76.000,303.000=153.000,333.000=306.000,333.667=153.000,492.000=306.000,494.667=153.000,590.000=306.000,590.667=76.500,591.000=153.000;
#STOPS:173.000=0.131
,333.000=0.131
,492.000=0.131
,492.667=0.131
,493.333=0.131
,494.000=0.131
;
#BGCHANGES:;
#FGCHANGES:;
#KEYSOUNDS:;

//---------------dance-single - Expert----------------
#NOTES:
     dance-single:
     Ace Of Hearts (2014):
     Challenge:
     11:
     0.857,0.000,0.783,1.000,0.920:
0000
0000
0000
0000
,
0000
0000
0000
0000
,
0000
0000
0000
0000
,
0000
0000
0000
0000
,
0000
0000
0000
0000
,
0000
0000
0000
0000
,
0000
0000
0000
0000
,
0000
0000
0000
0000
,
0000
0000
0000
0000
,
0000
0000
0000
0000
,
0000
0000
0000
0000
,
0000
0000
0000
0000
,
0011
0000
0000
0000
0000
0000
0210
0000
0000
0000
0000
0300
,
1100
0000
1001
0000
,
0201
0000
0000
0000
0000
0300
0120
0000
0000
0000
0000
0030
,
2010
0000
0000
0000
0000
3000
1002
0000
0000
0000
0000
0000
,
0013
0001
0010
0100
1000
0100
1000
0001
1000
0010
1000
0010
,
0100
0001
0100
0010
1000
0010
0100
0001
0100
0001
1000
0001
,
0010
0001
0010
0100
1000
0100
1000
0001
1000
0010
0100
0010
,
2020
0000
3030
2002
0000
3003
0022
0000
0000
0033
0000
0000
,
0010
0100
1000
0100
0010
0001
1000
0010
1000
1002
0000
0203
,
0300
0000
0010
0200
0300
0100
0001
1000
0100
0120
0000
0032
,
0003
0000
1000
0010
0100
0010
1000
0001
0010
0210
0000
2300
,
3000
0000
0001
0020
0030
0010
0200
0300
0100
2100
0000
3002
,
0003
0000
1000
0010
0000
0110
0000
0000
0100
0001
0000
1001
,
0000
0000
1000
0100
0000
0100
0010
0001
0010
0200
0300
1100
,
0000
0000
1000
0002
0003
0101
0000
0000
0100
0020
0030
1010
,
0000
0000
1000
0001
0000
0001
0010
0100
0010
0001
0000
0000
,
1000
0010
1000
0001
0010
0001
1000
0100
1000
0002
0003
0101
,
0000
0000
0100
0010
0000
0010
1000
0001
0010
0200
0300
1100
,
0000
0000
1000
0001
0000
0001
0100
0010
0100
0002
0003
1001
,
0000
0000
1000
0100
0000
0100
0010
0000
0010
0001
0000
1001
,
0000
0000
1000
0010
0000
0110
0000
0000
0100
0001
0000
1001
,
0000
0000
1000
0100
0000
0100
0010
0001
0010
0200
0300
1100
,
0000
0000
1000
0002
0003
0101
0000
0000
0100
0020
0030
1010
,
0000
0000
1000
0001
0000
0001
0010
0001
1000
0001
0000
1000
,
2020
0000
3030
0220
0000
0330
0202
0300
1003
0100
0000
0120
,
0000
0000
0000
0000
0031
0010
0001
0010
0100
0000
1000
0000
0001
0000
1000
0000
0001
0000
0200
0000
0000
0000
0300
0000
,
0220
0000
0330
2020
0000
3030
2002
3000
0013
0200
0300
2100
,
0000
0000
0000
0000
3001
0100
0001
0100
0001
0000
1000
0000
0100
0000
0010
0000
0100
0000
2000
0000
0000
0000
0000
0000
,
3001
0010
0100
2000
0000
3001
0101
0000
0000
0000
0000
0000
,
0100
0010
1000
0002
0000
0013
0110
0000
0000
0000
0000
0000
,
0000
0000
0100
2000
3000
1000
0002
0003
0001
0100
0000
0020
,
0000
0030
1000
0001
0000
0001
0010
0100
0010
0001
0000
0001
,
2001
0000
3010
0210
0000
0301
2002
0000
0000
0010
3003
0000
,
0201
0000
0310
2010
0000
3001
0202
0000
0000
0010
0303
0000
,
2001
0000
0000
3200
0000
0310
0002
0003
0001
1000
0000
1000
,
1020
0000
0000
0230
0000
0000
0302
0000
0000
2003
0000
3000
,
1020
0000
0130
0102
0000
1003
2200
0000
0000
0010
3300
0000
,
0120
0000
0031
2001
0000
3001
0202
0000
0000
0010
0303
0000
,
0200
0000
0310
1000
0000
1000
0002
0003
0001
0010
0000
0010
,
0210
0000
0000
2300
0000
0000
3001
0100
0001
0100
0000
0100
,
0120
0000
1030
1002
0000
0013
0220
0000
0000
0001
0330
0000
,
0012
0000
1003
1020
0000
0130
0202
0000
0000
1000
0303
0000
,
0001
0000
0001
2000
3000
1000
0200
0300
0100
0010
0000
0010
,
0012
0000
0000
2003
0000
0000
3020
0000
0000
0230
0000
0300
,
0102
0000
1003
1020
0000
0130
0202
0000
0000
0010
0303
0000
,
2001
0000
3100
0120
0000
0031
2002
0000
0000
0010
3003
0000
,
1020
0000
0130
0002
0003
0001
2000
3000
1000
0200
0300
0100
,
0120
0032
2003
3020
,
1030
0001
0010
0001
1000
0010
0100
0001
0100
0020
0030
1010
,
0000
0000
1000
0002
0000
0013
0100
1000
0100
0020
0030
0011
,
0000
0000
0001
2000
0000
3010
0100
0001
0100
0020
0030
1010
,
0000
0000
1000
0002
0000
0013
0200
0300
0100
2000
3000
1001
,
0000
0000
0001
0100
0000
0110
0000
0000
0010
2000
3000
1001
,
0000
0000
0001
0010
0000
0010
0100
1000
0001
2000
3000
1100
,
0000
0000
0100
0020
0030
0011
0000
0000
0001
2000
3000
1010
,
0000
0000
0010
0100
0000
0100
0001
1000
0001
0010
0000
0010
,
0001
0010
0100
1000
0100
0010
0001
1000
0001
2000
3000
1100
,
0000
0000
0100
0020
0030
0010
0100
1000
0100
0020
0030
0011
,
0000
0000
0001
2000
3000
1000
0010
0100
0010
2000
3000
1001
,
0000
0000
0001
0200
0300
0100
0010
1000
0010
0200
0300
0100
,
0002
0000
1003
0200
0300
0110
0000
0000
0010
0002
0003
1001
,
0000
0000
1000
0020
0030
0010
0100
0001
1000
0002
0003
0101
,
0000
0000
0100
0020
0030
1010
0000
0000
1000
0002
0003
0011
,
0000
0000
0010
0200
0300
2000
0000
0000
0000
3000
0000
0000
,
2002
0000
3003
0202
0000
0303
0220
0300
1030
0001
0000
0201
,
0000
0000
0000
0000
0310
0100
0010
0100
0010
0000
1000
0000
0001
0000
0010
0000
0100
0000
2000
0000
0000
0000
3000
0000
,
2002
0000
3003
0022
0000
0033
0220
0030
1300
0002
0003
2001
,
0000
0000
0000
0000
3001
0010
0001
0010
0001
0000
1000
0000
0010
0000
1000
0000
0001
0000
0200
0000
0000
0000
0000
0000
,
0310
1000
0010
0200
0300
0100
0101
0000
0000
0000
0000
0000
,
0001
1000
0100
0020
0030
0010
0011
0000
0000
0000
0000
0000
,
0000
0000
0001
1000
0000
1000
0020
0030
0010
0100
0000
0102
,
0000
0000
1003
0100
0000
0100
0010
0100
0010
0001
0000
0001
,
2001
0000
3010
0210
0000
0301
0202
0000
0000
0010
0303
0000
,
0120
0000
1030
1002
0000
1003
2200
0000
0000
0010
3300
0000
,
0120
0000
0000
0032
0000
1003
0020
0030
0010
0100
0000
0100
,
0102
0000
0000
2003
0000
0000
3200
0000
0000
0320
0000
0030
,
0012
0000
1003
1020
0000
0130
0202
0000
0000
1000
0303
0000
,
0120
0000
1030
1002
0000
1003
2200
0000
0000
0001
3300
0000
,
1002
0000
0103
0010
0000
0010
2000
3000
1000
0001
0000
0001
,
0021
0000
0000
0230
0000
0000
1300
0100
1000
0001
0000
0001
,
2001
0000
3010
0210
0000
0301
2002
0000
0000
0010
3003
0000
,
1200
0000
0310
0012
0000
0013
0220
0000
0000
0001
0330
0000
,
1100
0000
1000
0002
0003
0001
0200
0300
0100
0010
0000
0010
,
2010
0000
0000
3002
0000
0000
0023
0000
0000
0230
0000
0300
,
2100
0000
3001
0201
0000
0310
2020
0000
0000
0001
3030
0000
,
1002
0000
0013
0210
0000
0310
0022
0000
0000
1000
0033
0000
,
2001
0000
3010
0200
0300
0100
0002
0003
0001
2000
3000
1000
,
1020
0000
0000
0230
0000
0000
0301
1000
0001
0010
0000
0010
,
0100
1000
0100
1000
0000
1000
0001
0000
0001
0200
0000
0000
,
0310
0100
0010
1000
0000
1000
0002
0000
0000
0003
0000
0000
,
1000
0000
1000
0001
0000
0001
0010
0000
0010
0200
0000
0000
,
1300
0100
1000
0001
0000
0001
0200
0000
0000
0300
0000
0000
,
0010
0100
0010
0100
0000
0100
0001
0000
0001
2000
0000
0000
,
3001
0010
0001
0010
0000
0010
0200
0000
0000
0300
0000
0000
,
0010
0001
0010
0001
0000
0001
1000
0000
1000
0020
0000
0000
,
0130
0001
0100
0001
0000
0001
2000
0000
0000
3002
0000
0000
,
1003
0100
0010
0001
0000
0001
1000
0000
1000
0020
0000
0000
,
1030
0010
0100
0001
0000
0001
2000
0000
0000
3000
0000
0000
,
0001
0000
0001
0010
0000
0010
0100
0000
0100
2000
0000
0000
,
3001
0100
0010
1000
0000
1000
0002
0000
0000
0003
0000
0000
,
1000
0100
0010
0001
0000
0001
0010
0000
0010
0200
0000
0000
,
0310
0001
1000
0010
0000
0010
0200
0000
0000
0300
0000
0000
,
0001
0100
0010
1000
0000
1000
0001
0000
0001
0020
0000
0030
,
0210
0000
0300
2100
0000
3000
1002
0000
0013
0100
0000
0100
,
2100
0000
0000
3002
0000
0000
0103
0000
0100
0020
0030
0010
,
2010
0000
0000
3002
0000
0003
0021
0000
0000
0230
0000
0300
,
2100
0000
0000
3001
0000
0000
0201
0000
0310
1000
0000
1000
,
1002
0000
0000
0013
0000
0000
0210
0000
0000
2300
0000
3000
,
1004
0103
0140
1030
,
1004
0013
0210
1300
,
1004
0000
0000
0103
0000
0000
0120
0000
0000
1030
0000
1000
,
1001
0000
0011
0000
0110
0000
1100
0000
0000
1001
0000
0000
,
0201
0000
0310
2010
0000
3001
0202
0000
0000
0010
0303
0000
,
2001
0000
3100
0120
0000
0031
2002
0000
0000
0010
3003
0000
,
0201
0000
0000
0320
0000
1030
1002
0000
0013
0100
0000
0100
,
2100
0000
0000
3002
0000
0000
0203
0000
0000
0320
0000
0030
,
2010
0000
3001
0021
0000
0130
2200
0000
0000
0010
3300
0000
,
0120
0000
0031
2001
0000
3001
0202
0000
0000
0010
0303
0000
,
0120
0000
1030
0001
0000
0001
0020
0030
0010
0100
0000
0100
,
2100
0000
0000
3002
0000
0000
0103
0010
0100
0001
0000
0001
,
2001
0000
3100
0120
0000
0031
0202
0000
0000
1000
0303
0000
,
1020
0000
0130
0102
0000
1003
2200
0000
0000
0001
3300
0000
,
1002
0000
0103
0020
0030
0010
2000
3000
1000
0001
0000
0001
,
0021
0000
0000
0230
0000
0000
2300
0000
0000
3002
0000
0003
,
2001
0000
3010
0210
0000
0301
0022
0000
0000
1000
0033
0000
,
0210
0000
1300
1002
0000
1003
2020
0000
0000
0001
3030
0000
,
1002
0000
0013
0200
0300
0100
2000
3000
1000
0002
0003
0001
,
0201
0000
0000
0320
0000
0000
1030
0001
1000
0100
0000
0100
,
0020
0000
0130
1000
0000
1000
0002
0000
0000
0003
0000
0000
,
2000
0000
3010
0100
0000
0100
0002
0000
0000
0003
0000
0000
,
0020
0000
0130
1000
0000
1000
0002
0000
0000
0003
0000
0000
,
0020
0000
0031
0010
0000
0010
0200
0000
0000
0300
0000
0000
,
2000
0000
3001
0100
0000
0100
0020
0000
0000
0030
0000
0000
,
2000
0000
3001
0010
0000
0010
0200
0000
0000
0300
0000
0000
,
0020
0000
0031
1000
0000
1000
0020
0000
0000
0030
0000
0000
,
1000
0010
1000
0001
1000
0001
0200
0000
0000
0000
0000
0000
,
0300
0000
0000
0000
;

//---------------dance-single - Hard----------------
#NOTES:
     dance-single:
     Ace Of Hearts (2014):
     Hard:
     9:
     0.664,0.000,0.120,1.000,0.749:
0000
0000
0000
0000
,
0000
0000
0000
0000
,
0000
0000
0000
0000
,
0000
0000
0000
0000
,
0000
0000
0000
0000
,
0000
0000
0000
0000
,
0000
0000
0000
0000
,
0000
0000
0000
0000
,
0000
0000
0000
0000
,
0000
0000
0000
0000
,
0000
0000
0000
0000
,
0000
0000
0000
0000
,
2000
0000
3002
0000
,
0000
0000
0000
0000
,
0023
0000
0230
0000
,
2300
0000
3002
0000
,
0203
0000
0000
0000
,
0000
0000
0000
0000
,
0320
0000
0000
0000
0000
0000
2030
0000
0000
0000
0000
3000
,
2002
0000
3003
0202
0000
0303
0200
0000
0000
0300
0000
0000
,
0100
0001
0100
0001
0000
0001
1000
0000
1000
0020
0000
0130
,
0000
0000
0100
0001
0000
0001
1000
0001
1000
0200
0000
0310
,
0000
0000
0010
0001
0000
0001
1000
0010
1000
0002
0000
0013
,
0000
0000
0010
0100
0000
0100
1000
0000
1000
0002
0000
0103
,
0000
0000
0100
0010
0000
1000
0000
0000
0001
0010
0000
0100
,
0000
0000
0100
1000
0000
1000
0001
0100
0001
2000
0000
3100
,
0000
0000
0100
0020
0000
0031
0000
0000
0001
2000
0000
3100
,
0000
0000
0100
1000
0000
1000
0001
0000
0020
0000
0030
0000
,
0010
0100
0010
0001
0000
0001
1000
0000
1000
0020
0000
0130
,
0000
0000
0100
0001
0000
0001
1000
0001
1000
0200
0000
0310
,
0000
0000
0010
0001
0000
0001
1000
0010
1000
0002
0000
0013
,
0000
0000
0010
0100
0000
0100
1000
0000
1000
0001
0000
0100
,
0000
0000
0100
0010
0000
1000
0000
0000
1000
0001
0000
0010
,
0000
0000
0010
0100
0000
0100
0010
0001
0010
0200
0000
1300
,
0000
0000
1000
0001
0000
0100
0000
0000
0100
0010
0000
1000
,
0000
0000
1000
0001
0000
0001
0020
0000
0230
0000
0300
0000
,
2000
0000
0000
3002
0000
0000
0023
0000
0130
1000
0000
0002
,
0000
0000
1003
0010
0000
0010
0100
0000
0100
0002
0000
0000
,
2003
0000
0000
3200
0000
0000
0320
0000
0130
2000
0000
3002
,
0000
0000
1003
0010
0000
0010
0100
0000
0100
0002
0000
0000
,
1003
0100
1000
0200
0000
0310
0001
0000
0000
0000
0000
0000
,
1000
0010
1000
0020
0000
0130
0001
0000
0000
0000
0000
0000
,
0000
0000
1000
0100
0000
0100
0010
0000
0010
0100
0000
2000
,
0000
3000
0001
0100
0000
0100
0020
0000
0000
0030
0000
0000
,
2000
0000
3010
2000
0000
3001
2000
0000
3000
1100
0000
0000
,
0200
0000
0310
0200
0000
1300
0200
0000
0300
0110
0000
0000
,
0020
0000
0000
0032
0000
1003
0010
0000
0010
0100
0000
0100
,
0002
2003
3200
0320
,
0032
0000
0013
0002
0000
1003
0002
0000
0003
0101
0000
0000
,
0200
0000
0310
0200
0000
0301
0200
0000
0300
0110
0000
0000
,
0010
0000
0010
1000
0000
1000
0001
0000
0001
0010
0000
0010
,
0200
2300
3002
0203
,
0320
0000
0130
0020
0000
1030
0020
0000
0030
0110
0000
0000
,
0200
0000
0301
0200
0000
0310
0200
0000
0300
0101
0000
0001
,
1000
0000
1000
0100
0000
0100
0010
0000
0010
0100
0000
0100
,
2000
3002
0203
0320
,
2030
0000
3001
2000
0000
3100
2000
0000
3000
1001
0000
0000
,
0002
0000
0103
0002
0000
1003
0002
0000
0003
0011
0000
0000
,
0010
0000
0010
0100
0000
0100
1000
0000
1000
0001
0000
0001
,
0200
0320
2030
3002
,
1003
0010
1000
0001
0000
0001
0010
0000
0010
0200
0000
1300
,
0000
0000
1000
0001
0000
0001
0100
0001
0100
0020
0000
1030
,
0000
0000
1000
0001
0000
0001
0010
0100
0010
0200
0000
1300
,
0000
0000
1000
0002
0000
1003
0100
0000
0100
0020
0000
0130
,
0000
0000
0100
1000
0000
0001
0000
0000
1000
0010
0000
0100
,
0000
0000
0100
0001
0000
0001
1000
0001
1000
0200
0000
0310
,
0000
0000
0010
0002
0000
1003
0000
0000
0010
2000
0000
3001
,
0000
0000
0001
0010
0000
0010
0200
0000
2300
0000
3000
0000
,
0001
0100
0001
1000
0000
1000
0100
0000
0100
0020
0000
0031
,
0000
0000
0001
1000
0000
1000
0010
1000
0010
0200
0000
0301
,
0000
0000
0001
1000
0000
1000
0100
0010
0100
2000
0000
3001
,
0000
0000
0001
0100
0000
0100
0010
0000
0010
2000
0000
3001
,
0000
0000
0001
0010
0000
0100
0000
0000
0010
0001
0000
1000
,
0000
0000
1000
0010
0000
0010
0100
0001
0100
0020
0000
1030
,
0000
0000
1000
0001
0000
0010
0000
0000
0001
1000
0000
0100
,
0000
0000
0100
0010
0000
0020
0000
0000
0000
0030
0000
0000
,
0002
0000
0000
0023
0000
0000
0230
0000
1300
0002
0000
0203
,
0000
0000
0310
1000
0000
1000
0001
0000
0001
0020
0000
0000
,
0230
0000
0000
2300
0000
0000
3002
0000
0103
0020
0000
2030
,
0000
0000
3001
0010
0000
0010
0100
0000
0100
2000
0000
0000
,
3001
0100
0001
0200
0000
0310
1000
0000
0000
0000
0000
0000
,
0001
0010
0001
0020
0000
0130
1000
0000
0000
0000
0000
0000
,
0000
0000
1000
0001
0000
0001
0100
0000
0100
0010
0000
2000
,
0000
3000
0001
0010
0000
0010
0200
0000
0000
0300
0000
0000
,
2000
0000
3001
2000
0000
3100
2000
0000
3000
1001
0000
0000
,
0002
0000
0103
0002
0000
1003
0002
0000
0003
0011
0000
0000
,
0020
0000
0000
0230
0000
1300
0001
0000
0001
0100
0000
0100
,
0020
2030
3002
0023
,
0230
0000
1300
0200
0000
0310
0200
0000
0300
1100
0000
0000
,
2000
0000
3001
2000
0000
3010
2000
0000
3000
1001
0000
0000
,
0002
0000
0013
0100
0000
0100
0010
0000
0010
0001
0000
0001
,
2000
3020
0230
0302
,
2003
0000
3010
2000
0000
3001
2000
0000
3000
1010
0000
0000
,
0020
0000
0130
0020
0000
1030
0020
0000
0030
0110
0000
0100
,
0001
0000
0001
1000
0000
1000
0100
0000
0100
0010
0000
0010
,
0002
2003
3020
0230
,
0302
0000
1003
0002
0000
0013
0002
0000
0003
1001
0000
0000
,
2000
0000
3100
2000
0000
3001
2000
0000
3000
1010
0000
0000
,
0020
0000
0130
0001
0000
0001
1000
0000
1000
0100
0000
0100
,
0020
0230
2300
3002
,
1003
0010
1000
0010
0000
0010
0100
0000
0100
0002
0000
0000
,
2003
0000
3100
0010
0000
0010
0002
0000
0000
0003
0000
0000
,
1000
0000
1000
0010
0000
0010
0100
0000
0100
0020
0000
0000
,
1030
0001
1000
0001
0000
0001
0200
0000
0000
0300
0000
0000
,
0010
0100
0010
0100
0000
0100
0001
0000
0001
2000
0000
0000
,
3001
0010
0001
0010
0000
0010
0200
0000
0000
0300
0000
0000
,
0010
0001
0010
0001
0000
0001
1000
0000
1000
0020
0000
0000
,
0130
0001
0100
0001
0000
0001
2000
0000
0000
3000
0000
0000
,
0001
0100
0001
0100
0000
0100
0010
0000
0010
0200
0000
0000
,
0301
0100
0001
0100
0000
0100
0020
0000
0000
0030
0000
0000
,
1000
0000
1000
0001
0000
0001
0010
0000
0010
0200
0000
0000
,
0310
0001
0010
0001
0000
0001
2000
0000
0000
3000
0000
0000
,
1000
0001
1000
0001
0000
0001
0100
0000
0100
0020
0000
0000
,
1030
0010
1000
0010
0000
0010
0200
0000
0000
0300
0000
0000
,
0001
0100
0001
0100
0000
0100
0010
0000
0010
2000
0000
0000
,
3002
0000
0000
0023
0000
0000
0130
0000
0100
1000
0000
1000
,
0002
0000
0000
0203
0000
0000
0310
0000
0010
1000
0000
1000
,
0002
0023
0230
2300
,
3002
0000
0000
0203
0000
0000
0320
0000
1030
0001
0000
0001
,
0020
0130
2000
3002
,
4003
3010
0400
0301
,
4000
3100
0020
0130
,
4000
3001
0020
0130
,
2200
0000
0000
0000
3300
0000
0000
0000
0000
0000
0000
0000
,
2000
0000
3001
2000
0000
3010
2000
0000
3000
1001
0000
0000
,
0002
0000
0103
0002
0000
1003
0002
0000
0003
0101
0000
0000
,
0100
0000
0100
0010
0000
0010
1000
0000
1000
0001
0000
0001
,
0020
0230
2300
3002
,
0203
0000
0310
0200
0000
0301
0200
0000
0300
0110
0000
0000
,
0020
0000
1030
0020
0000
0130
0020
0000
0030
1010
0000
0000
,
1000
0000
1000
0001
0000
0001
0010
0000
0010
0100
0000
0100
,
2000
3002
0203
0320
,
2030
0000
3001
2000
0000
3100
2000
0000
3000
1001
0000
0000
,
0002
0000
0103
0002
0000
1003
0002
0000
0003
0011
0000
0010
,
0100
0000
0100
1000
0000
1000
0001
0000
0001
0100
0000
0100
,
0020
2030
3002
0023
,
0230
0000
1300
0200
0000
0310
0200
0000
0300
1100
0000
0000
,
2000
0000
3001
2000
0000
3010
2000
0000
3000
1001
0000
0000
,
0001
0000
0001
0100
0000
0100
0010
0000
0010
1000
0000
1000
,
0002
0023
0230
2300
,
3002
0000
0013
0002
0000
0013
0002
0000
0000
0003
0000
0000
,
2000
0000
3010
2000
0000
3010
2000
0000
0000
3000
0000
0000
,
0020
0000
0130
0020
0000
0130
0020
0000
0000
0030
0000
0000
,
0200
0000
0301
0200
0000
0301
0200
0000
0000
0300
0000
0000
,
0020
0000
1030
0020
0000
1030
0020
0000
0000
0030
0000
0000
,
2000
0000
3001
2000
0000
3001
2000
0000
0000
3000
0000
0000
,
0002
0000
0013
0002
0000
0013
0002
0000
0000
0003
0000
0000
,
1000
1001
0002
0000
,
0003
0000
0000
0000
;

//---------------dance-single - Medium----------------
#NOTES:
     dance-single:
     Ace Of Hearts (2014):
     Medium:
     7:
     0.466,0.000,0.000,0.955,0.270: // measure 1
0000
0000
0000
0000
,  // measure 2
0000
0000
0000
0000
,  // measure 3
0000
0000
0000
0000
,  // measure 4
0000
0000
0000
0000
,  // measure 5
0000
0000
0000
0000
,  // measure 6
0000
0000
0000
0000
,  // measure 7
0000
0000
0000
0000
,  // measure 8
0000
0000
0000
0000
,  // measure 9
0000
0000
0000
0000
,  // measure 10
0000
0000
0000
0000
,  // measure 11
0000
0000
0000
0000
,  // measure 12
0000
0000
0000
0000
,  // measure 13
0002
0000
2003
0000
,  // measure 14
0000
0000
0000
0000
,  // measure 15
3200
0000
0000
0000
,  // measure 16
0320
0000
0032
0000
,  // measure 17
2003
0000
0000
0000
,  // measure 18
0000
0000
0000
0000
,  // measure 19
3020
0000
0230
0000
,  // measure 20
0301
0001
2000
3000
,  // measure 21
0001
0000
0000
0010
0000
0000
0001
0000
0000
0020
0000
0130
,  // measure 22
0000
0000
0000
1000
0000
0000
0001
0000
0000
2000
0000
3010
,  // measure 23
0000
0000
0000
0100
0000
0000
0010
0000
0000
0200
0000
0301
,  // measure 24
0000
0000
0000
1000
0000
0000
0001
0000
0000
2000
0000
3000
,  // measure 25
0000
0000
0000
0001
0000
0001
0000
0000
0000
0010
0000
0010
,  // measure 26
0000
0000
0000
0100
0000
0000
1000
0000
0000
0200
0000
0310
,  // measure 27
0000
0000
0000
0001
0000
0001
0000
0000
0000
1000
0000
1000
,  // measure 28
0000
0000
0000
0100
0000
0000
0010
0000
0020
0000
0030
0000
,  // measure 29
0001
0000
0000
0001
0000
0000
1000
0000
0000
2000
0000
3010
,  // measure 30
0000
0000
0000
0200
0000
0000
0301
0000
0000
0002
0000
1003
,  // measure 31
0000
0000
0000
0100
0000
0000
0010
0000
0000
0020
0000
0031
,  // measure 32
0000
0000
0000
1000
0000
0000
0010
0000
0000
1000
0000
1000
,  // measure 33
0000
0000
0000
0001
0000
0001
0000
0000
0000
0010
0000
0010
,  // measure 34
0000
0000
0000
0100
0000
0000
0010
0000
0000
0200
0000
1300
,  // measure 35
0000
0000
0000
0100
0000
0100
0000
0000
0000
1000
0000
1000
,  // measure 36
0000
0000
0000
0001
0000
0000
0010
0000
0020
0000
0030
0000
,  // measure 37
0002
0000
0000
2003
0000
0000
3002
0000
0000
0023
0000
0230
,  // measure 38
0000
0000
0300
0000
0000
0000
0000
0000
0000
0000
0000
0000
,  // measure 39
2000
0000
0000
3002
0000
0000
2003
0000
0000
3020
0000
0230
,  // measure 40
0000
0000
0300
0000
0000
0000
0000
0000
0000
0000
0000
0000
,  // measure 41
0001
0000
0000
2000
0000
3001
0010
0000
0000
0000
0000
0000
,  // measure 42
0001
0000
0000
2000
0000
3100
0010
0000
0000
0000
0000
0000
,  // measure 43
0000
0000
0000
0001
0000
0000
1000
0000
0000
0000
0000
0020
,  // measure 44
0000
0000
0030
0100
0000
0000
0200
0000
0000
0300
0000
0000
,  // measure 45
0001
0000
0001
1000
0000
1000
0002
0000
0000
0003
0000
0000
,  // measure 46
0010
0000
0010
0100
0000
0100
0020
0000
0000
0030
0000
0000
,  // measure 47
0002
0000
0000
2003
0000
0000
3020
0000
0000
1030
0000
0001
,  // measure 48
0020
0032
2003
3020
,  // measure 49
1030
0000
1000
0001
0000
0001
2000
0000
0000
3000
0000
0000
,  // measure 50
0100
0000
0100
0010
0000
0010
0200
0000
0000
0300
0000
0000
,  // measure 51
0020
0000
0000
0032
0000
0000
1003
0000
0000
0001
0000
1000
,  // measure 52
0200
0320
0230
2300
,  // measure 53
3001
0000
0001
0100
0000
0100
0002
0000
0000
0003
0000
0000
,  // measure 54
1000
0000
1000
0100
0000
0100
2000
0000
0000
3000
0000
0000
,  // measure 55
0001
0000
0000
0200
0000
0000
0302
0000
0000
2003
0000
3001
,  // measure 56
0020
0230
2300
3002
,  // measure 57
1003
0000
1000
0010
0000
0010
2000
0000
0000
3000
0000
0000
,  // measure 58
0001
0000
0001
0010
0000
0010
0002
0000
0000
0003
0000
0000
,  // measure 59
2000
0000
0000
3020
0000
0000
2030
0000
0000
3001
0000
0010
,  // measure 60
0200
2300
3002
0203
,  // measure 61
0310
0000
0000
1000
0000
0000
0010
0000
0000
0200
0000
0301
,  // measure 62
0000
0000
0000
2000
0000
0000
3002
0000
0000
0023
0000
0130
,  // measure 63
0000
0000
0000
1000
0000
0000
0002
0000
0000
2003
0000
3010
,  // measure 64
0000
0000
0000
0100
0000
0000
0010
0000
0000
0200
0000
0300
,  // measure 65
0000
0000
0000
0001
0000
0001
0000
0000
0000
1000
0000
1000
,  // measure 66
0000
0000
0000
0100
0000
0000
1000
0000
0000
0200
0000
0310
,  // measure 67
0000
0000
0000
0001
0000
0001
0000
0000
0000
0010
0000
0010
,  // measure 68
0000
0000
0000
0100
0000
0000
1000
0000
2000
0000
3000
0000
,  // measure 69
0001
0000
0000
0100
0000
0000
0001
0000
0000
2000
0000
3010
,  // measure 70
0000
0000
0000
1000
0000
0000
0001
0000
0000
2000
0000
3100
,  // measure 71
0000
0000
0000
0010
0000
0000
0001
0000
0000
0020
0000
0130
,  // measure 72
0000
0000
0000
1000
0000
0000
0001
0000
0000
2000
0000
3010
,  // measure 73
0000
0000
0000
0100
0000
0100
0000
0000
0000
0001
0000
0001
,  // measure 74
0000
0000
0000
1000
0000
0000
0100
0000
0000
2000
0000
3001
,  // measure 75
0000
0000
0000
0100
0000
0100
0000
0000
0000
0010
0000
0010
,  // measure 76
0000
0000
0000
1000
0000
2000
0000
0000
0000
3000
0000
0000
,  // measure 77
0002
0000
0000
0023
0000
0000
0032
0000
0000
2003
0000
3200
,  // measure 78
0000
0000
0300
0000
0000
0000
0000
0000
0000
0000
0000
0000
,  // measure 79
0020
0000
0000
0230
0000
0000
0320
0000
0000
0032
0000
2003
,  // measure 80
0000
0000
3000
0000
0000
0000
0000
0000
0000
0000
0000
0000
,  // measure 81
0020
0000
0000
2030
0000
3001
0100
0000
0000
0000
0000
0000
,  // measure 82
0020
0000
0000
0230
0000
0301
1000
0000
0000
0000
0000
0000
,  // measure 83
0000
0000
0000
0002
0000
0000
0023
0000
0000
0130
0000
2000
,  // measure 84
0000
0000
3000
0001
0000
0000
0002
0000
0000
0003
0000
0000
,  // measure 85
1000
0000
1000
0100
0000
0100
2000
0000
0000
3000
0000
0000
,  // measure 86
0001
0000
0001
0010
0000
0010
0002
0000
0000
0003
0000
0000
,  // measure 87
2000
0000
0000
3020
0000
0000
2030
0000
0000
3001
0000
0010
,  // measure 88
0200
0320
0032
2003
,  // measure 89
3001
0000
0001
0100
0000
0100
0002
0000
0000
0003
0000
0000
,  // measure 90
1000
0000
1000
0010
0000
0010
2000
0000
0000
3000
0000
0000
,  // measure 91
0002
0000
0000
0203
0000
0000
0301
0000
0000
1000
0000
0100
,  // measure 92
0020
0230
2300
3002
,  // measure 93
1003
0000
1000
0001
0000
0001
2000
0000
0000
3000
0000
0000
,  // measure 94
0010
0000
0010
0100
0000
0100
0020
0000
0000
0030
0000
0000
,  // measure 95
1000
0000
0000
0002
0000
0000
0023
0000
0000
0031
0000
1000
,  // measure 96
0200
0320
0230
2300
,  // measure 97
3001
0000
0001
0100
0000
0100
0002
0000
0000
0003
0000
0000
,  // measure 98
1000
0000
1000
0100
0000
0100
2000
0000
0000
3000
0000
0000
,  // measure 99
0002
0000
0000
0203
0000
0000
0302
0000
0000
1003
0000
0100
,  // measure 100
0020
0230
2300
3002
,  // measure 101
1003
0010
1000
0002
,  // measure 102
0013
0100
0020
0030
,  // measure 103
0001
0010
0001
0020
,  // measure 104
0130
1000
0200
0300
,  // measure 105
1000
0001
1000
0002
,  // measure 106
0103
0010
0200
0300
,  // measure 107
0001
0100
0001
0200
,  // measure 108
0310
1000
0020
0030
,  // measure 109
2000
3001
0010
0002
,  // measure 110
2003
3010
0200
0300
,  // measure 111
0010
1000
0010
0200
,  // measure 112
0302
1003
0200
0300
,  // measure 113
0010
0001
0010
0200
,  // measure 114
1300
0001
0200
0300
,  // measure 115
0010
1000
0010
0200
,  // measure 116
0302
0000
0000
2003
0000
0000
3200
0000
0310
0001
0000
0000
,  // measure 117
2000
0000
0000
3020
0000
0000
2030
0000
3001
0010
0000
0000
,  // measure 118
0200
0320
0032
2003
,  // measure 119
3020
0000
0000
0230
0000
0000
0302
0000
1003
0100
0000
0100
,  // measure 120
2000
3001
0200
0302
,  // measure 121
4003
3100
0040
0031
,  // measure 122
4000
3010
0200
0301
,  // measure 123
4000
3100
0020
0031
,  // measure 124
2000
0000
0000
0000
3000
0000
0000
0000
0000
0000
0000
0000
,  // measure 125
0001
0000
0001
0100
0000
0100
0020
0000
0000
0030
0000
0000
,  // measure 126
1000
0000
1000
0001
0000
0001
0020
0000
0000
0030
0000
0000
,  // measure 127
0200
0000
0000
2300
0000
0000
3002
0000
0000
0103
0000
0010
,  // measure 128
2000
3002
0023
0230
,  // measure 129
0310
0000
0010
0001
0000
0001
2000
0000
0000
3000
0000
0000
,  // measure 130
0010
0000
0010
0100
0000
0100
0002
0000
0000
0003
0000
0000
,  // measure 131
2000
0000
0000
3200
0000
0000
0310
0000
0000
0100
0000
1000
,  // measure 132
0002
0203
0320
2030
,  // measure 133
3001
0000
0001
0100
0000
0100
0020
0000
0000
0030
0000
0000
,  // measure 134
1000
0000
1000
0001
0000
0001
0200
0000
0000
0300
0000
0000
,  // measure 135
0001
0000
0000
2000
0000
0000
3200
0000
0000
0310
0000
0001
,  // measure 136
0020
0230
2300
3002
,  // measure 137
1003
0000
1000
0010
0000
0010
0200
0000
0000
0300
0000
0000
,  // measure 138
0001
0000
0001
1000
0000
1000
0200
0000
0000
0300
0000
0000
,  // measure 139
0020
0000
0000
0230
0000
0000
2300
0000
0000
3001
0000
1000
,  // measure 140
0020
0230
0302
2003
,  // measure 141
3002
0000
0013
0100
0000
0100
0020
0000
0000
0030
0000
0000
,  // measure 142
0200
0000
1300
0001
0000
0001
2000
0000
0000
3000
0000
0000
,  // measure 143
0002
0000
0103
0010
0000
0010
0200
0000
0000
0300
0000
0000
,  // measure 144
0020
0000
1030
0001
0000
0001
2000
0000
0000
3000
0000
0000
,  // measure 145
0002
0000
0013
0100
0000
0100
0020
0000
0000
0030
0000
0000
,  // measure 146
0002
0000
0103
0010
0000
0010
0200
0000
0000
0300
0000
0000
,  // measure 147
0020
0000
1030
0001
0000
0001
2000
0000
0000
3000
0000
0000
,  // measure 148
0001
0010
0200
0000
,  // measure 149
0300
0000
0000
0000
;

//---------------dance-single - Easy----------------
#NOTES:
     dance-single:
     Ace Of Hearts (2014):
     Easy:
     5:
     0.274,0.000,0.000,0.355,0.000: // measure 1
0000
0000
0000
0000
,  // measure 2
0000
0000
0000
0000
,  // measure 3
0000
0000
0000
0000
,  // measure 4
0000
0000
0000
0000
,  // measure 5
0000
0000
0000
0000
,  // measure 6
0000
0000
0000
0000
,  // measure 7
0000
0000
0000
0000
,  // measure 8
0000
0000
0000
0000
,  // measure 9
0000
0000
0000
0000
,  // measure 10
0000
0000
0000
0000
,  // measure 11
0000
0000
0000
0000
,  // measure 12
0000
0000
0000
0000
,  // measure 13
2000
0000
3002
0000
,  // measure 14
0000
0000
0000
0000
,  // measure 15
0023
0000
0000
0000
,  // measure 16
0230
0000
2300
0000
,  // measure 17
3002
0000
0000
0000
,  // measure 18
0000
0000
0000
0000
,  // measure 19
2003
0000
0000
0000
,  // measure 20
3010
0010
0020
0030
,  // measure 21
1000
1000
0001
0001
,  // measure 22
0000
0100
0100
0100
,  // measure 23
0000
0010
0010
0010
,  // measure 24
0000
1000
2000
3000
,  // measure 25
0000
0000
0000
0002
0000
0003
0000
0000
0000
0020
0000
0030
,  // measure 26
0000
0100
0100
0100
,  // measure 27
0000
0000
0000
2000
0000
3000
0000
0000
0000
0002
0000
0003
,  // measure 28
0000
0010
0010
0000
,  // measure 29
0100
0100
1000
1000
,  // measure 30
0000
0001
0001
0001
,  // measure 31
0000
1000
1000
1000
,  // measure 32
0000
0010
0020
0030
,  // measure 33
0000
0000
0000
0200
0000
0300
0000
0000
0000
0002
0000
0003
,  // measure 34
0000
1000
1000
1000
,  // measure 35
0000
0000
0000
0002
0000
0003
0000
0000
0000
0020
0000
0030
,  // measure 36
0000
0100
0200
0300
,  // measure 37
1000
0000
0000
1000
0000
0000
2000
0000
0000
0000
0000
3000
,  // measure 38
0000
0000
0000
0000
,  // measure 39
0001
0000
0000
0001
0000
0000
0002
0000
0000
0000
0000
0003
,  // measure 40
0000
0000
0000
0000
,  // measure 41
0100
0100
0100
0000
,  // measure 42
0010
0010
0010
0000
,  // measure 43
0000
0000
0000
0100
0000
0000
0200
0000
0000
0000
0000
0300
,  // measure 44
0000
0010
0020
0030
,  // measure 45
1000
0001
2000
3000
,  // measure 46
0001
1000
0002
0003
,  // measure 47
0100
0100
0100
0000
,  // measure 48
0010
0010
0010
0000
,  // measure 49
0100
0010
0200
0300
,  // measure 50
0010
0100
0020
0030
,  // measure 51
1000
1000
1000
0000
,  // measure 52
0001
0001
0001
0000
,  // measure 53
1000
0001
2000
3000
,  // measure 54
0001
1000
0002
0003
,  // measure 55
0010
0010
0010
0000
,  // measure 56
0100
0100
0100
0000
,  // measure 57
0010
0100
0020
0030
,  // measure 58
0100
0010
0200
0300
,  // measure 59
1000
1000
1000
0000
,  // measure 60
0001
0001
0001
0000
,  // measure 61
0100
0100
0010
0010
,  // measure 62
0000
1000
1000
1000
,  // measure 63
0000
0001
0001
0001
,  // measure 64
0000
0010
0020
0030
,  // measure 65
0000
0000
0000
0200
0000
0300
0000
0000
0000
2000
0000
3000
,  // measure 66
0000
0001
0001
0001
,  // measure 67
0000
0000
0000
0200
0000
0300
0000
0000
0000
0020
0000
0030
,  // measure 68
0000
1000
2000
3000
,  // measure 69
0001
0001
0010
0010
,  // measure 70
0000
0100
0100
0100
,  // measure 71
0000
1000
1000
1000
,  // measure 72
0000
0001
0001
0001
,  // measure 73
0000
0000
0000
0200
0000
0300
0000
0000
0000
0020
0000
0030
,  // measure 74
0000
1000
1000
1000
,  // measure 75
0000
0000
0000
0002
0000
0003
0000
0000
0000
0020
0000
0030
,  // measure 76
0000
0000
0000
0200
0000
0300
0000
0000
0000
0000
0000
0000
,  // measure 77
1000
0000
0000
1000
0000
0000
2000
0000
0000
0000
0000
3000
,  // measure 78
0000
0000
0000
0000
,  // measure 79
0001
0000
0000
0001
0000
0000
0002
0000
0000
0000
0000
0003
,  // measure 80
0000
0000
0000
0000
,  // measure 81
0100
0100
0100
0000
,  // measure 82
0010
0010
0010
0000
,  // measure 83
0000
0000
0000
1000
0000
0000
2000
0000
0000
0000
0000
3000
,  // measure 84
0000
0001
0002
0003
,  // measure 85
1000
0100
2000
3000
,  // measure 86
0001
0010
0002
0003
,  // measure 87
1000
1000
1000
0000
,  // measure 88
0010
0010
0010
0000
,  // measure 89
1000
0010
2000
3000
,  // measure 90
0001
0100
0002
0003
,  // measure 91
0100
0100
0100
0000
,  // measure 92
0010
0010
0010
0000
,  // measure 93
1000
0001
2000
3000
,  // measure 94
0010
0100
0020
0030
,  // measure 95
1000
1000
1000
0000
,  // measure 96
0001
0001
0001
0000
,  // measure 97
0010
0001
0020
0030
,  // measure 98
0100
1000
0200
0300
,  // measure 99
0010
0010
0010
0000
,  // measure 100
0001
0001
0001
0000
,  // measure 101
1000
1000
1000
0000
,  // measure 102
0010
0010
0020
0030
,  // measure 103
0100
0100
0100
0000
,  // measure 104
0001
0001
0002
0003
,  // measure 105
1000
1000
1000
0000
,  // measure 106
0100
0100
0200
0300
,  // measure 107
0010
0010
0010
0000
,  // measure 108
0001
0001
0002
0003
,  // measure 109
1000
1000
0010
0010
,  // measure 110
1000
1000
2000
3000
,  // measure 111
0001
0001
0010
0010
,  // measure 112
0001
0001
0002
0003
,  // measure 113
1000
1000
0100
0100
,  // measure 114
1000
1000
2000
3000
,  // measure 115
0001
0001
0010
0010
,  // measure 116
0002
0000
0003
0000
,  // measure 117
1000
1000
2000
3000
,  // measure 118
0010
0010
0020
0030
,  // measure 119
0100
0100
0200
0300
,  // measure 120
0001
0001
0002
0003
,  // measure 121
4000
3000
0400
0300
,  // measure 122
0040
0030
0001
0001
,  // measure 123
0004
0003
1000
1000
,  // measure 124
2000
0000
0000
0000
3000
0000
0000
0000
0000
0000
0000
0000
,  // measure 125
0001
0010
0002
0003
,  // measure 126
1000
0010
2000
3000
,  // measure 127
0010
0010
0010
0000
,  // measure 128
0100
0100
0100
0000
,  // measure 129
0001
0100
0002
0003
,  // measure 130
1000
0100
2000
3000
,  // measure 131
0001
0001
0001
0000
,  // measure 132
0100
0100
0100
0000
,  // measure 133
0010
1000
0020
0030
,  // measure 134
0100
0001
0200
0300
,  // measure 135
0010
0010
0010
0000
,  // measure 136
1000
1000
1000
0000
,  // measure 137
0001
0010
0002
0003
,  // measure 138
1000
0100
2000
3000
,  // measure 139
0001
0001
0001
0000
,  // measure 140
0100
0100
0100
0000
,  // measure 141
0001
1000
0002
0003
,  // measure 142
1000
0001
2000
3000
,  // measure 143
0010
0100
0020
0030
,  // measure 144
0100
0010
0200
0300
,  // measure 145
0001
1000
0002
0003
,  // measure 146
1000
0001
2000
3000
,  // measure 147
0010
0100
0020
0030
,  // measure 148
0100
0100
0200
0000
,  // measure 149
0300
0000
0000
0000
;

//---------------dance-single - Novice----------------
#NOTES:
     dance-single:
     Ace Of Hearts (2014):
     Beginner:
     3:
     0.154,0.000,0.000,0.240,0.000: // measure 1
0000
0000
0000
0000
,  // measure 2
0000
0000
0000
0000
,  // measure 3
0000
0000
0000
0000
,  // measure 4
0000
0000
0000
0000
,  // measure 5
0000
0000
0000
0000
,  // measure 6
0000
0000
0000
0000
,  // measure 7
0000
0000
0000
0000
,  // measure 8
0000
0000
0000
0000
,  // measure 9
0000
0000
0000
0000
,  // measure 10
0000
0000
0000
0000
,  // measure 11
0000
0000
0000
0000
,  // measure 12
0000
0000
0000
0000
,  // measure 13
0001
0000
0002
0000
,  // measure 14
0000
0000
0003
0000
,  // measure 15
2000
0000
3000
0000
,  // measure 16
0001
0000
0001
0000
,  // measure 17
0002
0000
0000
0000
,  // measure 18
0000
0000
0003
0000
,  // measure 19
2000
0000
3000
0000
,  // measure 20
0020
0000
0030
0000
,  // measure 21
1000
0000
1000
0000
,  // measure 22
0000
0000
0001
0000
,  // measure 23
0000
0000
0001
0000
,  // measure 24
0000
0000
0001
0000
,  // measure 25
0000
1000
0000
1000
,  // measure 26
0000
2000
0000
3000
,  // measure 27
0000
0010
0000
0010
,  // measure 28
0000
0020
0000
0030
,  // measure 29
1000
0000
1000
0000
,  // measure 30
0000
0000
0010
0000
,  // measure 31
0000
0000
0010
0000
,  // measure 32
0000
0000
0010
0000
,  // measure 33
0000
0100
0000
0100
,  // measure 34
0000
0200
0000
0300
,  // measure 35
0000
0001
0000
0001
,  // measure 36
0000
0002
0000
0003
,  // measure 37
1000
0000
2000
0000
,  // measure 38
3000
0000
0000
0000
,  // measure 39
0001
0000
0002
0000
,  // measure 40
0003
0000
0000
0000
,  // measure 41
0020
0000
0030
0000
,  // measure 42
0020
0000
0030
0000
,  // measure 43
0000
0000
0001
0000
,  // measure 44
0002
0000
0003
0000
,  // measure 45
1000
0000
1000
0000
,  // measure 46
0001
0000
0001
0000
,  // measure 47
2000
0000
3000
0000
,  // measure 48
2000
0000
3000
0000
,  // measure 49
0100
0000
0100
0000
,  // measure 50
0010
0000
0010
0000
,  // measure 51
0002
0000
0003
0000
,  // measure 52
0002
0000
0003
0000
,  // measure 53
1000
0000
1000
0000
,  // measure 54
0001
0000
0001
0000
,  // measure 55
0200
0000
0300
0000
,  // measure 56
0200
0000
0300
0000
,  // measure 57
0010
0000
0010
0000
,  // measure 58
0100
0000
0100
0000
,  // measure 59
0002
0000
0003
0000
,  // measure 60
0002
0000
0003
0000
,  // measure 61
1000
0000
1000
0000
,  // measure 62
0000
0000
0100
0000
,  // measure 63
0000
0000
0100
0000
,  // measure 64
0000
0000
0100
0000
,  // measure 65
0000
0010
0000
0010
,  // measure 66
0000
0020
0000
0030
,  // measure 67
0000
0001
0000
0001
,  // measure 68
0000
0002
0000
0003
,  // measure 69
1000
0000
1000
0000
,  // measure 70
0000
0000
0010
0000
,  // measure 71
0000
0000
0010
0000
,  // measure 72
0000
0000
0010
0000
,  // measure 73
0000
0100
0000
0100
,  // measure 74
0000
0200
0000
0300
,  // measure 75
0000
0001
0000
0001
,  // measure 76
0000
0002
0003
0000
,  // measure 77
1000
0000
2000
0000
,  // measure 78
3000
0000
0000
0000
,  // measure 79
0010
0000
0020
0000
,  // measure 80
0030
0000
0000
0000
,  // measure 81
0100
0000
0100
0000
,  // measure 82
0001
0000
0001
0000
,  // measure 83
0000
0000
1000
0000
,  // measure 84
2000
0000
3000
0000
,  // measure 85
0010
0000
0010
0000
,  // measure 86
0100
0000
0100
0000
,  // measure 87
0001
0000
0001
0000
,  // measure 88
0002
0000
0003
0000
,  // measure 89
1000
0000
1000
0000
,  // measure 90
0100
0000
0100
0000
,  // measure 91
0010
0000
0010
0000
,  // measure 92
0020
0000
0030
0000
,  // measure 93
0001
0000
0001
0000
,  // measure 94
1000
0000
1000
0000
,  // measure 95
0010
0000
0010
0000
,  // measure 96
0020
0000
0030
0000
,  // measure 97
1000
0000
1000
0000
,  // measure 98
0001
0000
0001
0000
,  // measure 99
0010
0000
0010
0000
,  // measure 100
0020
0000
0030
0000
,  // measure 101
0100
0000
0100
0000
,  // measure 102
0200
0000
0300
0000
,  // measure 103
1000
0000
1000
0000
,  // measure 104
2000
0000
3000
0000
,  // measure 105
0001
0000
0001
0000
,  // measure 106
0002
0000
0003
0000
,  // measure 107
0100
0000
0100
0000
,  // measure 108
0200
0000
0300
0000
,  // measure 109
0010
0000
0010
0000
,  // measure 110
0020
0000
0030
0000
,  // measure 111
1000
0000
1000
0000
,  // measure 112
2000
0000
3000
0000
,  // measure 113
0001
0000
0001
0000
,  // measure 114
0002
0000
0003
0000
,  // measure 115
0010
0000
0010
0000
,  // measure 116
0020
0000
0030
0000
,  // measure 117
0001
0000
0001
0000
,  // measure 118
0002
0000
0003
0000
,  // measure 119
1000
0000
1000
0000
,  // measure 120
2000
0000
3000
0000
,  // measure 121
0010
0000
0010
0000
,  // measure 122
0100
0000
0100
0000
,  // measure 123
0001
0000
0001
0000
,  // measure 124
0002
0000
0000
0000
0003
0000
0000
0000
0000
0000
0000
0000
,  // measure 125
1000
0000
1000
0000
,  // measure 126
0100
0000
0100
0000
,  // measure 127
0010
0000
0010
0000
,  // measure 128
0020
0000
0030
0000
,  // measure 129
0001
0000
0001
0000
,  // measure 130
1000
0000
1000
0000
,  // measure 131
0010
0000
0010
0000
,  // measure 132
0020
0000
0030
0000
,  // measure 133
0100
0000
0100
0000
,  // measure 134
0001
0000
0001
0000
,  // measure 135
1000
0000
1000
0000
,  // measure 136
2000
0000
3000
0000
,  // measure 137
0001
0000
0001
0000
,  // measure 138
0010
0000
0010
0000
,  // measure 139
0100
0000
0100
0000
,  // measure 140
0200
0000
0300
0000
,  // measure 141
2000
0000
3000
0000
,  // measure 142
0002
0000
0003
0000
,  // measure 143
2000
0000
3000
0000
,  // measure 144
0002
0000
0003
0000
,  // measure 145
0020
0000
0030
0000
,  // measure 146
0200
0000
0300
0000
,  // measure 147
0020
0000
0030
0000
,  // measure 148
0100
0000
0200
0000
,  // measure 149
0300
0000
0000
0000
;
