#TITLE:Tamagotchi;
#SUBTITLE:;
#ARTIST:Squeezer;
#TITLETRANSLIT:;
#SUBTITLETRANSLIT:;
#ARTISTTRANSLIT:;
#GENRE:;
#CREDIT:Ace Of Hearts;
#BANNER:Tamagotchi - Bn.png;
#BACKGROUND:Tamagotchi - Bg.jpg;
#LYRICSPATH:;
#CDTITLE:Ace Of Hearts.png;
#MUSIC:Tamagotchi.ogg;
#OFFSET:1.575;
#SAMPLESTART:21.000;
#SAMPLELENGTH:12.000;
#SELECTABLE:YES;
#BPMS:0.000=142.340,294.000=71.170,310.000=142.340,526.000=71.170;
#STOPS:;
#BGCHANGES:0.000=Tamagotchi - Bg.png=1.000=0=0=1=Centered====,
3.625=Tamagotchi Music Video.avi=1.000=1=0=1===CrossFade==,
99999=-nosongbg-=1.000=0=0=0 // don't automatically add -songbackground-
;
#KEYSOUNDS:;

//---------------dance-single - Expert----------------
#NOTES:
     dance-single:
     Ace Of Hearts (2014):
     Challenge:
     9:
     0.729,0.200,0.633,1.000,0.114: // measure 1
0000
0000
0000
0000
,  // measure 2
0000
0000
0000
0000
,  // measure 3
0000
0000
0000
0004
0003
0000
0000
0000
,  // measure 4
0000
0000
0000
0000
0000
0000
0000
0000
0000
0000
0000
0000
0004
0000
0000
0003
2001
0000
0000
0000
0000
0000
0000
0000
3020
0000
0000
0000
0000
0000
0030
0000
,  // measure 5
0210
0301
2001
0000
,  // measure 6
3020
0000
0030
0000
1000
0001
0010
0001
,  // measure 7
1000
0000
0100
0000
1000
0000
0001
0000
2000
3010
2000
3010
2000
3010
2000
3010
,  // measure 8
0100
0001
1000
0100
0040
0130
1000
0001
,  // measure 9
1000
0010
0100
0010
2000
0000
3000
0000
,  // measure 10
0002
0003
0002
0000
0000
0000
0003
0000
1000
0000
0100
0000
0010
0000
0001
0000
,  // measure 11
1000
0010
0100
0001
1000
0100
0010
0400
,  // measure 12
0300
0000
0400
0000
0300
0000
0000
0000
2000
3000
2000
0000
0000
0000
3000
0000
,  // measure 13
0001
1000
0010
1000
0001
0010
0100
0010
,  // measure 14
0001
0000
0000
0000
0000
0000
1000
0000
0100
0000
1000
0000
0100
0000
0000
0000
0000
0000
0010
0000
0000
0000
0000
0000
0012
0000
0000
0000
0000
0000
0000
0000
0000
0000
0000
0000
2003
0000
0000
0000
0000
0000
0000
0000
0000
3000
0000
0000
,  // measure 15
1020
0000
0230
0000
0300
0000
0001
2001
,  // measure 16
0000
3100
0010
0100
2000
0000
3001
0000
,  // measure 17
0021
0000
0230
0000
0300
0000
1000
1002
,  // measure 18
0000
0000
0103
0000
0010
0000
1000
0000
1002
0000
0000
0000
0203
0000
0000
0300
,  // measure 19
0120
0000
2030
0000
3000
0000
0001
0020
,  // measure 20
0000
0031
1000
0000
1020
0000
0130
0002
,  // measure 21
0000
0000
0000
0000
0003
0000
0000
0000
0000
0000
1000
0000
0200
0000
0000
0300
,  // measure 22
0120
0000
0000
0000
0032
0000
0000
0003
2001
0000
0000
0000
3020
0000
0000
0030
,  // measure 23
0210
0000
0302
0000
0003
0000
1000
1200
,  // measure 24
0000
0000
0310
0000
0100
0000
1000
0000
0002
0000
0000
0000
0203
0000
0000
0300
,  // measure 25
0120
0000
2030
0000
3000
0000
0001
0020
,  // measure 26
0000
0000
0031
0000
1000
0000
0010
0000
0210
0000
0000
0000
0302
0000
0000
0003
,  // measure 27
2001
0000
3200
0000
0300
0000
0010
0002
,  // measure 28
0000
0000
0013
0000
0200
0000
0000
0300
2100
0000
0000
0000
3001
0000
0200
0000
,  // measure 29
0000
0310
1000
0020
0000
2030
0000
0000
,  // measure 30
3002
0000
0000
0000
0000
0000
0013
0000
0100
0000
0010
0000
0100
0000
0000
0000
0000
0000
1000
0000
0000
0000
0000
0000
1001
0000
0000
0000
0000
0000
0001
0000
0000
0000
0000
0000
0200
0000
0000
0000
0000
0000
0000
0000
0000
0300
0000
0000
,  // measure 31
0120
0000
1030
0002
0000
0203
0000
0320
,  // measure 32
0000
0000
2030
0000
0000
0000
3000
0000
1001
0000
0001
0000
0020
0000
0000
0030
,  // measure 33
0210
0000
1300
0002
0000
0023
0000
0230
,  // measure 34
0000
0000
2300
0000
0000
0000
3000
0000
1010
0000
0010
0000
0200
0000
0000
0300
,  // measure 35
0102
0000
1003
0200
0000
0320
0000
0230
,  // measure 36
0000
2300
0000
3000
1001
0001
0200
0000
,  // measure 37
0320
0000
0000
0000
1030
0000
0002
0000
0023
0130
0020
0130
0020
0130
0020
0130
,  // measure 38
1000
0000
0000
0001
0100
0001
0100
0000
0000
0010
0000
0000
2010
0000
0000
0000
0000
0000
3001
0000
0000
0020
0000
0000
,  // measure 39
0000
0130
1000
0001
0100
0010
0100
0002
,  // measure 40
0000
0000
4003
0000
3000
0000
0000
0000
1010
0000
0020
0000
0000
0030
0210
0000
,  // measure 41
0000
0301
1000
0100
0020
0000
0130
2000
,  // measure 42
0000
0000
3002
0003
0002
0000
0003
0000
0021
0000
0000
0000
0130
0000
2100
0000
,  // measure 43
0000
3002
0103
0010
0100
0001
0000
2001
,  // measure 44
0000
3400
0000
0300
0010
0001
1000
0020
,  // measure 45
0000
1030
0001
0010
0210
0000
1300
1002
,  // measure 46
0000
0103
0010
1000
1002
0000
0013
0210
,  // measure 47
0000
2300
0000
3000
1020
0000
0130
0102
,  // measure 48
0000
2003
0000
3000
0002
0000
0013
0200
,  // measure 49
0000
0310
0001
2000
0000
0000
0000
3000
,  // measure 50
0002
0003
1000
0000
0002
0003
0100
0000
0120
0000
0000
0000
1030
0000
1002
0000
,  // measure 51
0000
0203
0000
0300
0120
0000
1030
1002
,  // measure 52
0000
0023
0000
0030
0210
0000
1300
1002
,  // measure 53
0000
0013
0000
0220
0000
0000
0000
0000
,  // measure 54
0330
0000
0000
0000
0400
0000
0300
0000
2100
0000
0000
0000
3002
0000
0000
0003
,  // measure 55
0201
0000
0000
0000
0310
0000
0000
0000
0200
0301
0200
0301
0200
0301
0200
0301
,  // measure 56
1000
0000
0001
0000
0010
0000
0100
0000
2100
0000
0000
0000
3002
0000
0000
0003
,  // measure 57
0021
0000
0000
0000
0130
0000
0000
0000
2000
3000
2000
0000
0000
0000
0000
0000
,  // measure 58
3002
0000
0103
0000
0010
0000
1000
0000
1002
0000
0000
0000
0023
0000
0000
0030
,  // measure 59
0210
0000
2300
0000
3000
0000
0001
0201
,  // measure 60
0000
0000
0310
0000
1000
0000
0001
0000
0021
0000
0000
0000
0230
0000
0000
0300
,  // measure 61
2100
0000
3002
0000
0003
0000
1000
1020
,  // measure 62
0000
0000
0130
0000
0001
0000
1000
0000
1200
0000
0000
0000
0320
0000
0000
0030
,  // measure 63
0012
0000
2003
0000
3000
0000
0010
0210
,  // measure 64
0000
0000
0301
0000
2000
0000
0000
3000
1200
0000
0000
0000
0310
0000
0002
0000
,  // measure 65
0000
0000
0003
0000
0000
0000
0000
0000
0000
0000
1000
0000
0020
0000
0000
0030
,  // measure 66
0210
0000
0000
0000
0302
0000
0000
0003
2001
0000
0000
0000
3200
0000
0000
0300
,  // measure 67
0120
0000
0032
0000
0003
0000
1000
1020
,  // measure 68
0000
0000
0130
0000
0001
0000
1000
0000
1200
0000
0000
0000
0320
0000
0000
0030
,  // measure 69
0012
0000
2003
0000
3000
0000
0010
0210
,  // measure 70
0000
0000
0301
0000
1000
0000
0100
0000
0120
0000
0000
0000
0032
0000
0000
0003
,  // measure 71
2001
0000
3200
0000
0300
0000
0010
0012
,  // measure 72
0000
1003
0010
0000
0210
0000
0301
2000
,  // measure 73
0000
3001
0010
0002
0000
2003
0000
3010
,  // measure 74
0100
0000
0000
0000
0000
0000
0001
0000
0100
0000
0001
0000
0100
0000
0000
0000
0000
0000
0010
0000
0000
0000
0000
0000
1000
0000
0000
0010
0000
0000
2000
0000
0000
0000
0000
0000
3002
0000
0000
0000
0000
0000
0013
0000
0000
0200
0000
0000
,  // measure 75
0000
2300
0000
3002
0000
0023
0000
0030
0001
1000
0002
0000
0203
0000
0310
2000
,  // measure 76
0000
3002
0000
0203
0000
0320
0000
0030
1000
0001
2000
0000
3200
0000
0310
0002
,  // measure 77
0000
2003
0000
3200
0000
0320
0000
0030
0100
0010
0200
0000
2300
0000
3001
0200
,  // measure 78
0000
0320
0000
2030
0000
3002
0000
0003
1001
0000
1000
0000
0200
0000
0000
0300
,  // measure 79
0120
0000
0031
2001
0000
3020
0000
0230
,  // measure 80
0000
0000
0302
0000
0000
0000
0003
0000
1001
0000
1000
0000
0020
0000
0000
0030
,  // measure 81
0210
0000
0301
2001
0000
3200
0000
0320
,  // measure 82
0000
0000
0032
0000
0000
0000
0003
0000
0101
0000
0100
0000
0020
0000
0000
0030
,  // measure 83
2010
0000
3001
0021
0000
0230
0000
2300
,  // measure 84
0000
0000
3002
0000
0000
0000
0003
0000
0101
0000
0100
0000
0020
0000
0000
0030
,  // measure 85
2010
0000
0000
0000
3001
0000
0021
0000
0230
1300
0200
1300
0200
1300
0200
1300
,  // measure 86
0001
0000
0000
1000
0010
1000
0010
0000
0000
0100
0000
0000
0001
0000
0000
1000
0000
0000
0100
0000
0000
0120
0000
0000
,  // measure 87
0000
0031
1000
0010
0110
0200
0300
0202
,  // measure 88
0300
4003
3000
0001
0011
0010
0100
2100
,  // measure 89
0000
3001
0100
0010
1010
2000
3000
1001
,  // measure 90
0000
0000
0002
0003
0002
0000
0003
0000
0011
0000
0010
0000
0100
0000
2200
0000
,  // measure 91
3300
2000
0000
3001
0100
0010
1000
2002
,  // measure 92
3000
0000
0043
0000
0000
0000
0130
0000
1000
0000
0002
0000
0000
0003
0201
0000
,  // measure 93
0000
0310
1000
0001
0021
0000
0130
2200
,  // measure 94
0300
3001
0100
0010
2010
0000
3001
0021
,  // measure 95
0000
0230
0000
0300
2100
0000
3001
0201
,  // measure 96
0000
0320
0000
0030
2010
0000
3001
0020
,  // measure 97
0000
0031
1000
0200
0000
0000
0000
0000
,  // measure 98
0320
0030
0001
0000
0020
0030
0100
0000
2100
0000
0000
0000
3001
0000
0201
0000
,  // measure 99
0000
0320
0000
0030
2010
0000
3001
0021
,  // measure 100
0000
0230
0000
0300
2100
0000
3001
0201
,  // measure 101
0000
0320
0030
2020
0000
0000
0000
0000
,  // measure 102
0000
0000
3030
0000
2002
3003
0022
0033
,  // measure 103
0220
0000
0330
0000
2200
0000
3300
0000
2000
0000
3001
0100
0000
0001
0100
0000
,  // measure 104
0010
0100
0000
0000
0010
0000
1000
0000
0004
0000
0003
0000
1000
0000
0100
0000
,  // measure 105
0010
0100
1000
0001
0202
0300
2003
3000
,  // measure 106
2000
3000
4000
3000
2200
3300
0220
0330
,  // measure 107
0022
0033
2002
3003
2000
3200
0320
0230
,  // measure 108
2300
3001
0100
0001
2002
3003
2020
3030
,  // measure 109
0202
0000
0303
0000
1001
0000
0000
0000
2000
3000
2000
0000
0000
0000
3000
0000
,  // measure 110
0002
0000
0013
0000
0100
0000
0010
0000
0012
0000
0000
0000
2003
0000
0000
3000
,  // measure 111
1020
0000
0230
0000
0300
0000
0001
2001
,  // measure 112
0000
0000
3100
0000
0010
0000
0001
0000
2001
0000
0000
0000
3020
0000
0000
0030
,  // measure 113
0210
0000
0302
0000
0003
0000
1000
1200
,  // measure 114
0000
0000
0310
0000
0001
0000
1000
0000
1020
0000
0000
0000
0230
0000
0000
0300
,  // measure 115
0102
0000
2003
0000
3000
0000
0001
0020
,  // measure 116
0000
0031
1000
0000
1020
0000
0130
0002
,  // measure 117
0000
0000
0000
0000
0003
0000
0000
0000
0000
0000
1000
0000
0200
0000
0000
0300
,  // measure 118
0120
0000
0000
0000
0032
0000
0000
0003
2001
0000
0000
0000
3020
0000
0000
0030
,  // measure 119
0210
0000
0302
0000
0003
0000
1000
1200
,  // measure 120
0000
0000
0310
0000
0001
0000
1000
0000
1002
0000
0000
0000
0023
0000
0000
0030
,  // measure 121
0210
0000
2300
0000
3000
0000
0001
0201
,  // measure 122
0000
0000
0310
0000
1000
0000
0001
0000
0021
0000
0000
0000
0230
0000
0000
0300
,  // measure 123
2100
0000
3002
0000
0003
0000
0100
0120
,  // measure 124
0000
1030
0001
0000
0021
0000
0130
2000
,  // measure 125
0000
3001
0100
0020
0000
2030
3001
0010
,  // measure 126
0001
0000
0000
0000
0000
0000
1000
0000
0100
0000
1000
0000
0100
0000
0000
0000
0000
0000
0010
0000
0000
0000
0000
0000
0011
0000
0000
0000
0000
0000
0001
0000
0000
0000
0000
0000
2000
0000
0000
0000
0000
0000
0000
0000
0000
3000
0000
0000
,  // measure 127
1020
0000
0130
0002
0000
2003
0000
3200
,  // measure 128
0000
0000
0320
0000
0000
0000
0030
0000
0011
0000
0001
0000
2000
0000
0000
3000
,  // measure 129
1200
0000
0310
0002
0000
2003
0000
3020
,  // measure 130
0000
0230
0000
0300
0101
0001
2000
0000
,  // measure 131
3020
0230
0302
2003
3200
0310
0000
0001
,  // measure 132
0010
0000
0100
0000
0010
0000
0001
0000
1001
1000
2000
3000
2004
3000
0003
0000
,  // measure 133
0020
0000
0000
0000
0430
0300
0000
0400
0300
0000
0000
0000
4000
0000
0000
0000
,  // measure 134
3000
0000
0000
0000
;

//---------------dance-single - Hard----------------
#NOTES:
     dance-single:
     Ace Of Hearts (2014):
     Hard:
     7:
     0.543,0.114,0.000,1.000,0.049:
0000
0000
0000
0000
,
0000
0000
0000
0000
,
0000
0000
0000
0000
,
0000
0000
2000
3200
,
0320
0032
2003
0000
,
3020
0030
1000
0001
,
1000
0100
1000
0000
0004
0000
0000
0000
,
0003
0000
1000
0010
,
0100
0010
0100
0000
0002
0000
1003
0000
,
0010
0020
0000
0030
1000
0000
0001
0000
,
0010
0100
0010
0000
0001
0000
1000
0004
,
0003
0004
0003
0000
1000
2000
0000
3000
,
0001
0010
0001
0000
1000
0100
1000
0000
,
0001
0010
0002
0023
,
0230
0000
2300
0000
3000
0000
0001
0200
,
0000
0301
1000
0001
0020
0000
0032
0000
,
2003
0000
3200
0000
0300
0000
0010
0002
,
0000
1003
0010
1000
0002
0000
0023
0000
,
0230
0000
2300
0000
3000
0000
0001
0020
,
0000
0031
1000
0000
0020
0000
1030
0002
,
0000
0000
0003
0000
0000
1000
0020
0000
,
0230
0302
2003
3020
,
0230
0000
0302
0000
0003
0000
1000
0200
,
0000
0310
0001
0010
0200
0000
0320
0000
,
0032
0000
2003
0000
3000
0000
0010
2000
,
0000
3010
0100
0010
2000
0000
3002
0000
,
0023
0000
0230
0000
0300
0000
0010
0002
,
0000
1003
0020
0000
0230
0000
0310
2000
,
0000
3002
0000
0023
0000
0030
0000
0000
,
0000
0000
0000
0000
0001
1000
0002
0000
,
0023
0000
0130
0020
0000
0032
0000
2003
,
0000
3020
0000
0030
1000
0001
2000
0000
,
3200
0000
0310
0002
0000
0023
0000
0230
,
0000
2300
0000
3000
0100
0010
0200
0000
,
2300
0000
3001
0200
0000
0320
0000
0230
,
0000
0302
0000
0003
1000
0100
2000
0000
,
3002
0000
0013
0200
0000
0320
0000
0032
,
0000
2003
0000
3000
0020
0000
1030
0002
,
0000
1003
0100
1000
0001
1000
0001
0200
,
0000
0300
0000
0000
0001
2000
0000
3200
,
0000
0310
0001
0010
0002
0000
1003
0200
,
0000
0300
0000
0000
0020
0000
0130
2000
,
0000
3001
0100
0001
0100
0020
0000
0230
,
0000
0300
0000
0000
0001
1000
0001
2000
,
0000
3100
0010
0100
0020
0000
0031
2000
,
0000
3001
0100
0001
2000
0000
3001
0020
,
0000
0230
0000
0300
2000
0000
3001
0200
,
0000
0302
0000
0003
2000
0000
3100
0020
,
0000
0031
0010
0002
0000
0000
0000
0003
,
0000
1000
0010
1000
0020
0000
0130
0002
,
0000
2003
0000
3000
0002
0000
0013
0200
,
0000
0320
0000
0030
0002
0000
1003
0020
,
0000
2030
0000
0002
0000
0000
0000
0000
,
3003
0000
0002
0023
,
0230
1300
0400
0000
,
0300
0000
0020
0230
,
2300
0000
3001
0000
1000
2000
0000
0000
,
3002
0003
2000
3020
,
0230
0000
0302
0000
0003
0000
1000
0020
,
0000
1030
0001
1000
0200
0000
2300
0000
,
3002
0000
0203
0000
0300
0000
0010
0200
,
0000
0301
0100
0001
2000
0000
3002
0000
,
0023
0000
0230
0000
0300
0000
0010
0002
,
0000
1003
0020
0000
0230
0000
0301
2000
,
0000
0000
3000
0000
0000
0001
0020
0000
,
0230
2300
3002
0203
,
0320
0000
2030
0000
3000
0000
0001
0020
,
0000
0031
1000
0001
0200
0000
0320
0000
,
2030
0000
3002
0000
0003
0000
1000
0200
,
0000
0310
0100
0010
0002
0000
2003
0000
,
3002
0000
0023
0000
0030
0000
0100
2000
,
0000
3001
0200
0000
0302
0000
1003
0200
,
0000
2300
0000
3002
0000
0003
0000
0000
,
0000
0000
0000
0000
0000
0000
0000
0000
1000
0100
2000
0000
3002
0000
1003
0200
,
0000
0320
0000
0230
0000
2300
0000
3000
0001
0010
0002
0000
2003
0000
3100
0020
,
0000
0230
0000
2300
0000
3002
0000
0003
1000
0100
2000
0000
3002
0000
0013
0200
,
0000
0320
0000
0032
0000
2003
0000
3000
0001
0010
0002
0000
2003
0000
3001
0020
,
0000
0230
0000
2300
0000
3002
0000
0003
1000
0000
0010
0000
2000
0000
0000
0000
,
3002
0000
0013
0200
0000
2300
0000
3002
,
0000
0203
0000
0300
0010
0100
0020
0000
,
2030
0000
3001
0020
0000
0032
0000
2003
,
0000
3020
0000
0030
0100
0001
0200
0000
,
0320
0000
1030
0020
0000
0230
0000
0302
,
0000
2003
0000
3000
0001
0010
0002
0000
,
2003
0000
3100
0020
0000
0230
0000
2300
,
0000
3002
0000
0003
1000
0100
1000
0200
,
0000
0310
0001
0010
0001
2000
0000
3020
,
0000
0030
0000
1000
0001
1000
0001
0200
,
0000
0310
1000
0010
0100
0002
0000
1003
,
0000
0200
0000
0300
0010
0001
0010
0002
,
0000
2003
0000
3010
0100
0010
0100
0002
,
0000
0003
0000
0000
1000
0200
0000
0320
,
0000
0130
1000
0100
2000
0000
3001
0200
,
0000
0310
0100
0010
2000
0000
3001
0200
,
0000
0320
0000
0030
2000
0000
3001
0020
,
0000
0230
0000
0300
2000
0000
3001
0020
,
0000
0031
1000
0002
0000
0000
0000
0000
,
0003
1000
0010
1000
0020
0000
0130
0002
,
0000
2003
0000
3000
0002
0000
0013
0200
,
0000
0320
0000
0030
0002
0000
1003
0002
,
0000
0023
0000
0200
0000
0000
0000
0000
,
0000
0330
0200
2300
,
3002
0000
0000
0000
0103
0000
0000
0000
0020
0000
0000
1030
0000
0000
0001
0000
,
0100
0000
0000
0000
0004
0003
0000
0000
,
0000
0000
2000
3002
,
0023
0000
0034
0003
2000
0000
3200
0000
,
0320
0000
0032
0000
2003
3200
2300
3200
,
0320
0030
0002
0023
,
0230
1300
0002
0000
,
2003
3000
0002
0203
,
0320
0000
2030
0000
3000
0000
0001
0020
,
0000
0031
1000
0001
0200
0000
0320
0000
,
2030
0000
3002
0000
0003
0000
1000
0200
,
0000
0310
0001
0010
0002
0000
2003
0000
,
3020
0000
0230
0000
0300
0000
0001
2000
,
0000
3001
0020
0000
0230
0000
0310
0002
,
0000
0000
0003
0000
0000
1000
0020
0000
,
2030
3002
2003
3200
,
0320
0000
0032
0000
0003
0000
1000
0020
,
0000
1030
0001
1000
0002
0000
0023
0000
,
0230
0000
2300
0000
3000
0000
0001
2000
,
0000
3001
0100
0001
0200
0000
0320
0000
,
2030
0000
3002
0000
0003
0000
1000
0020
,
0000
1030
0002
0000
0023
0000
0130
2000
,
0000
3002
0000
0023
0000
0030
0000
0000
,
0000
0000
0000
0000
0001
1000
0002
0000
,
0203
0000
0310
2000
0000
3002
0000
0023
,
0000
0230
0000
0300
0010
0001
0020
0000
,
0230
0000
1300
0200
0000
0320
0000
0032
,
0000
2003
0000
3000
0001
0100
0002
0000
,
2003
3002
0023
0230
0320
0032
0003
0000
,
2000
0000
0000
0000
3200
0000
0000
0000
0310
0001
0020
0000
0230
0000
0300
0000
,
2000
0000
0000
0000
3004
0003
0000
0004
0003
0000
0000
0000
0400
0000
0000
0000
,
0300
0000
0000
0000
;

//---------------dance-single - Medium----------------
#NOTES:
     dance-single:
     Ace Of Hearts (2014):
     Medium:
     5:
     0.313,0.057,0.000,0.560,0.011:
0000
0000
0000
0000
,
0000
0000
0000
0000
,
0000
0000
0000
0000
,
0000
0000
0001
0001
,
1000
1000
0020
0000
,
0130
0000
0002
0003
,
1000
0100
1000
0000
0200
0000
0300
0000
,
0010
0001
0010
0000
0002
0000
0003
0000
,
1000
0010
1000
0000
0002
0000
0003
0000
,
0100
0010
0100
0000
0002
0000
0003
0000
,
1000
0001
1000
0000
0200
0000
0300
0000
,
0010
0001
0010
0000
0200
0000
0300
0000
,
1000
0100
1000
0000
0002
0000
0000
0000
,
0003
0000
1000
1000
,
0010
0000
0020
0000
0030
0000
0000
0200
,
0000
0000
0301
0100
0001
0000
0001
0000
,
1000
0000
2000
0000
3000
0000
0000
0002
,
0000
0000
1003
0100
1000
0000
1000
0000
,
0001
0000
0002
0000
0003
0000
0000
0200
,
0000
0000
0301
0000
0002
0000
0000
2003
,
0000
3000
0000
0010
,
0020
0030
0100
0100
,
0001
0000
0002
0000
0003
0000
0000
2000
,
0000
0000
3001
0100
0001
0000
0001
0000
,
0100
0000
0200
0000
0300
0000
0000
0020
,
0000
0000
0130
0010
0100
0000
0100
0000
,
0001
0000
0002
0000
0003
0000
0000
2000
,
0000
0000
3001
0000
0002
0000
0000
0203
,
0000
0000
0000
0300
0000
0000
0000
0000
,
0000
0000
0000
0000
0010
1000
0010
0000
,
0020
0000
0000
2030
0000
0000
0000
3000
,
0000
0000
0000
0000
0001
0010
0001
0000
,
0002
0000
0000
2003
0000
0000
0000
3000
,
0000
0000
0000
0000
0100
0010
0100
0000
,
0200
0000
0000
2300
0000
0000
0000
3000
,
0000
0000
0000
0000
0001
1000
0001
0000
,
0002
0000
0000
0203
0000
0000
0000
0300
,
0000
0000
0000
0000
0020
0000
0000
2030
,
0000
0000
3001
0000
0002
0000
0000
0023
,
0000
0000
0030
0000
0001
0000
0000
0002
,
0000
0000
1003
0010
2000
0000
0000
3002
,
0000
0000
0003
0000
0100
0000
0000
0200
,
0000
0000
0310
0000
0010
0000
0000
2000
,
0000
3000
0000
0000
0001
0000
0000
0002
,
0000
0000
1003
0000
2000
0000
0000
3200
,
0000
0000
0310
0000
0020
0000
0000
0031
,
0000
0001
0000
0000
2000
0000
0000
3010
,
0000
0010
0000
0000
2000
0000
0000
3001
,
0000
0100
0000
0002
0000
0000
0000
0000
,
0003
0000
0000
0000
2000
0000
0000
3100
,
0000
0100
0000
0000
0020
0000
0000
0130
,
0000
0100
0000
0000
2000
0000
0000
3001
,
0000
0010
0000
0002
0000
0000
0000
0000
,
0003
0000
1000
1000
,
0010
0010
0400
0000
,
0300
0000
0001
0001
,
1000
1000
0200
0000
,
0300
0000
0010
0010
,
0100
0000
0200
0000
0300
0000
0000
2000
,
0000
0000
3001
0100
0001
0000
0001
0000
,
1000
0000
2000
0000
3000
0000
0000
0200
,
0000
0000
1300
0001
1000
0000
1000
0000
,
0001
0000
0002
0000
0003
0000
0000
0020
,
0000
0000
0130
0000
0200
0000
0000
2300
,
0000
3000
0000
0001
,
0002
0003
1000
1000
,
0010
0000
0020
0000
0030
0000
0000
0200
,
0000
0000
0301
0100
0001
0000
0001
0000
,
1000
0000
2000
0000
3000
0000
0000
0002
,
0000
0000
0013
0100
0010
0000
0010
0000
,
0100
0000
0200
0000
0300
0000
0000
2000
,
0000
0000
3001
0000
0002
0000
0000
0203
,
0000
0000
0000
0300
0000
0000
0000
0000
,
0000
0000
0000
0000
0000
0000
0000
0000
0010
0000
0010
0000
0010
0000
0000
2000
,
0000
0000
0000
3000
0000
0000
0000
0000
0001
0000
0001
0000
0001
0000
0000
0020
,
0000
0000
0000
0030
0000
0000
0000
0000
0100
0000
0100
0000
0100
0000
0000
2000
,
0000
0000
0000
3000
0000
0000
0000
0000
0001
0000
0001
0000
0001
0000
0000
0200
,
0000
0000
0000
0300
0000
0000
0000
0000
0001
0000
0100
0000
0001
0000
0000
0000
,
0002
0000
0000
1003
0000
0100
0000
2000
,
0000
3000
0000
0000
0001
0100
0001
0000
,
0002
0000
0000
0103
0000
0010
0000
0200
,
0000
0300
0000
0000
0010
0100
0010
0000
,
0020
0000
0000
1030
0000
0001
0000
2000
,
0000
3000
0000
0000
0100
0010
0100
0000
,
0200
0000
0000
1300
0000
0001
0000
2000
,
0000
3000
0000
0000
0001
0000
0000
0002
,
0000
0000
1003
0010
1000
0000
0000
2000
,
0000
3000
0000
0000
0002
0000
0000
0013
,
0000
0000
0001
0000
0002
0000
0000
1003
,
0000
1000
0000
0000
0020
0000
0000
0130
,
0000
0000
0001
0000
0002
0000
0000
2003
,
0000
3000
0000
0000
0200
0000
0000
0310
,
0000
0000
0001
0000
0002
0000
0000
1003
,
0000
0000
0010
0000
0020
0000
0000
0130
,
0000
0100
0000
0000
0002
0000
0000
1003
,
0000
1000
0000
0000
0200
0000
0000
0310
,
0000
0001
0000
0020
0000
0000
0000
0000
,
0030
0000
0001
0000
0002
0000
0000
1003
,
0000
1000
0000
0000
0020
0000
0000
0130
,
0000
0100
0000
0000
0002
0000
0000
1003
,
0000
0100
0000
2000
0000
0000
0000
0000
,
0000
3000
0001
0001
,
0100
0100
0020
0030
,
0010
0000
0000
0000
2000
3000
0000
0000
,
0000
0000
0002
0003
,
0010
0010
0001
0001
,
1000
1000
0020
0000
,
0030
0000
0100
0100
,
0001
0001
2000
0000
,
3000
0000
0001
0001
,
0100
0000
0200
0000
0300
0000
0000
0020
,
0000
0000
1030
0010
1000
0000
1000
0000
,
0001
0000
0002
0000
0003
0000
0000
2000
,
0000
0000
3001
0010
0001
0000
0001
0000
,
0010
0000
0020
0000
0030
0000
0000
0200
,
0000
0000
1300
0000
2000
0000
0000
3002
,
0000
0003
0000
1000
,
2000
3000
0010
0010
,
0100
0000
0200
0000
0300
0000
0000
0002
,
0000
0000
1003
0010
1000
0000
1000
0000
,
0001
0000
0002
0000
0003
0000
0000
0020
,
0000
0000
0031
0010
0001
0000
0001
0000
,
1000
0000
2000
0000
3000
0000
0000
0020
,
0000
0000
1030
0000
2000
0000
0000
3002
,
0000
0000
0000
0003
0000
0000
0000
0000
,
0000
0000
0000
0000
1000
0010
1000
0000
,
2000
0000
0000
3001
0000
0010
0000
0002
,
0000
0003
0000
0000
0010
0100
0010
0000
,
0020
0000
0000
0031
0000
1000
0000
0002
,
0000
0003
0000
0000
1000
0100
1000
0000
,
2000
0000
3000
0000
,
0002
0000
0003
0000
1000
1000
1000
0000
,
0200
0000
0300
0000
0010
0000
0000
0010
0000
0000
0000
0000
0400
0000
0000
0000
,
0300
0000
0000
0000
;

//---------------dance-single - Easy----------------
#NOTES:
     dance-single:
     Ace Of Hearts (2014):
     Easy:
     3:
     0.220,0.029,0.000,0.331,0.000:
0000
0000
0000
0000
,
0000
0000
0000
0000
,
0000
0000
0000
0000
,
0000
0000
1000
0000
,
1000
0000
2000
0000
,
3000
0000
0001
0001
,
0001
0000
0010
0010
,
0010
0000
0100
0100
,
0100
0000
1000
1000
,
1000
0000
0001
0001
,
0001
0000
0100
0100
,
0100
0000
0001
0001
,
0001
0000
2000
0000
,
3000
0000
0001
0001
,
0001
0002
0003
0000
,
1000
1000
2000
3000
,
1000
0000
0000
0000
,
0010
0010
0020
0030
,
0010
0000
0000
0000
,
0100
0100
0200
0000
,
0300
0000
0000
0002
,
0000
0003
1000
1000
,
1000
2000
3000
0000
,
0001
0001
0002
0003
,
0001
0000
0000
0000
,
0100
0100
0200
0300
,
0100
0000
0000
0000
,
0010
0010
0020
0000
,
0030
0000
0200
0000
,
0300
0000
0001
0001
,
0001
0000
2000
0000
,
3000
0000
0100
0100
,
0100
0000
0020
0000
,
0030
0000
0001
0001
,
0001
0000
2000
0000
,
3000
0000
0010
0010
,
0010
0000
0200
0000
,
0300
0000
0002
0003
,
0001
0000
1000
1000
,
1000
0000
0020
0030
,
0010
0000
0100
0100
,
0100
0000
0002
0003
,
0001
0000
2000
3000
,
1000
0000
0100
0100
,
0100
0000
0020
0030
,
0010
0000
0002
0003
,
0001
0000
2000
3000
,
1000
0000
0010
0000
,
0010
0000
0020
0000
,
0030
0000
0200
0300
,
0100
0000
0002
0003
,
0001
0000
1000
0000
,
1000
0000
2000
0000
,
3000
0000
0010
0010
,
0010
0010
0040
0000
,
0030
0000
1000
1000
,
1000
1000
2000
0000
,
3000
0000
0001
0001
,
0001
0002
0003
0000
,
1000
1000
2000
3000
,
1000
0000
0000
0000
,
0100
0100
0200
0300
,
0100
0000
0000
0000
,
0010
0010
0020
0000
,
0030
0000
0000
0000
,
0002
0003
1000
1000
,
1000
2000
3000
0000
,
0010
0010
0020
0030
,
0010
0000
0000
0000
,
0100
0100
0200
0300
,
0100
0000
0000
0000
,
0001
0001
0002
0000
,
0003
0000
2000
0000
,
3000
0000
0000
0000
0001
0001
0001
0000
,
0200
0000
0300
0000
0010
0010
0010
0000
,
2000
0000
3000
0000
0001
0001
0001
0000
,
0020
0000
0030
0000
0100
0100
0100
0000
,
2000
3000
0001
0001
,
0001
0000
2000
0000
,
3000
0000
0010
0010
,
0010
0000
0200
0000
,
0300
0000
0001
0001
,
0001
0000
2000
0000
,
3000
0000
0100
0100
,
0100
0000
0020
0000
,
0030
0000
0001
0001
,
0001
0000
2000
3000
,
1000
0000
0010
0010
,
0010
0000
0200
0300
,
0100
0000
0001
0001
,
0001
0000
1000
1000
,
1000
0000
0200
0300
,
0100
0000
0020
0030
,
0010
0000
0002
0003
,
0001
0000
2000
3000
,
1000
0000
0100
0000
,
0100
0000
0200
0000
,
0300
0000
0020
0030
,
0010
0000
0200
0300
,
0100
0000
1000
0000
,
1000
0000
2000
0000
,
3000
0000
0001
0001
,
0001
0001
0002
0000
,
0003
0000
0000
0000
2000
3000
0000
0000
,
0000
0000
0020
0030
,
0000
0000
1000
1000
,
1000
1000
2000
0000
,
3000
0000
0010
0010
,
0010
0010
0020
0000
,
0030
0000
0100
0100
,
0100
0200
0300
0000
,
0001
0001
0002
0003
,
0001
0000
0000
0000
,
1000
1000
2000
3000
,
1000
0000
0000
0000
,
0100
0100
0200
0000
,
0300
0000
0000
0000
,
0020
0030
0001
0001
,
0001
0002
0003
0000
,
1000
1000
2000
3000
,
1000
0000
0000
0000
,
0010
0010
0020
0030
,
0010
0000
0000
0000
,
0100
0100
0200
0000
,
0300
0000
0002
0000
,
0003
0000
1000
1000
,
1000
0000
0002
0000
,
0003
0000
0010
0010
,
0010
0000
0200
0000
,
0300
0000
1000
1000
,
2000
0000
3000
0000
,
0002
0000
0003
0000
0010
0010
0010
0000
,
0200
0000
0300
0000
2000
0000
0000
3000
0000
0000
0000
0000
0004
0000
0000
0000
,
0003
0000
0000
0000
;

//---------------dance-single - Novice----------------
#NOTES:
     dance-single:
     Ace Of Hearts (2014):
     Beginner:
     2:
     0.149,0.057,0.000,0.297,0.000:
0000
0000
0000
0000
,
0000
0000
0000
0000
,
0000
0000
0000
0000
,
0000
0000
0002
0000
,
0000
0003
0000
0000
,
0000
0000
1000
0000
,
0000
0000
1000
0000
,
0000
0000
0100
0000
,
0000
0000
0100
0000
,
0000
0000
0010
0000
,
0000
0000
0010
0000
,
0000
0000
0001
0000
,
0000
0000
0001
0000
,
0000
0000
2000
0000
,
0000
3000
0000
0000
,
0010
0000
0010
0000
,
0020
0030
0000
0000
,
0100
0000
0100
0000
,
0200
0300
0000
0000
,
0001
0000
0001
0000
,
0002
0000
0003
0000
,
0000
0000
2000
0000
,
0000
3000
0000
0000
,
0100
0000
0100
0000
,
0200
0300
0000
0000
,
0010
0000
0010
0000
,
0020
0030
0000
0000
,
0001
0000
0001
0000
,
0002
0000
0003
0000
,
0000
0000
1000
0000
,
1000
0000
2000
0000
,
3000
0000
0010
0000
,
0010
0000
0020
0000
,
0030
0000
0100
0000
,
0100
0000
0200
0000
,
0300
0000
0001
0000
,
0001
0000
0002
0000
,
0003
0000
1000
0000
,
1000
0000
2000
0000
,
3000
0000
0001
0000
,
0001
0000
0002
0000
,
0003
0000
0010
0000
,
0010
0000
0020
0000
,
0030
0000
0100
0000
,
0100
0000
0200
0000
,
0300
0000
2000
0000
,
3000
0000
2000
0000
,
3000
0000
0001
0000
,
0001
0000
0002
0000
,
0003
0000
0200
0000
,
0300
0000
0200
0000
,
0300
0000
0010
0000
,
0010
0000
0020
0000
,
0030
0000
2000
0000
,
0000
3000
4000
0000
,
3000
0000
0002
0000
,
0000
0003
0002
0000
,
0003
0000
0020
0000
,
0000
0030
0000
0000
,
0100
0000
0100
0000
,
0200
0300
0000
0000
,
1000
0000
1000
0000
,
2000
3000
0000
0000
,
0001
0000
0001
0000
,
0002
0000
0003
0000
,
0000
0000
0200
0000
,
0000
0300
0000
0000
,
0010
0000
0010
0000
,
0020
0030
0000
0000
,
1000
0000
1000
0000
,
2000
3000
0000
0000
,
0001
0000
0001
0000
,
0002
0000
0003
0000
,
0000
0000
0010
0010
,
0020
0030
0001
0001
,
0002
0003
1000
1000
,
2000
3000
0010
0010
,
0020
0030
0100
0000
,
0100
0000
0200
0000
,
0300
0000
0001
0000
,
0001
0000
0002
0000
,
0003
0000
1000
0000
,
1000
0000
2000
0000
,
3000
0000
0010
0000
,
0010
0000
0020
0000
,
0030
0000
0100
0000
,
0100
0000
0200
0000
,
0300
0000
0001
0000
,
0001
0000
0002
0000
,
0003
0000
1000
0000
,
1000
0000
2000
0000
,
3000
0000
0100
0000
,
0100
0000
0200
0000
,
0300
0000
0020
0000
,
0030
0000
0020
0000
,
0030
0000
0001
0000
,
0001
0000
0002
0000
,
0003
0000
2000
0000
,
3000
0000
2000
0000
,
3000
0000
0010
0000
,
0010
0000
0020
0000
,
0030
0000
0200
0000
,
0000
0300
0200
0000
,
0300
0000
0001
0000
,
0000
0000
0001
0000
,
0000
0000
2000
0000
,
0000
3000
2000
0000
,
3000
0000
0020
0000
,
0000
0030
0000
0000
,
0000
0000
0200
0000
,
0000
0300
0000
0000
,
0001
0000
0001
0000
,
0002
0003
0000
0000
,
1000
0000
1000
0000
,
2000
3000
0000
0000
,
0100
0000
0100
0000
,
0200
0000
0300
0000
,
0000
0000
0020
0000
,
0000
0030
0000
0000
,
0001
0000
0001
0000
,
0002
0003
0000
0000
,
1000
0000
1000
0000
,
2000
3000
0000
0000
,
0010
0000
0010
0000
,
0020
0000
0030
0000
,
0000
0000
0100
0000
,
0100
0000
0200
0000
,
0300
0000
0001
0000
,
0001
0000
0002
0000
,
0003
0000
1000
0000
,
1000
0000
2000
0000
,
3000
0000
0001
0001
,
0002
0000
0003
4000
,
3000
0000
0000
0000
;
