#TITLE:Step;
#SUBTITLE:;
#ARTIST:Kara;
#TITLETRANSLIT:;
#SUBTITLETRANSLIT:;
#ARTISTTRANSLIT:;
#GENRE:K-Pop;
#CREDIT:Ace Of Hearts;
#BANNER:Step - Bn.png;
#BACKGROUND:Step - Bg.png;
#LYRICSPATH:;
#CDTITLE:Ace Of Hearts.png;
#MUSIC:Step.ogg;
#OFFSET:1.655;
#SAMPLESTART:48.900;
#SAMPLELENGTH:12.000;
#SELECTABLE:YES;
#BPMS:0.000=123.000,296.000=61.500,312.000=123.000;
#STOPS:;
#BGCHANGES:3.250=Step Music Video.avi=1.000=1=0=1===CrossFade==,
99999=-nosongbg-=1.000=0=0=0 // don't automatically add -songbackground-
;
#FGCHANGES:;
#KEYSOUNDS:;

//---------------dance-single - Expert----------------
#NOTES:
     dance-single:
     Ace Of Hearts (2014):
     Challenge:
     10:
     0.821,0.692,0.824,1.000,0.405: // measure 1
0000
0000
0000
0000
,  // measure 2
0201
0000
0310
1000
0000
0001
0100
0000
0120
0000
1030
0001
0000
0010
0100
0000
,  // measure 3
2100
0000
3001
0100
0000
0010
1000
0000
1002
0000
0013
0000
0100
0000
1100
0000
,  // measure 4
1002
0000
0103
0010
0000
1000
0001
0000
0021
0000
0130
1000
0000
0001
0100
0000
,  // measure 5
0120
0000
1030
0001
0000
0010
0100
0000
2100
0000
3001
0100
0000
0010
1000
0000
,  // measure 6
1002
0000
0013
0000
0100
0000
1000
0001
0000
0001
0100
0000
0010
1000
0010
0000
,  // measure 7
0210
0000
0301
0000
1000
0000
0100
1000
0000
1000
0100
0010
0001
0010
0100
0000
,  // measure 8
2100
0000
3001
0000
0100
0000
0010
1000
0000
1000
0001
0000
0010
0100
1000
0000
,  // measure 9
1002
0000
0103
0000
0010
0000
1000
0001
0000
0001
0100
0010
1000
0010
0100
0000
,  // measure 10
0001
1000
1100
0100
0010
0001
2001
3100
,  // measure 11
0110
0010
0001
1000
1020
0230
0300
0001
,  // measure 12
2001
3100
0000
0120
0000
0031
1001
1000
,  // measure 13
1020
0130
0001
1000
1200
0320
0030
0001
,  // measure 14
2001
3010
0000
0210
0000
0304
0003
1000
,  // measure 15
1200
0310
0001
1000
1020
0230
0000
0301
,  // measure 16
2001
3100
0000
0120
0000
0032
1003
0010
,  // measure 17
0210
0000
0000
0000
0302
0000
0000
0003
2001
0000
0000
0000
3100
0000
0120
0000
,  // measure 18
0000
0000
0031
0000
2000
0000
0000
3000
1020
0000
0000
0000
0230
0000
0000
0300
,  // measure 19
0102
0000
0000
0003
1001
0000
2000
0000
3000
0000
0100
0000
0010
0000
0001
0010
,  // measure 20
0200
0000
1300
0000
1001
0000
0002
0000
0003
0000
1000
0000
0001
0000
1000
0010
,  // measure 21
0200
0301
1001
2000
3000
0100
0010
0012
,  // measure 22
0000
1003
1010
0010
0110
0100
0002
0000
,  // measure 23
0013
0100
2000
3000
1001
0000
0002
0000
0003
0000
1000
0000
0010
0000
0100
0001
,  // measure 24
2000
3001
0011
0020
0000
0130
1100
1002
,  // measure 25
0000
1003
0010
0400
0000
0300
0101
0001
,  // measure 26
2001
0000
0200
0000
0010
0000
0001
3300
,  // measure 27
1100
0200
0310
0110
0020
0031
1001
1000
,  // measure 28
1010
0000
0010
0000
0000
0000
0210
0000
0000
0000
0301
0100
0010
0100
0001
0000
,  // measure 29
1001
2000
3010
0110
0200
0301
1001
1000
,  // measure 30
1200
0000
0310
0000
0000
0000
0012
0000
0000
0000
1003
0100
0010
0100
1000
0000
,  // measure 31
1001
0002
0103
0110
0020
1030
1001
0001
,  // measure 32
0021
0000
0130
0000
0000
0000
2100
0000
0000
0000
3001
0100
0010
0000
1000
0000
,  // measure 33
1002
0000
0000
0000
0023
0000
0000
0030
0210
0000
0000
0000
1300
0000
1002
0000
,  // measure 34
0000
0000
0103
0000
0020
0000
0000
0030
2010
0000
0000
0000
3002
0000
0000
0003
,  // measure 35
0021
0000
0130
0000
1000
0000
0001
0100
0000
0100
0010
0000
1000
0001
1000
0000
,  // measure 36
1200
0000
0310
0000
0001
0000
1000
0020
0000
1030
0010
0100
0001
0100
0010
0000
,  // measure 37
2010
0000
3001
0000
0010
0000
0100
1000
0000
1000
0001
0000
0100
0010
0100
0000
,  // measure 38
0102
0000
1003
0000
0100
0000
0010
0200
0000
1300
0100
0010
0001
0010
0100
0000
,  // measure 39
1100
1000
0001
0100
0120
2030
3000
0001
,  // measure 40
0021
0230
0300
2100
0000
3002
0103
0010
,  // measure 41
1010
1000
0001
0010
0110
0200
0300
1000
,  // measure 42
1002
0103
0000
0120
0000
2030
3000
0001
,  // measure 43
0021
0130
1000
0001
0201
0320
0030
1000
,  // measure 44
1002
0023
0030
0210
0000
2300
3001
0100
,  // measure 45
0120
0000
0000
0000
2030
0000
0000
3000
1002
0000
0000
0000
0013
0000
0210
0000
,  // measure 46
0000
0000
1300
0000
0002
0000
0000
0003
0201
0000
0000
0000
0320
0000
0000
0030
,  // measure 47
2010
0000
3001
0000
0011
0000
0020
0000
0030
0000
0100
0000
1000
0000
0001
0010
,  // measure 48
0200
0310
0011
0002
0003
1000
1010
0020
,  // measure 49
0000
0130
0001
4000
0000
3000
1001
0001
,  // measure 50
0200
0000
0002
0000
1000
0000
0010
0303
,  // measure 51
0101
0200
0310
0110
0020
1030
1001
0001
,  // measure 52
0021
0000
0130
0000
0000
0000
2100
0000
0000
0000
3001
0010
0100
0010
0001
0000
,  // measure 53
1001
2000
3010
0110
0200
0301
1001
1000
,  // measure 54
1200
0000
0310
0000
0000
0000
0012
0000
0000
0000
1003
0010
0100
0000
0001
0000
,  // measure 55
0011
0020
0130
0110
0200
1300
1001
0001
,  // measure 56
0201
0000
0310
0000
0000
0000
2010
0000
0000
0000
3001
0010
0100
0000
1000
0000
,  // measure 57
1002
0000
0000
0000
0203
0000
0000
0300
0120
0000
0000
0000
1030
0000
1002
0000
,  // measure 58
0000
0000
0013
0000
0200
0000
0000
0300
2100
0000
0000
0000
3002
0000
0000
0003
,  // measure 59
0201
0000
0000
0000
0320
0000
0000
0030
2010
0000
0000
3000
1002
0000
0000
0003
,  // measure 60
0011
0000
0010
0000
0100
0000
1000
0000
0002
0000
1003
0100
0010
0001
0010
0100
,  // measure 61
2000
0000
3001
0100
0000
0010
1000
0000
0002
0000
0013
0100
0000
1000
0001
0000
,  // measure 62
0200
0000
0310
1000
0000
0001
0010
0000
0002
0000
1003
0010
0100
0010
1000
0000
,  // measure 63
1002
0000
0000
0003
0021
0000
0000
0030
0210
0000
0000
0000
1300
0000
0001
0000
,  // measure 64
0101
0000
0100
0000
0020
0000
0000
0030
1010
0000
1000
0001
0010
0001
1000
0000
,  // measure 65
1200
0000
0310
0001
0000
1000
0010
0000
0200
0000
0301
1000
0000
0001
0010
0000
,  // measure 66
0200
0000
1300
0001
0000
0100
0010
0000
2000
0000
3001
0010
0000
0100
1000
0000
,  // measure 67
0001
0000
0000
0000
0000
0000
0000
0000
1000
0000
0000
0000
0000
0000
0000
0000
0000
0000
0000
0000
0100
0000
0000
0000
0000
0000
0000
0000
0000
0000
0000
0000
0010
0000
0000
0000
0000
0000
0000
0000
0001
0000
0000
0000
0000
1000
0000
0000
0000
0000
0000
0000
0010
0000
0000
0000
0000
0000
0000
0000
0000
0010
0000
0000
,  // measure 68
1000
0000
0000
0000
0000
0000
0000
0000
0001
0000
0000
0000
0000
0000
0000
0000
1000
0000
0000
0000
0000
0000
0000
0000
0100
0000
0000
0000
0000
0010
0000
0000
0001
0000
0000
0000
0000
0010
0000
0000
0100
0000
0000
0000
0000
0010
0000
0000
0001
0000
0000
0000
0000
0010
0000
0000
0100
0000
0000
0000
0000
0010
0000
0000
,  // measure 69
0001
0000
0000
0000
0000
0000
0000
0000
1000
0000
0000
0000
0000
0000
0000
0000
0000
0000
0000
0000
0000
0010
0000
0000
1000
0000
0000
0000
0000
0000
0000
0000
0001
0000
0000
0000
0000
0000
0000
0000
0010
0000
0000
0000
0100
0000
0000
0000
0000
0000
0000
0000
0000
1000
0000
0000
0001
0000
0000
0000
0000
1000
0000
0000
,  // measure 70
0001
0000
0000
0000
0000
0000
0000
0000
0010
0000
0000
0000
0000
0000
0000
0000
0100
0000
0000
0000
0000
0000
0000
0000
1000
0000
0000
0000
0000
0100
0000
0000
0010
0000
0000
0000
0000
0100
0000
0000
1000
0000
0000
0000
0000
0100
0000
0000
0010
0000
0000
0000
0000
0100
0000
0000
1000
0000
0000
0000
0000
0100
0000
0000
,  // measure 71
0010
0000
0000
0000
0000
0000
0000
0000
0002
0000
0000
0000
0000
0000
0000
0000
1003
0000
0000
0000
0000
0000
0000
0000
0001
0000
0000
0000
0000
1000
0000
0000
0100
0000
0000
0000
0000
1000
0000
0000
0100
0000
0000
0000
0000
0010
0000
0000
0000
0000
0000
0000
0000
0001
0000
0000
2000
0000
0000
0000
0000
0000
0000
0000
,  // measure 72
3010
0000
0000
0000
0000
0000
0000
0000
0100
0000
0000
0000
0000
0000
0000
0000
0001
0000
0000
0000
0000
0000
0000
0000
1000
0000
0000
0000
0000
0001
0000
0000
0100
0000
0000
0000
0000
0001
0000
0000
0100
0000
0000
0000
0000
0020
0000
0000
0000
0000
0000
0000
0000
1030
0000
0000
0001
0000
0000
0000
0000
1000
0000
0000
,  // measure 73
0001
0000
0000
0000
0000
0010
0000
0000
0100
0000
0000
0000
0000
1000
0000
0000
0000
0000
0000
0000
0000
0100
0000
0000
0010
0000
0000
0000
0000
0100
0000
0000
0010
0000
0000
0000
0000
0100
0000
0000
0010
0000
0000
0000
0000
0001
0000
0000
0000
0000
0000
0000
0000
1000
0000
0000
0020
0000
0000
0000
0000
0000
0000
0000
,  // measure 74
2030
3000
0002
0003
0020
0030
0200
0300
,  // measure 75
2100
0000
0000
0000
3001
0000
0200
0000
0000
0000
0320
0000
0000
0000
2030
0000
0000
0000
3001
0000
0010
0000
0100
0000
2000
0000
3001
0010
0100
1000
0100
0010
,  // measure 76
0002
0000
1003
0010
0100
0010
1000
0001
0010
0100
1000
0004
0000
2003
3400
0000
,  // measure 77
0320
0000
0031
0000
0010
0000
0100
0000
2000
0000
0000
3002
0000
0000
0103
0000
0020
0000
0000
0000
0130
0000
0001
0000
2000
0000
3001
0100
0010
1000
0010
0100
,  // measure 78
0002
0000
0000
0003
1001
0000
1000
0000
0100
0000
0010
0000
0011
0000
0002
0000
0000
0000
1003
0000
1010
0000
0010
0000
0200
0000
0000
0000
0302
0000
0000
0003
,  // measure 79
1001
2000
3100
0110
0020
0031
1001
1000
,  // measure 80
1010
0000
0010
0000
0000
0000
0210
0000
0000
0000
0301
0100
0010
0100
0001
0000
,  // measure 81
1001
2000
3010
0110
0200
0301
1001
1000
,  // measure 82
1200
0000
0310
0000
0000
0000
0012
0000
0000
0000
1003
0010
0100
0000
0001
0000
,  // measure 83
1001
2000
3100
0110
0020
0031
1001
1000
,  // measure 84
1020
0000
0130
0000
0000
0000
0102
0000
0000
0000
1003
0100
0010
0000
0001
0000
,  // measure 85
2001
0000
0000
0000
3020
0000
0000
0030
0210
0000
0000
0000
0301
0000
2001
0000
,  // measure 86
0000
0000
3100
0000
0020
0000
0000
0030
0012
0000
0000
0000
2003
0000
0000
3000
,  // measure 87
1010
0000
0020
0000
0130
0000
0101
0000
0002
0000
1003
0000
1200
0000
0000
0300
,  // measure 88
0110
0000
0010
0000
0001
0000
1000
0000
1020
0000
0130
0001
1000
0001
0100
0000
,  // measure 89
0110
0000
0020
0000
1030
0000
1001
0000
0002
0000
0013
0000
0210
0000
0000
0300
,  // measure 90
1100
0000
1000
0000
0002
0000
0000
0003
0101
0000
0100
0010
1000
0010
0100
0000
,  // measure 91
0101
0002
1003
1100
0200
0310
0011
0001
,  // measure 92
2001
0000
3010
0000
0000
0000
0210
0000
0000
0000
0301
1000
0010
0000
1000
0000
,  // measure 93
1002
0000
0000
0000
0023
0000
0000
0030
0210
0000
0000
0000
1300
0000
1002
0000
,  // measure 94
0000
0000
0103
0000
0020
0000
0000
0030
2010
0000
0000
0000
3002
0000
0000
0003
,  // measure 95
0021
0000
0130
0000
1000
0000
0001
0100
0000
0100
0010
0000
1000
0001
1000
0000
,  // measure 96
1200
0000
0310
0000
0001
0000
1000
0020
0000
1030
0010
0100
0001
0100
0010
0000
,  // measure 97
2010
0000
3001
0000
0010
0000
0100
0010
0000
0010
0001
0000
0010
0100
0010
0000
,  // measure 98
0012
0000
1003
0000
0010
0000
0100
0002
0000
0000
1003
0000
1200
0000
0320
0000
,  // measure 99
0000
0000
0000
0000
,  // measure 100
0030
0000
0000
0000
;

//---------------dance-single - Hard----------------
#NOTES:
     dance-single:
     Ace Of Hearts (2014):
     Hard:
     8:
     0.571,0.420,0.185,0.909,0.152:
0000
0000
0000
0000
,
0000
0000
1000
0010
0000
0010
1000
0000
0000
0000
0001
0100
0000
0100
0001
0000
,
0000
0000
1000
0001
0000
0001
1000
0000
0001
0000
0010
0000
0100
0000
2000
0000
,
0000
0000
3100
0010
0000
0010
0100
0000
0000
0000
1000
0100
0000
0100
1000
0000
,
0000
0000
0001
0100
0000
0100
0001
0000
0000
0000
1000
0000
0010
0000
1000
0000
,
0000
0000
0001
0000
0010
0000
0100
2000
0000
0000
3002
0000
0003
0000
1000
0000
,
0020
0000
1030
0000
0001
0000
0010
0200
0000
0000
2300
0000
0000
0000
3000
0000
,
0000
0000
0001
0000
1000
0000
0100
0020
0000
0000
0230
0000
0300
0000
1000
0000
,
0002
0000
0013
0000
0001
0000
1000
0200
0000
0000
0320
0000
0000
0000
0030
0000
,
0001
0000
1000
0000
0010
0000
1000
0010
,
1000
0001
1000
0001
0010
0200
0300
1000
,
0100
0010
0000
0012
0000
2003
3010
0100
,
0010
1000
0001
1000
0100
0020
0030
0001
,
0010
0100
0000
2100
0000
3004
0003
1000
,
0010
1000
0001
0010
0001
2000
0000
3001
,
0010
0100
0000
2100
0000
3001
0100
0010
,
2000
0000
3002
0003
0021
0000
0130
2000
,
0000
3001
0200
0300
0120
0000
4030
3000
,
2002
0000
0000
0000
3003
0001
0010
0420
,
0000
0000
0000
0000
0330
0100
1000
2002
,
0000
0000
0000
0000
3003
0001
0100
0020
,
0000
0130
0001
1000
0100
0010
0002
0003
,
2002
0000
0000
0000
3003
1000
0010
0200
,
0000
0000
0000
0302
0000
1003
0100
0020
,
0000
0000
0430
0000
0000
0000
0300
1000
,
0200
0320
0032
2003
,
3100
0010
0001
1000
0100
0020
0030
0001
,
1000
0001
0000
0201
0000
0310
1000
0001
,
0010
0100
1000
0001
0010
0200
0300
0010
,
0001
0020
0030
0210
0000
4300
3001
1000
,
0001
0100
0010
1000
0001
2000
3000
0001
,
0010
0100
0000
2100
0000
3001
0100
0010
,
0200
0000
0302
0003
2001
0000
3100
0020
,
0000
0130
2000
3000
1002
0000
0203
0000
,
0300
0000
0010
0000
0100
0000
0001
2000
0000
0000
3200
0000
0300
0000
0010
0000
,
0002
0000
1003
0000
0001
0000
0010
0200
0000
0000
2300
0000
3000
0000
0000
0000
,
0000
0000
0001
0000
0100
0000
0010
2000
0000
0000
3002
0000
0003
0000
0010
0000
,
0002
0000
1003
0000
0010
0000
0100
0002
0000
0000
2003
0000
3100
0000
0010
0000
,
0001
0010
0001
1000
0001
0020
0030
0100
,
1000
0002
0003
0201
0000
0320
1030
0001
,
0100
0001
0100
0010
0100
0002
0003
1000
,
0100
0010
0000
0012
0000
2003
3000
0010
,
1000
0001
1000
0001
0010
0200
0300
0010
,
0001
0010
0000
0210
0000
2300
3001
0100
,
0020
0000
2030
3000
1002
0000
0013
0200
,
0000
0310
0002
0003
2001
0000
3020
0030
,
0220
0000
0000
0000
0330
0100
0001
2002
,
0000
0003
0000
3200
0000
0310
0001
2000
,
0000
3100
0040
0000
0000
0000
0030
0001
,
2000
3200
0320
0032
,
1003
0010
0100
0001
1000
0020
0030
1000
,
0001
0020
0030
0210
0000
1300
0001
1000
,
0100
0010
0001
1000
0100
0020
0030
0100
,
1000
0001
0000
2001
0000
3040
0130
0001
,
1000
0010
0100
0001
1000
0020
0030
1000
,
0001
0010
0000
0210
0000
1300
0001
0010
,
0200
0000
0320
0030
0012
0000
1003
0020
,
0000
1030
0002
0003
0201
0000
0320
0000
,
0030
0000
2000
0000
3002
0003
0021
0000
,
0130
1000
0100
0010
0002
0000
2003
0000
,
3000
0000
0001
0010
0000
0010
0001
0000
0000
0000
1000
0010
0000
0010
1000
0000
,
0000
0000
0001
0100
0000
0100
0001
0000
0000
0000
1000
0000
0100
0000
1000
0000
,
0000
0000
0002
0000
2003
0000
3010
0100
,
0001
0100
0020
0000
1030
0001
0020
0000
,
0030
0000
0100
1000
0000
1000
0100
0000
0000
0000
0010
0001
0000
0001
0010
0000
,
0000
0000
0001
1000
0000
1000
0001
0000
0000
0000
0100
0010
0000
0010
0100
0000
,
0001
0100
0001
1000
0200
0000
0310
0001
,
0010
0100
0010
0001
2000
0000
3010
0100
,
0001
0000
1000
0001
0000
0001
1000
0000
0200
0000
0310
0001
0000
1000
0100
1000
,
0100
0020
0130
1000
0002
0003
1001
0000
,
1000
0000
0010
0000
0100
0000
0010
1000
0020
0000
0000
0000
0130
0000
0001
0000
,
1000
0100
0010
0001
2000
0000
3010
0100
,
0002
0000
1003
0200
0000
0310
0001
0010
0001
0000
1000
0000
0010
0000
0000
0000
,
0200
0300
0002
0003
2000
3000
0020
0030
,
0000
0000
1000
0002
0000
0023
0000
0230
0000
1300
0001
1000
0200
0000
0310
0002
,
0000
0000
0000
0000
0000
0000
0003
1000
0001
1000
0001
0040
0000
0430
0000
0000
,
0300
0000
0000
0000
0000
0000
1000
0000
0002
0000
0000
0023
0000
0000
0130
0000
2000
0000
0000
0000
3001
0000
0010
0000
0002
0000
0000
0000
2003
0000
0000
0000
,
3020
0000
0230
0000
0302
0000
0003
2000
,
3100
0010
0001
1000
0100
0020
0030
0001
,
1000
0001
0000
2001
0000
3010
0100
0010
,
1000
0010
0100
0001
1000
0020
0030
0100
,
0001
1000
0000
1200
0000
0340
0031
0010
,
0100
1000
0001
0010
0100
2000
3000
0001
,
0100
0002
0003
2001
0000
3100
0010
0100
,
2000
0000
3002
0003
0201
0000
0310
2000
,
0000
3001
0020
0030
0210
0000
2300
0000
,
3001
0100
0010
1000
0001
0200
0320
0000
,
1030
0001
0010
0001
2000
3000
1200
0000
,
0310
0001
1000
0100
0010
0002
2003
0000
,
3010
0100
0020
0000
1030
0001
0020
0000
,
0031
1000
0100
0010
0001
2000
3000
0001
,
0100
0010
0000
2010
0000
3001
0010
0100
,
2000
0000
3002
0003
0201
0000
0310
2000
,
0000
3001
0020
0030
0210
0000
2300
3000
,
0000
0000
0001
0000
0010
0000
0100
2000
0000
0000
3002
0000
0003
0000
1000
0000
,
0020
0000
1030
0000
0001
0000
0010
0200
0000
0000
2300
0000
3000
0000
0000
0000
,
0000
0000
0001
0000
1000
0000
0010
0200
0000
0000
0302
0000
0003
0000
1000
0000
,
0200
0000
0310
0000
0001
0000
1000
0002
0000
0000
1003
0000
0100
0000
0020
0000
,
0000
0000
0000
0000
,
0030
0000
0000
0000
;

//---------------dance-single - Medium----------------
#NOTES:
     dance-single:
     Ace Of Hearts (2014):
     Medium:
     6:
     0.408,0.198,0.000,0.804,0.087:
0000
0000
0000
0000
,
0000
0000
0000
0001
0000
0000
0001
0000
0000
0000
0000
1000
0000
0000
1000
0000
,
0000
0000
0000
0010
0000
0000
0010
0000
0000
0000
0000
0100
0000
0000
0100
0000
,
0000
0000
0000
0001
0000
0000
0001
0000
0000
0000
0000
1000
0000
0000
1000
0000
,
0000
0000
0000
0100
0000
0000
0100
0000
0000
0000
0000
0000
0010
0000
0001
0000
,
0000
0000
1000
0000
1000
0000
0000
0200
0000
0000
0300
0000
0000
0000
0000
0000
,
0010
0000
0100
0000
0010
0000
0000
0002
0000
0000
0003
0000
0000
0000
0000
0000
,
0000
0000
1000
0000
1000
0000
0000
0020
0000
0000
0030
0000
0000
0000
0000
0000
,
0100
0000
0001
0000
0100
0000
0000
0020
0000
0000
0030
0000
0000
0000
0000
0000
,
1000
0001
1000
0001
,
0010
0001
0010
0000
0100
2000
3000
0000
,
0001
0100
0000
0010
0000
0200
0300
0000
,
0001
0100
0001
0000
1000
0100
0000
0010
,
0100
0010
0000
0001
0000
0020
0030
0000
,
0001
1000
0001
0000
1000
0010
0000
0100
,
0001
0100
0000
0010
0000
0200
0300
0000
,
0001
0000
1000
0000
0200
0000
0310
0002
,
0000
1003
0020
0000
2030
0000
3002
0000
,
2003
0000
0000
0000
3000
0001
0010
0002
,
0000
0000
0000
0000
0003
0010
0100
0020
,
0000
0000
0000
0000
0030
0001
0010
0002
,
0000
1003
0010
0000
1000
0001
2000
0000
,
3200
0000
0000
0000
0300
1000
0001
2000
,
0000
0000
0000
3002
0000
0013
0100
0020
,
0000
0000
0034
0000
0000
0000
0003
1000
,
0002
0023
0230
2300
,
3001
0000
1000
0100
0000
0020
0030
0000
,
0001
0010
0000
0200
0000
2300
3000
0000
,
0001
0000
1000
0020
0000
0130
0000
0000
,
0001
0200
0000
0302
0000
2003
3000
0000
,
0001
0000
0010
0100
0000
2000
3000
0000
,
0001
0100
0000
0020
0000
0230
0301
0000
,
2000
0000
3020
0000
2030
0000
3001
0020
,
0000
0031
2000
0000
3020
0000
0230
0000
,
0300
0000
0001
0000
0001
0000
0000
2000
0000
0000
3000
0000
0000
0000
0000
0000
,
0001
0000
0100
0000
0001
0000
0000
0200
0000
0000
0300
0000
0000
0000
0000
0000
,
0000
0000
0010
0000
0010
0000
0000
0200
0000
0000
0300
0000
0000
0000
0000
0000
,
0010
0000
1000
0000
0010
0000
0000
2000
0000
0000
3000
0000
0000
0000
0000
0000
,
0001
0010
0001
0000
1000
0100
0000
0010
,
0001
0010
0000
0200
0000
2300
3000
0000
,
0001
0100
0001
0000
1000
0010
0000
1000
,
0001
1000
0000
0002
0000
0023
0030
0000
,
0001
1000
0001
0000
0010
0100
0000
0010
,
0100
0010
0000
0002
0000
1003
0010
0000
,
2000
0000
3002
0000
0023
0000
0130
2000
,
0000
3001
0200
0000
0320
0000
2030
0000
,
3002
0000
0000
0000
0003
1000
0100
2000
,
0000
0000
0000
3200
0000
0310
0001
0020
,
0000
0000
0430
0000
0000
0000
0300
1000
,
0002
0203
0320
2030
,
3001
0000
0010
0100
0000
2000
3000
0000
,
0001
0100
0000
0002
0000
2003
3000
0000
,
0100
0000
0010
0001
0000
1000
0000
0000
,
0001
0100
0000
0020
0000
0230
0300
0000
,
0001
0000
1000
0100
0000
0020
0030
0000
,
0100
1000
0000
0002
0000
0203
0300
0000
,
0020
0000
2030
0000
3002
0000
0013
0200
,
0000
0310
0002
0000
2003
0000
3200
0000
,
0300
0020
0032
2003
,
3010
1000
0020
0000
0230
0000
0302
0000
,
0003
0000
0000
1000
0000
0000
1000
0000
0000
0000
0000
0001
0000
0000
0001
0000
,
0000
0000
0000
0010
0000
0000
0010
0000
0000
0000
0001
0000
1000
0000
0000
0000
,
0000
0002
0203
0320
,
0130
0001
0200
0000
0310
1000
0020
0000
,
0030
0000
0000
1000
0000
0000
1000
0000
0000
0000
0000
0001
0000
0000
0001
0000
,
0000
0000
0000
0010
0000
0000
0010
0000
0000
0000
0100
0000
1000
0000
0000
0000
,
0001
0100
0001
0000
2000
0000
3020
0000
,
0130
0001
0100
0000
0002
0000
2003
0000
,
3200
0000
0000
0310
0000
0000
0000
0000
0020
0000
0000
0130
0000
0000
0000
0000
,
1000
0001
1000
0000
0020
0000
0130
0000
,
0001
0100
0001
0000
2000
0000
3002
0000
,
1003
0010
2000
0000
3002
0000
1003
0100
,
2000
0000
0000
3001
0000
0000
0000
0000
0002
0000
0000
0000
1003
0000
0000
0000
,
0001
0000
0100
0000
0010
0000
2000
3000
,
0000
0000
0000
0002
0000
0023
0000
0032
0000
0000
2003
0000
3020
0000
0000
0230
,
0000
0000
0000
0000
0000
0000
0300
0000
0002
0000
0000
4003
0000
3400
0000
0000
,
0300
0000
0000
0000
0020
0000
0000
0031
2000
0000
3002
0000
0023
0000
0230
0000
,
2300
0000
3002
0000
0203
0000
0300
0020
,
1030
0000
0001
0010
0000
0200
0300
0000
,
1000
0100
0000
0020
0000
0032
0003
0000
,
1000
0000
0010
0100
0000
0002
0003
0000
,
1000
0001
0000
0020
0000
0230
0300
0000
,
1000
0000
0100
0010
0000
0002
0003
0000
,
1000
0010
0000
0200
0000
0302
0003
0000
,
2000
0000
3020
0000
0230
0000
0310
2000
,
0000
3001
0020
0000
0230
0000
2300
0000
,
3001
0000
0100
0010
0000
2000
3000
0000
,
0001
0010
0002
0000
2003
0000
3020
0000
,
1030
0000
0001
0100
0000
0020
0030
0000
,
1000
0001
2000
0000
3010
0100
0020
0000
,
1030
0000
0001
0100
0000
0020
0030
0000
,
1000
0010
0000
0200
0000
0302
0003
0000
,
2000
0000
3002
0000
0023
0000
0031
2000
,
0000
3100
0020
0000
0230
0000
2300
0000
,
3000
0000
0001
0000
0001
0000
0000
0200
0000
0000
0300
0000
0000
0000
0000
0000
,
0010
0000
0100
0000
0010
0000
0000
2000
0000
0000
3000
0000
0000
0000
0000
0000
,
0000
0000
0001
0000
0001
0000
0000
0020
0000
0000
0030
0000
0000
0000
0000
0000
,
0001
0000
0010
0000
0001
0000
0000
2000
0000
0000
3000
0000
0001
0000
0020
0000
,
0000
0000
0000
0000
,
0030
0000
0000
0000
;

//---------------dance-single - Easy----------------
#NOTES:
     dance-single:
     Ace Of Hearts (2014):
     Easy:
     4:
     0.203,0.099,0.000,0.220,0.000:
0000
0000
0000
0000
,
0000
1000
0000
1000
,
0000
0001
0000
0001
,
0000
0100
0000
0100
,
0000
0010
0000
0010
,
0000
1000
1000
0000
,
0001
0001
0001
0000
,
0000
0010
0010
0000
,
0100
0100
0100
0000
,
2000
0000
3000
0000
,
0001
0001
0001
0000
,
0100
0000
0000
0100
0000
0000
0000
0000
,
0010
0010
0010
0000
,
1000
0000
0000
1000
0000
0000
0000
0000
,
0001
0001
0001
0000
,
0010
0000
0000
0010
0000
0000
0000
0000
,
0100
0000
0100
0000
0100
0000
0000
1000
,
0000
0001
0001
0001
,
0002
0000
0000
0000
0003
0000
0000
0020
,
0000
0000
0000
0000
0030
0000
0000
0200
,
0000
0000
0000
0000
0300
0000
0000
0010
,
0000
0001
0001
0001
,
0002
0000
0000
0000
0003
0000
0000
2000
,
0000
0000
3000
0000
,
0010
0040
0000
0030
,
1000
1000
0001
0001
,
0020
0000
0030
0020
0000
0030
0000
0000
,
0100
0000
0000
0100
0000
0000
0000
0000
,
2000
0000
3000
2000
0000
3000
0000
0000
,
0001
0000
0000
0001
0000
0000
0000
0000
,
0200
0000
0300
0200
0000
0300
0000
0000
,
0010
0000
0000
0010
0000
0000
0000
0000
,
1000
0000
1000
0000
1000
0000
0000
0001
,
0000
0100
0100
0100
,
0000
0010
0010
0000
,
1000
1000
1000
0000
,
0000
0001
0001
0000
,
0010
0010
0010
0000
,
0100
0100
0100
0000
,
1000
0000
0000
1000
0000
0000
0000
0000
,
0001
0001
0001
0000
,
0010
0000
0000
0010
0000
0000
0000
0000
,
0100
0100
0100
0000
,
1000
0000
0000
1000
0000
0000
0000
0000
,
0001
0000
0001
0000
0001
0000
0000
0100
,
0000
0010
0010
0010
,
0020
0000
0000
0000
0030
0000
0000
0200
,
0000
0000
0300
0000
,
0001
0004
0000
0003
,
1000
1000
0010
0010
,
0200
0000
0300
0200
0000
0300
0000
0000
,
0001
0000
0000
0001
0000
0000
0000
0000
,
2000
0000
3000
2000
0000
3000
0000
0000
,
0100
0000
0000
0100
0000
0000
0000
0000
,
0020
0000
0030
0020
0000
0030
0000
0000
,
0001
0000
0000
0001
0000
0000
0000
0000
,
1000
0000
1000
0000
1000
0000
0000
0100
,
0000
0010
0010
0010
,
0000
0001
0001
0001
,
1000
1000
1000
1000
,
0000
0010
0000
0010
,
0000
0100
0000
0100
,
0000
0001
0001
0001
,
1000
1000
0100
0100
,
0000
0010
0000
0010
,
0000
0001
0000
0001
,
1000
1000
1000
0000
,
0010
0010
0010
0000
,
0200
0000
0000
0300
0000
0000
0000
0000
0002
0000
0000
0003
0000
0000
0000
0000
,
1000
1000
2000
3000
,
0001
0001
0002
0003
,
0010
0010
0020
0030
,
0200
0000
0000
0300
0000
0000
0000
0000
2000
0000
0000
3000
0000
0000
0000
0000
,
0001
0001
0001
0001
,
0000
1000
2000
3000
,
0002
0000
0000
0003
0200
0000
0000
0300
,
0000
0010
0010
1000
,
2000
0000
0000
3000
,
0002
0000
0003
0002
0000
0003
0000
0000
,
0010
0000
0000
0010
0000
0000
0000
0000
,
0200
0000
0300
0200
0000
0300
0000
0000
,
1000
0000
0000
1000
0000
0000
0000
0000
,
0002
0000
0003
0002
0000
0003
0000
0000
,
1000
0000
0000
1000
0000
0000
0000
0000
,
0010
0000
0010
0000
0010
0000
0000
0100
,
0000
0001
0001
0001
,
2000
0000
3000
2000
0000
3000
0000
0000
,
0100
0100
0100
0100
,
0020
0000
0030
0020
0000
0030
0000
0000
,
0001
0001
1000
1000
,
0200
0000
0300
0200
0000
0300
0000
0000
,
0010
0000
0000
0010
0000
0000
0000
0000
,
0001
0000
0001
0000
0001
0000
0000
1000
,
0000
0100
0100
0100
,
0000
1000
1000
0000
,
0001
0001
0001
0000
,
0000
1000
1000
0000
,
0100
0000
0100
0000
0100
0000
0000
0020
,
0000
0000
0000
0000
,
0030
0000
0000
0000
;

//---------------dance-single - Novice----------------
#NOTES:
     dance-single:
     Ace Of Hearts (2014):
     Beginner:
     2:
     0.134,0.099,0.000,0.295,0.000:
0000
0000
0000
0000
,
0000
0002
0000
0003
,
0000
2000
0000
3000
,
0000
0020
0000
0030
,
0000
0200
0000
0300
,
0002
0000
0003
0000
,
0002
0000
0003
0000
,
2000
0000
3000
0000
,
2000
0000
3000
0000
,
0000
0000
0000
0000
,
0001
0000
0001
0000
,
0002
0000
0003
0000
,
0100
0000
0100
0000
,
0200
0000
0300
0000
,
0010
0000
0010
0000
,
0020
0000
0030
0000
,
1000
0000
1000
0000
,
2000
0000
3000
0000
,
0002
0000
0003
0000
,
0200
0000
0300
0000
,
0020
0000
0030
0000
,
1000
0000
1000
0000
,
2000
0000
3000
0000
,
0002
0000
0003
0000
,
0020
0000
0030
0000
,
0001
0000
0001
0000
,
0004
0000
0000
0000
0000
0003
0000
0000
,
1000
0000
1000
0000
,
4000
0000
0000
0000
0000
3000
0000
0000
,
0010
0000
0010
0000
,
0040
0000
0000
0000
0000
0030
0000
0000
,
0200
0000
0300
0000
,
0001
0000
0001
0000
,
0002
0000
0003
0000
,
0200
0000
0300
0000
,
0200
0000
0300
0000
,
0020
0000
0030
0000
,
0020
0000
0030
0000
,
1000
0000
1000
0000
,
2000
0000
3000
0000
,
0001
0000
0001
0000
,
0002
0000
0003
0000
,
0010
0000
0010
0000
,
0020
0000
0030
0000
,
0100
0000
0100
0000
,
0200
0000
0300
0000
,
2000
0000
3000
0000
,
0002
0000
0003
0000
,
0200
0000
0300
0000
,
0010
0000
0010
0000
,
0040
0000
0000
0000
0000
0030
0000
0000
,
0100
0000
0100
0000
,
0400
0000
0000
0000
0000
0300
0000
0000
,
0001
0000
0001
0000
,
0004
0000
0000
0000
0000
0003
0000
0000
,
2000
0000
3000
0000
,
0100
0000
0100
0000
,
0200
0000
0300
0000
,
0010
0000
0010
0000
,
0020
0000
0030
0000
,
0002
0000
0003
0000
,
0002
0000
0003
0000
,
0010
0000
0010
0000
,
0020
0000
0030
0000
,
0200
0000
0300
0000
,
0200
0000
0300
0000
,
1000
0000
1000
0000
,
2000
0000
3000
0000
,
0001
0000
0001
0000
,
0002
0000
0003
0000
,
0100
0000
0100
0000
,
0200
0000
0300
0000
,
0010
0000
0010
0000
,
0020
0000
0000
0030
,
2000
3000
0001
0001
,
0002
0000
0000
0003
2000
0000
0000
3000
,
0020
0030
0100
0100
,
0200
0000
0000
0300
,
0004
0000
0000
0000
0000
0003
0000
0000
,
1000
0000
1000
0000
,
4000
0000
0000
0000
0000
3000
0000
0000
,
0100
0000
0100
0000
,
0400
0000
0000
0000
0000
0300
0000
0000
,
0020
0000
0030
0000
,
0001
0000
0001
0000
,
0002
0000
0003
0000
,
4000
0000
0000
0000
0000
3000
0000
0000
,
0020
0000
0030
0000
,
0400
0000
0000
0000
0000
0300
0000
0000
,
0002
0000
0003
0000
,
4000
0000
0000
0000
0000
3000
0000
0000
,
0200
0000
0300
0000
,
0010
0000
0010
0000
,
0020
0000
0030
0000
,
0002
0000
0003
0000
,
0002
0000
0003
0000
,
2000
0000
3000
0000
,
2000
0000
3000
0020
,
0000
0000
0000
0000
,
0030
0000
0000
0000
;
