#TITLE:Senbonzakura;
#SUBTITLE:;
#ARTIST:Miku Hatsune;
#TITLETRANSLIT:;
#SUBTITLETRANSLIT:;
#ARTISTTRANSLIT:;
#GENRE:;
#CREDIT:Ace Of Hearts;
#BANNER:Senbonzakura - Bn.png;
#BACKGROUND:Senbonzakura - Bg.png;
#LYRICSPATH:;
#CDTITLE:Ace Of Hearts.png;
#MUSIC:Senbonzakura.ogg;
#OFFSET:1.325;
#SAMPLESTART:57.400;
#SAMPLELENGTH:12.000;
#SELECTABLE:YES;
#BPMS:0.000=154.000,488.000=77.000,502.000=154.000;
#STOPS:;
#BGCHANGES:7.000=Senbonzakura Video (Diva).avi=1.000=0=0=1=====,
99999=-nosongbg-=1.000=0=0=0 // don't automatically add -songbackground-
;
#KEYSOUNDS:;

//---------------dance-single - Ace Of Hearts (2014)----------------
#NOTES:
     dance-single:
     Ace Of Hearts (2014):
     Hard:
     9:
     0.624,0.450,0.004,0.686,0.155:
0000
0000
0000
0000
,
0000
0000
0000
0000
,
1000
0000
0000
1000
0000
0000
0002
0000
0013
0000
0000
0010
0000
0000
0200
0000
,
1300
0000
0000
1000
0000
0000
0001
0000
0020
0000
0000
0000
0230
0000
0000
0000
,
1300
0000
0000
1000
0000
0000
0002
0000
0013
0000
0000
0010
0000
0000
0200
0000
,
2300
3002
0203
0320
,
1030
0001
1000
0100
1000
0100
0010
0001
,
0010
0001
1000
0001
2000
0000
3000
0000
,
0001
0010
0001
1000
0001
1000
0010
0100
,
0010
0100
0001
1000
0002
0000
0003
0000
,
0010
0001
1000
0100
1000
0100
0010
0001
,
0010
0001
1000
0010
2000
0000
3000
0000
,
0001
0100
0010
1000
0001
0010
0100
1000
,
0001
0010
0100
1000
0002
0000
1003
0010
,
1000
0010
0100
0010
0100
0010
1000
0001
,
1000
0001
0010
0100
0020
0000
0030
0000
,
0100
1000
0001
0100
0001
0100
0010
1000
,
0010
1000
0001
0010
0200
0000
0300
0000
,
1000
0100
0010
0001
0010
0001
1000
0010
,
1000
0010
0100
0001
0200
0000
0300
0000
,
0001
0100
0010
1000
0010
0100
0001
1000
,
0100
0000
0000
0100
0000
0000
0010
0000
0002
0000
0000
0000
0000
0000
0003
0000
,
1000
0000
2000
3001
0100
0010
1000
0010
,
0100
0000
0000
0000
0002
0000
0000
1003
0100
0000
0010
0000
0100
0000
1000
0000
,
0001
0000
0000
0000
2000
0000
0000
3001
0010
0000
0100
0000
0010
0000
0001
0000
,
1000
0000
0040
0000
0230
0300
0001
0000
,
1000
0000
0000
1000
0100
0000
0000
0100
0010
0000
0001
0000
1000
0000
0001
0000
,
0100
0000
0000
0100
0010
0000
1000
0000
0001
0000
0010
0000
0001
0000
1000
0000
,
0010
0000
0000
0010
0100
0000
0001
0000
1000
0000
0001
0000
0010
0000
0100
0000
,
1000
0040
0230
0300
,
0002
2003
3002
0023
,
0130
0000
0010
0001
0010
0000
0100
0000
2000
0000
0000
0000
3000
0000
0000
0000
,
0001
0100
0001
0000
2000
0000
3200
0000
,
0310
0001
0010
0100
2000
0000
3000
0000
,
0002
2003
3002
0023
,
0130
0000
1000
0100
1000
0000
0001
0000
0100
0000
0000
0000
0010
0000
0100
0000
,
0010
1000
0000
0001
0020
0000
0230
0000
,
2300
0000
3000
0002
,
0023
0000
0000
0100
0000
0000
0031
0000
0002
0000
0000
0000
0003
0000
1000
0000
,
0001
0010
0100
0010
0001
0000
1000
0010
,
0100
0000
0000
0001
0000
0000
1000
0000
0200
0000
0000
0000
0300
0000
0010
0000
,
0001
1000
0001
0010
0100
0000
0010
0001
,
1000
0000
0000
0100
0010
0000
0100
0000
2000
0000
0000
0000
3000
0000
0001
0000
,
0100
0010
0100
0001
1000
0000
0001
1000
,
0002
0023
0230
2300
,
3001
0100
0010
0100
0001
0000
1000
0100
,
2000
0000
0000
0001
0000
0000
3100
0000
0200
0000
0000
0000
0300
0000
0010
0000
,
0001
1000
0001
0010
0100
0000
1000
0001
,
2000
0000
3000
0001
0200
0000
0300
0001
,
1000
0010
0100
0010
1000
0000
0001
0010
,
0002
0000
0000
1003
0000
0000
0100
0000
0020
0000
0000
0000
0030
0000
0001
0000
,
1000
0010
1000
0001
0020
0000
0130
1000
,
0002
0023
0230
2300
,
3001
0100
0010
1000
0002
0000
0000
0000
,
1003
0100
0010
0001
0010
0001
1000
0010
,
1000
0010
0100
0001
0200
0000
0300
0000
,
0010
0100
0001
1000
0001
1000
0100
0010
,
0100
0010
0001
0010
0002
0000
0003
0000
,
1000
0010
1000
0001
1000
0001
0010
0001
,
0010
0001
1000
0100
2000
0000
3000
0000
,
0001
0010
0100
1000
0001
0100
0010
1000
,
0001
0000
0000
0001
0000
0000
1000
0000
0200
0000
0000
0000
0300
0000
0000
0000
,
0010
0000
0000
0010
0100
0000
0000
0100
1000
0000
0001
0000
1000
0000
0010
0000
,
0100
0000
0000
0100
0001
0000
0000
0001
1000
0000
0100
0000
0010
0000
0001
0000
,
1000
0000
0000
0000
0002
0000
0000
1003
0010
0000
0100
0000
0010
0000
1000
0000
,
0002
0000
0403
0000
0320
0000
2030
3000
,
0001
0000
0000
0000
2000
0000
0000
3001
0010
0000
0100
0000
0010
0000
0001
0000
,
2000
0000
0000
0000
3020
0000
0000
0130
0001
0000
1000
0000
0001
0000
0010
0000
,
0200
0000
0000
0000
0320
0000
0000
0031
1000
0000
0010
0000
1000
0000
0001
0000
,
0020
0430
2300
3002
,
2003
3020
0230
0302
,
1003
0000
0010
0100
0020
0000
1030
0000
0002
0000
0000
0000
0003
0000
0000
0000
,
1000
0010
0100
0010
2000
0000
3002
0000
,
1003
0010
1000
0001
0200
0000
0300
0000
,
0002
0000
2003
0000
3200
0000
0320
0031
,
1000
0000
0001
1000
0001
0000
0100
0000
0020
0000
0000
0000
1030
0000
0001
0000
,
0010
0100
0000
0010
0002
0000
2003
0000
,
3200
0000
0300
0020
,
0032
0000
0000
1000
0000
0000
0013
0000
0020
0000
0000
0000
0030
0000
0001
0000
,
1000
0010
1000
0001
0010
0000
0100
0010
,
0100
0000
0000
2000
0000
0000
3001
0000
0200
0000
0000
0000
0300
0000
0010
0000
,
0100
0001
0100
0010
1000
0000
0001
0010
,
0001
0000
0000
1000
0000
0000
0100
0000
0020
0000
0000
0000
0030
0000
0100
0000
,
1000
0001
1000
0100
0010
0000
0100
1000
,
0200
0320
0032
2003
,
3010
0100
0010
1000
0001
0000
1000
0100
,
2000
0000
0000
0001
0000
0000
3010
0000
0020
0000
0000
0000
0030
0000
1000
0000
,
0001
0010
0001
1000
0010
0000
0100
0001
,
0200
0000
0000
0310
0000
0000
1000
0000
0002
0000
0000
0000
0003
0000
0010
0000
,
0100
1000
0100
0010
0001
0000
1000
0010
,
1000
0000
0000
0002
0000
0000
0013
0000
0200
0000
0000
0000
0300
0000
0010
0000
,
0001
1000
0001
0010
0200
0000
1300
0001
,
2000
3020
0230
0302
,
1003
0100
0010
0100
2000
0000
0000
0000
,
3001
0000
0001
0000
1000
0000
1000
0000
0001
0000
0001
0000
0010
0100
1000
0000
,
0100
0000
0100
0000
0010
0000
0010
0000
0100
0000
0100
0000
0010
0100
1000
0000
,
0001
0000
0001
0000
1000
0000
1000
0000
0010
0000
0010
0000
1000
0010
0100
0000
,
0001
1000
0100
0010
0001
0010
0100
1000
,
0002
0000
1003
0100
0000
0000
0010
0000
0002
0000
1003
0100
0000
0000
0010
0000
,
0200
0000
1300
0001
0000
0000
1000
0000
0020
0000
0130
0001
0000
0000
1000
0000
,
0200
0000
0310
0001
0000
0000
1000
0000
0020
0000
0130
0001
0000
0000
1000
0000
,
0002
0000
0013
0100
0000
0000
1000
0000
0002
0000
1003
0010
0000
0000
1000
0000
,
0001
0010
0001
0010
0100
1000
0400
0000
,
1300
0001
1000
0001
0100
0010
0400
0000
,
0301
1000
0001
1000
0100
0010
0100
0010
,
0001
0010
0001
0010
0100
1000
0400
0000
,
4300
0004
0000
0000
0000
0000
3003
0000
0004
0400
0000
0000
0000
0000
0303
0000
,
0400
0040
0000
0000
0000
0000
0000
0000
0330
0000
0000
0000
0000
0000
0000
0000
,
0100
0001
1000
0001
0010
0100
1000
0001
,
2000
0000
3010
0100
0004
0000
0000
0000
,
1003
0010
1000
0001
0010
0100
1000
0001
,
0100
0010
1000
0001
0020
0000
0000
0000
,
0031
1000
0100
0010
0100
1000
0004
0000
,
0013
0000
0000
0010
0000
0000
0100
0000
4000
0000
0000
0000
0000
0000
3000
0000
,
0002
0203
0320
2030
,
3001
0000
0010
0100
1000
0000
0001
0000
0200
0000
0000
0000
0300
0000
0000
0000
,
0010
1000
0010
0000
0200
0000
0302
0000
,
1003
0100
0010
0100
2000
0000
3000
0000
,
0002
0203
0320
1030
,
0001
0000
1000
0100
0010
0000
0001
0000
1000
0000
0000
0000
0001
0000
0010
0000
,
0001
1000
0000
0001
0200
0000
0320
0000
,
2030
0000
3000
0002
,
0203
0000
0000
0010
0000
0000
0301
0000
0002
0000
0000
0000
0003
0000
1000
0000
0001
0000
0010
0000
0100
0000
0010
0000
0001
0000
0000
0000
1000
0000
0010
0000
,
2000
0000
0000
3002
0000
0000
0013
0000
0200
0000
0000
0000
0300
0000
1000
0000
0001
0000
0100
0000
0010
0000
0100
0000
0001
0000
0000
0000
1000
0000
0100
0000
,
0020
0000
0000
0130
0000
0000
1000
0000
0002
0000
0000
0000
0000
0000
1003
0000
0100
0000
0010
0000
0001
0000
0010
0000
0100
0000
0000
0000
1000
0000
0001
0000
,
2000
3020
0230
0302
1003
0100
0010
0100
,
4000
0000
0000
0000
3002
0000
0000
0000
2003
0000
0000
0100
0000
0000
3001
0000
,
0002
0000
0003
1000
0010
0100
0001
0100
,
0010
0000
0000
0000
1000
0000
0001
0000
0020
0000
0000
0130
1000
0000
0001
0000
,
2000
0000
3000
0001
0100
0010
1000
0010
,
0100
0000
0000
0000
0010
0000
1000
0000
0002
0000
0000
0013
0000
0000
0100
0000
,
2000
0000
3000
0001
0010
0100
0010
0001
,
1000
0000
0010
0100
0002
0000
2003
0000
,
3020
0000
0000
0130
0002
0000
0000
0000
1003
0000
0010
0000
0100
0000
0010
0000
,
2000
0000
3002
0000
0013
0100
1000
0001
,
1000
0001
0100
0001
0100
0001
1000
0100
,
2000
0000
3000
0000
0001
0100
0010
1000
,
0010
1000
0001
0010
0001
0010
0100
1000
,
0200
0000
0300
0000
0010
0001
1000
0100
,
1000
0100
1000
0001
1000
0001
0010
0100
,
0020
0000
0030
0000
0001
1000
0010
0100
,
0010
1000
0001
0010
0100
1000
0001
0100
,
0020
0000
1030
0001
0010
0100
1000
0001
,
1000
0001
1000
0010
1000
0010
0100
0001
,
0200
0000
0300
0000
0010
1000
0001
0010
,
0001
0010
0100
1000
0100
1000
0001
1000
,
0002
0000
0003
0000
1000
0010
0100
0001
,
0100
0001
1000
0100
1000
0100
0010
0001
,
0020
0000
0030
0000
0001
0010
0100
1000
,
0100
0000
0010
0000
0001
0000
1000
0000
0001
0000
0000
0001
0000
0000
1000
0000
,
0200
0000
0000
0000
1300
0000
0100
0010
0001
0000
0000
0001
0000
0000
1000
0000
,
2002
3003
0000
0000
;

//---------------dance-single - Ace Of Hearts (2014)----------------
#NOTES:
     dance-single:
     Ace Of Hearts (2014):
     Challenge:
     11:
     1.000,0.630,0.591,1.000,0.626: // measure 1
0000
0000
0000
0000
,  // measure 2
0000
0000
0000
0000
,  // measure 3
1001
0000
0000
0011
0000
0000
0010
0000
0110
0000
0000
1100
0000
0000
1000
0000
,  // measure 4
1001
0000
0000
0101
0000
0000
0100
0000
0220
0000
0300
0000
2030
0000
0000
3000
,  // measure 5
1001
0000
0000
0011
0000
0000
0010
0000
0110
0000
0000
1100
0000
0000
1000
0000
,  // measure 6
1002
0000
0000
0000
0203
0000
0000
0000
0320
0000
0000
0000
1030
0001
0100
0001
,  // measure 7
2000
0000
3002
0000
1003
0100
0010
0100
2000
0000
3002
0000
1003
0010
0100
0010
,  // measure 8
2000
0000
0000
0000
0000
0000
3002
0000
0000
0000
0000
0000
0013
0000
0000
0100
0000
0000
1000
0000
0000
0100
0000
0000
0020
0000
0000
0000
0000
0000
0031
0000
0010
0000
0001
0000
0020
0000
0000
0000
0000
0000
0230
0000
0000
0000
0000
0000
,  // measure 9
2300
0000
3002
0000
0103
0010
1000
0010
0200
0000
0302
0000
1003
0001
0010
0001
,  // measure 10
2000
0000
3020
0000
0130
0000
0001
0000
1000
0100
0001
0100
1000
0000
0001
0000
,  // measure 11
2000
0000
3200
0000
0310
0100
1000
0100
0020
0000
0032
0000
0013
0001
1000
0001
,  // measure 12
0020
0000
0000
0000
0000
0000
0230
0000
0000
0000
0000
0000
1300
0000
0000
0001
0000
0000
0100
0000
0000
0001
0000
0000
2000
0000
0000
0000
0000
0000
3010
0000
0100
0000
0010
0000
0200
0000
0000
0000
0000
0000
0302
0000
0000
0000
0000
0000
,  // measure 13
2003
0000
3100
0010
0002
0000
1003
0100
0020
0000
0130
0010
0001
1000
0001
1000
,  // measure 14
0020
0000
0000
0000
0000
0000
0130
0000
0001
0000
0100
0000
0002
0000
0000
0000
0000
0000
2003
0000
0000
0000
0000
0000
3200
0000
0000
0000
0000
0000
0320
0000
0000
0000
0000
0000
0031
0000
0000
1000
0000
0000
0001
0000
0000
1000
0000
0000
,  // measure 15
0020
0000
0230
0000
0301
0100
0010
0100
0002
0000
2003
0000
3001
0010
0100
0010
,  // measure 16
0002
0000
0000
0000
0000
0000
2003
0000
0000
0000
0000
0000
3001
0000
0000
1000
0000
0000
0010
0000
0000
1000
0000
0000
0002
0000
0000
0000
0000
0000
0013
0000
0100
0000
0010
0000
0200
0000
0000
0000
0000
0000
2300
0000
0000
0000
0000
0000
,  // measure 17
3002
0000
0203
0000
0310
1000
0001
1000
0020
0000
0230
0000
0301
1000
0100
1000
,  // measure 18
0002
0000
0023
0000
0230
0000
2300
0000
3001
0010
1000
0010
0001
0000
2000
0000
,  // measure 19
3002
0000
0203
0000
0310
1000
0001
1000
0020
0000
0230
0000
0301
1000
0100
1000
,  // measure 20
0002
0000
0000
0000
0000
0000
0203
0000
0000
0000
0000
0000
0310
0000
0000
0100
0000
0000
0001
0000
0000
0100
0000
0000
0020
0000
0000
0000
0000
0000
1030
0000
0001
0000
1000
0000
0002
0000
0000
0000
0000
0000
0023
0000
0000
0000
0000
0000
,  // measure 21
0130
1000
0100
1000
0001
0100
0001
0100
0020
0000
2030
0000
3002
0000
0023
0030
,  // measure 22
0110
0000
0000
2100
0000
0000
3001
0000
0202
0000
0000
0000
0010
0000
0303
0000
,  // measure 23
1001
0000
2000
3100
0010
0001
1000
0010
,  // measure 24
0110
0000
0000
0000
0200
0000
0000
0301
1000
0000
0100
0000
0010
0000
0100
0000
,  // measure 25
1100
0000
0000
0000
2000
0000
0000
3001
0200
0000
0310
0000
1000
0000
0001
0000
,  // measure 26
0010
0000
0110
0100
2200
0000
0001
3300
,  // measure 27
1001
0000
0000
0001
0200
0000
0300
0100
0020
0000
1030
0000
0001
0000
0010
0000
,  // measure 28
0110
0000
0000
0100
2000
0000
3001
0000
0200
0000
0310
0000
1000
0000
0001
0000
,  // measure 29
0011
0000
0000
0010
0200
0000
1300
0000
0001
0000
1000
0000
0010
0000
0100
0000
,  // measure 30
0202
0010
1000
0303
,  // measure 31
0002
0000
0000
0000
2003
0000
0000
0000
3200
0000
0000
0000
0320
0000
0000
0030
,  // measure 32
0012
0000
0013
0100
2000
0000
3001
0000
0202
0000
0000
0000
0303
0000
0000
0000
,  // measure 33
0110
0000
0010
0000
1000
0000
0000
0000
1200
0000
0000
0000
0320
0000
0000
0030
,  // measure 34
0012
0000
1003
0010
0220
0000
0330
0000
,  // measure 35
0102
0000
0000
0000
2003
0000
0000
3000
2100
0000
0000
0000
3002
0000
0000
0003
,  // measure 36
2001
0000
3010
0100
0002
0000
1003
0000
1100
0000
0000
0000
0100
0000
0010
0000
,  // measure 37
0011
0001
0000
0001
2001
0000
3010
0000
,  // measure 38
0210
0000
0001
0000
0310
0000
0020
0000
0000
0000
0030
0000
0200
0000
0000
0300
,  // measure 39
0102
0000
0000
1000
0000
0000
0100
0000
0200
0000
0000
0000
0303
0000
0100
0000
,  // measure 40
0001
0100
1000
0100
0101
0000
0001
1000
,  // measure 41
0100
0000
0000
0010
0200
0000
1300
0000
0002
0000
0000
0000
0003
0000
0010
0000
,  // measure 42
1000
0010
0001
1000
1100
0000
0100
0010
,  // measure 43
0001
0000
0000
1000
0010
0000
0100
0000
0002
0000
0000
0000
0003
0000
1000
0000
,  // measure 44
0001
0100
1000
0100
0101
0000
0001
1000
,  // measure 45
2200
3300
0220
0330
0022
0033
2002
3003
,  // measure 46
1020
0130
0120
1030
1001
0000
0001
0010
,  // measure 47
0210
0000
0000
1000
0000
0000
0010
0000
0020
0000
0000
0000
0330
0000
0100
0000
,  // measure 48
1000
0010
0001
0010
1010
0000
1000
0001
,  // measure 49
0020
0000
0030
0100
2000
0000
3000
0001
,  // measure 50
1000
0100
0001
0100
1100
0000
1000
0001
,  // measure 51
0200
0000
0000
0310
0000
0000
1000
0000
1002
0000
0000
0000
0003
0000
1000
0000
,  // measure 52
0001
0010
1000
0010
0012
0000
1003
0010
,  // measure 53
0220
0330
0202
0303
2002
3003
2200
3300
,  // measure 54
1002
0013
0012
1003
2020
0000
0000
3030
,  // measure 55
2000
0000
3002
0000
1003
0100
0010
0100
2000
0000
3002
0000
1003
0010
0100
0010
,  // measure 56
2000
0000
0000
0000
0000
0000
3002
0000
0000
0000
0000
0000
0013
0000
0000
0100
0000
0000
1000
0000
0000
0100
0000
0000
0020
0000
0000
0000
0000
0000
0031
0000
0010
0000
0001
0000
0020
0000
0000
0000
0000
0000
0230
0000
0000
0000
0000
0000
,  // measure 57
2300
0000
3002
0000
0103
0010
1000
0010
0200
0000
0302
0000
1003
0001
0100
0001
,  // measure 58
2000
0000
3200
0000
0320
0000
0032
0000
1003
0100
0001
0100
2000
0000
3002
0000
,  // measure 59
0203
0000
0320
0000
0130
0001
1000
0001
0200
0000
0320
0000
1030
0001
0010
0001
,  // measure 60
2000
0000
0000
0000
0000
0000
3200
0000
0000
0000
0000
0000
0310
0000
0000
0100
0000
0000
1000
0000
0000
0100
0000
0000
0020
0000
0000
0000
0000
0000
0031
0000
1000
0000
0001
0000
2000
0000
0000
0000
0000
0000
3020
0000
0000
0000
0000
0000
,  // measure 61
0130
0001
0100
0001
1000
0010
1000
0010
0100
0001
0100
0001
2000
0000
3002
0003
,  // measure 62
0011
0000
0000
0210
0000
0000
1300
0000
2002
0000
0000
0000
0010
0000
3003
0000
,  // measure 63
0011
0000
0000
0010
0200
0000
0300
0100
2000
0000
3100
0000
0001
0000
0100
0000
,  // measure 64
1100
0000
0000
1000
0002
0000
0003
0001
0200
0000
0310
0000
0001
0000
0010
0000
,  // measure 65
1010
0000
0000
0000
2000
0000
0000
3001
0010
0000
1000
0000
0010
0000
0001
0000
,  // measure 66
2002
3003
1010
0010
0220
0000
1000
0330
,  // measure 67
0101
0000
0000
0000
0002
0000
0000
1003
0100
0000
0001
0000
0100
0000
1000
0000
,  // measure 68
1002
0000
0000
0000
2003
0000
0000
3100
0010
0000
1000
0000
0010
0000
0001
0000
,  // measure 69
2001
0000
0000
0000
3200
0000
0000
0310
1000
0000
0010
0000
0001
0000
1000
0000
,  // measure 70
2200
0000
0001
0000
0010
0000
0001
3300
,  // measure 71
1002
0000
0000
0000
2003
0000
0000
0000
3002
0000
0000
0000
0203
0000
0000
0300
,  // measure 72
0120
0000
1030
0010
0100
0000
0001
0000
2002
0000
0000
0000
3003
0000
0000
0000
,  // measure 73
1100
0100
0010
0001
0012
0000
1003
0000
,  // measure 74
1001
1000
1010
0010
0210
0000
0300
0000
,  // measure 75
0102
0000
1003
0000
1200
0000
0320
0031
,  // measure 76
2001
0000
3100
0010
0001
0000
1000
0000
2020
0000
3000
0000
0130
0000
0001
0000
,  // measure 77
1001
0000
1000
0000
0000
0000
0100
0000
0120
0000
0000
0000
0032
0000
0000
0003
,  // measure 78
2001
0000
0010
0000
3001
0000
0002
0000
0000
0000
0003
0000
2000
0000
0000
3000
,  // measure 79
1200
0000
0000
0010
0000
0000
1000
0000
2000
0000
0000
0000
3300
0000
1000
0000
,  // measure 80
0001
0010
1000
0010
0011
0000
0001
1000
,  // measure 81
0010
0000
0000
0200
0000
0000
0301
0000
2000
0000
0000
0000
3000
0000
0001
0000
,  // measure 82
1000
0100
0001
0100
1100
0000
1000
0001
,  // measure 83
0101
0000
0000
0100
0010
0000
1000
0000
0002
0000
0000
0000
0003
0000
0010
0000
,  // measure 84
0001
0100
1000
0100
0101
0000
0001
1000
,  // measure 85
2020
3030
0220
0330
0202
0303
2002
3003
,  // measure 86
2010
3001
0012
1003
1010
0000
0010
0100
,  // measure 87
0102
0000
0000
1000
0000
0000
0010
0000
0020
0000
0000
0000
0033
0000
0001
0000
,  // measure 88
0100
1000
0100
0001
1001
0000
1000
0100
,  // measure 89
0020
0000
0030
0100
2000
0000
3000
0001
,  // measure 90
1000
0100
0001
0100
1100
0000
1000
0001
,  // measure 91
0101
0000
0000
0200
0000
0000
0310
0000
2000
0000
0000
0000
3000
0000
0001
0000
,  // measure 92
1000
0010
0001
0010
2010
0000
3001
0010
,  // measure 93
0220
0330
2200
3300
2002
3003
0022
0033
,  // measure 94
2100
0000
0000
0000
3001
0000
0000
0000
0102
0000
0000
0000
1003
0000
0000
0000
2020
0000
0000
0000
0000
0000
0000
0000
0000
0000
0000
0000
3030
0000
0000
1000
,  // measure 95
0001
0000
0000
0000
0010
0000
0000
0000
0010
0000
0000
0000
0010
0000
0000
0000
0100
0000
0000
0000
0100
0000
0000
0000
0010
0000
0100
0000
1000
0000
0000
1000
,  // measure 96
0001
0000
0001
0000
0001
0000
0001
0000
1000
0000
1000
0000
0010
0100
0001
0000
,  // measure 97
1000
0000
0000
0000
0010
0000
0000
0100
0010
0000
0000
0000
0010
0000
0000
0000
1000
0000
0000
0000
1000
0000
0000
0000
0001
0000
0010
0000
0100
0000
0000
0000
,  // measure 98
1000
0000
0001
0010
0100
1000
0100
0010
0001
0010
0100
1000
0001
0000
1000
0010
,  // measure 99
1000
0010
1000
0001
0000
0001
0010
0100
0010
0001
0010
0100
0000
0100
1000
0001
,  // measure 100
0100
0001
1000
0010
0000
0010
0100
0001
0100
0010
0100
0001
0000
0001
1000
0100
,  // measure 101
0010
0100
1000
0001
0000
0001
0010
0100
1000
0100
0010
0001
0000
0001
1000
0100
,  // measure 102
0010
0100
1000
0100
0000
0100
1000
0001
0100
0001
1000
0001
0000
0001
0010
0100
,  // measure 103
1000
0000
0000
0100
0000
0000
0010
0000
0000
0001
0000
0000
1000
0000
0000
0100
0000
0000
0010
0000
0000
0001
0000
0000
1000
0000
0000
0010
0000
0000
1000
0000
0000
0001
0000
0000
1000
0000
0100
0000
1000
0000
0100
0000
0000
0010
0000
0000
,  // measure 104
0100
0000
0000
1000
0000
0000
0001
0000
0010
0000
0001
0000
0010
0000
0000
0100
0000
0000
1000
0000
0000
0001
0000
0000
0100
0000
0000
0010
0000
0000
1000
0000
0000
0001
0000
0000
1000
0000
0100
0000
1000
0000
0100
0000
0000
0010
0000
0000
,  // measure 105
0001
0000
0000
0010
0000
0000
0100
0000
1000
0000
0100
0000
1000
0000
0000
0001
0000
0000
0100
0000
0000
0010
0000
0000
1000
0000
0000
0001
0000
0000
0010
0000
0000
0100
0000
0000
1000
0000
0000
0001
0000
0000
0010
0000
0000
0100
0000
0000
,  // measure 106
2000
0000
0000
0000
0000
0000
3001
0000
0000
0100
0000
0000
0010
0000
0000
1000
0000
0000
0010
0000
0000
0100
0000
0000
0001
0000
0000
1000
0000
0000
0001
0000
0000
1000
0000
0000
0001
0000
0010
0000
0001
0000
0010
0000
0000
0100
0000
0000
,  // measure 107
4000
0400
0000
0000
0000
0000
0000
0000
0000
0000
0000
3300
4000
0004
0000
0000
0000
0000
0000
0000
0000
0000
0000
3003
,  // measure 108
0400
0004
0000
0000
0000
0000
0000
0000
0000
0000
0000
0000
0303
0000
0000
0000
0000
0000
0000
0000
0000
0000
0000
0000
,  // measure 109
0100
0000
0000
0010
0000
0000
1000
0000
0000
0010
0000
0000
0100
0000
0000
0001
0000
0000
0100
0000
0000
0001
0000
0000
2000
0000
0000
0000
0000
0000
3001
0000
0010
0000
0001
0000
0010
0000
0000
0100
0000
0000
1000
0000
0000
0001
0000
0000
,  // measure 110
2000
0000
3020
0130
0004
0000
0000
0000
,  // measure 111
2003
0000
3001
0010
0100
0010
0002
0000
1003
0100
0010
0100
2000
0000
3001
1000
,  // measure 112
0001
0010
0001
0010
0100
1000
0100
1000
0002
0000
0000
0000
0000
0000
0000
0000
,  // measure 113
2003
0000
0000
0000
0000
0000
3001
0000
0000
0100
0000
0000
0010
0000
0000
1000
0000
0000
0010
0000
0000
0100
0000
0000
0001
0000
0000
1000
0000
0000
0001
0000
0000
1000
0000
0000
0100
0000
0010
0000
0100
0000
0020
0000
0000
0030
0000
0000
,  // measure 114
0022
0000
0033
2002
0000
3003
1100
0000
0240
0000
0000
0000
0000
0000
0330
0000
,  // measure 115
0022
0033
2002
3003
2020
3030
0202
0000
,  // measure 116
0010
0000
1000
0010
1000
0000
0010
0000
2000
0000
0000
0000
3000
0000
0303
0000
,  // measure 117
0001
1000
0100
0000
0120
0000
0031
0000
,  // measure 118
1001
1000
1010
0010
0220
0000
0330
0000
,  // measure 119
0102
0000
0000
0000
0023
0000
0000
0030
0210
0000
0000
0000
2000
0000
0000
0000
,  // measure 120
0010
0000
0001
0010
0001
0000
0010
0000
0001
0000
3300
0000
1000
0000
0001
0000
,  // measure 121
0101
0100
0000
0010
2010
0000
3001
0000
,  // measure 122
0201
0000
0010
0000
0301
0000
0002
0000
0000
0000
0003
0000
2000
0000
0000
3000
,  // measure 123
1002
0000
0000
0010
0000
0000
1000
0000
2000
0000
0000
0000
3003
0000
1000
0000
0001
0000
0010
0000
1000
0000
0010
0000
0001
0000
0000
0000
0001
0000
1000
0000
,  // measure 124
0010
0000
0000
0200
0000
0000
0301
0000
2000
0000
0000
0000
3000
0000
0001
0000
1000
0000
0100
0000
0001
0000
0100
0000
1000
0000
0000
0000
1000
0000
0001
0000
,  // measure 125
0100
0000
0000
0020
0000
0000
1030
0000
0002
0000
0000
0000
0000
0000
1003
0000
0001
0000
0100
0000
1000
0000
0100
0000
0001
0000
0000
0000
0001
0000
1000
0000
,  // measure 126
0200
0000
0320
0000
0230
0000
2300
3000
1002
0000
0013
0000
0210
0000
1300
0000
,  // measure 127
0001
0010
0001
0010
0100
1000
0100
1000
0002
0000
0000
0100
0000
0000
0010
0000
,  // measure 128
0020
0000
0033
0010
0001
0100
1000
0100
,  // measure 129
0101
0000
0000
0000
0001
0000
1000
0000
0200
0000
0000
0310
0001
0000
1000
0000
,  // measure 130
0020
0000
0030
1000
0001
0010
1000
0010
,  // measure 131
0011
0000
0000
0000
0001
0000
1000
0000
1020
0000
0000
0130
0000
0000
0001
0000
,  // measure 132
2000
0000
3000
0100
0010
1000
0010
0001
,  // measure 133
1001
0000
1000
0010
0220
0330
0202
0303
,  // measure 134
2002
0000
0003
3010
0200
0000
0300
0000
0102
0000
1003
0000
1200
0000
0310
0000
,  // measure 135
0022
0000
0030
0000
2000
0000
0003
0000
3020
0000
0230
0000
0301
0100
0010
0100
,  // measure 136
0002
0000
2003
0000
3001
0010
0100
0010
0002
0000
2003
0000
3010
0100
0001
0100
,  // measure 137
0020
0000
0000
0000
0000
0000
1030
0000
0001
0000
1000
0000
0002
0000
0000
0000
0000
0000
0023
0000
0000
0000
0000
0000
0230
0000
0000
0000
0000
0000
2300
0000
0000
0000
0000
0000
3100
0000
0000
0010
0000
0000
0001
0000
0000
0010
0000
0000
,  // measure 138
0200
0000
2300
0000
3001
1000
0100
1000
0002
0000
0203
0000
0320
0000
2030
0000
,  // measure 139
3001
0100
1000
0100
0002
0000
2003
0000
3002
0000
0023
0000
0130
1000
0001
1000
,  // measure 140
0200
0000
0320
0000
0031
0010
0100
0010
0002
0000
2003
0000
3001
1000
0010
1000
,  // measure 141
0002
0000
0000
0000
0000
0000
0013
0000
0100
0000
0010
0000
0200
0000
0000
0000
0000
0000
2300
0000
0000
0000
0000
0000
3002
0000
0000
0000
0000
0000
1003
0000
0000
0100
0000
0000
0020
0000
0000
0000
0000
0000
0130
0000
0000
0010
0000
0000
,  // measure 142
0002
0000
0000
0000
0000
0000
1003
0000
0000
0100
0000
0000
0010
0000
0000
0001
0000
0000
0010
0000
0000
0100
0000
0000
2000
0000
0000
0000
0000
0000
3001
0000
0010
0000
0001
0000
0020
0000
0000
0000
0000
0000
0230
0000
0000
0000
0000
0000
,  // measure 143
2300
0000
3002
0000
0203
0000
0320
0000
2030
0000
3002
0000
1003
0010
0100
0010
,  // measure 144
2000
0000
3002
0000
0013
0100
1000
0100
0020
0000
0032
0000
1003
0001
0100
0001
,  // measure 145
2000
0000
0000
0000
0000
0000
3001
0000
0100
0000
0001
0000
0200
0000
0000
0000
0000
0000
0320
0000
0000
0000
0000
0000
2030
0000
0000
0000
0000
0000
3002
0000
0000
0000
0000
0000
1003
0000
0000
0001
0000
0000
0010
0000
0000
0001
0000
0000
,  // measure 146
2000
0000
3020
0000
0130
0010
1000
0010
0200
0000
0302
0000
2003
0000
3020
0000
,  // measure 147
1030
0010
0001
0010
2000
0000
3002
0000
2003
0000
3200
0000
0310
0001
1000
0001
,  // measure 148
0020
0000
0230
0000
1300
0001
0100
0001
2000
0000
3200
0000
0310
0001
1000
0001
,  // measure 149
0020
0000
0000
0000
0000
0000
0130
0000
1000
0000
0100
0000
2000
0000
0000
0000
0000
0000
3002
0000
0000
0000
0000
0000
1003
0000
0000
0100
0000
0000
0010
0000
0000
0001
0000
0000
0010
0000
0000
0100
0000
0000
1000
0000
0000
0001
0000
0000
,  // measure 150
2000
0000
3020
0000
0230
0000
0302
0003
1001
0000
0000
2020
0000
3030
0110
0000
,  // measure 151
0202
0000
0000
0000
0010
0303
0001
0100
0010
0000
0000
2020
0000
3030
0110
0000
,  // measure 152
2002
3003
0000
0000
;

//---------------dance-single - Ace Of Hearts (2014)----------------
#NOTES:
     dance-single:
     Ace Of Hearts (2014):
     Medium:
     7:
     0.530,0.330,0.000,0.928,0.065:
0000
0000
0000
0000
,
0000
0000
0000
0000
,
0001
0000
0000
0002
0000
0000
0003
0000
0010
0000
0000
0020
0000
0000
0030
0000
,
0100
0000
0000
0200
0000
0000
0300
0000
2000
0000
0000
0000
3000
0000
0000
0000
,
0001
0000
0000
0002
0000
0000
0003
0000
1000
0000
0000
2000
0000
0000
3000
0000
,
0020
0230
0302
2003
,
3001
0000
1000
0100
1000
0000
0001
1000
,
0001
0000
0010
0001
0020
0000
0030
0000
,
0001
0000
0010
0100
0010
0000
0001
1000
,
0001
0000
1000
0010
2000
0000
3000
0000
,
0010
0000
0100
0010
0100
0000
0001
0100
,
0001
0000
0100
0010
0200
0000
0300
0000
,
0010
1000
0001
1000
,
0001
0010
0001
0000
2000
0000
3002
0000
,
0013
0000
0100
0010
0100
0000
1000
0100
,
1000
0000
0001
0100
0002
0000
0003
0000
,
1000
0000
0010
0100
0010
0000
1000
0010
,
1000
0000
0001
0100
0002
0000
0003
0000
,
1000
0000
0001
0010
0001
0000
1000
0001
,
1000
0000
0001
0100
0002
0000
0003
0000
,
0100
0010
1000
0001
,
0010
0000
0000
0010
0000
0000
0100
0000
2000
0000
0000
0000
3000
0000
0000
0000
,
0001
0000
2000
0000
3010
1000
0010
0000
,
0100
0000
0002
0000
1003
0100
1000
0000
,
0001
0000
0020
0000
0130
0010
0100
0000
,
1000
0002
1003
0010
,
0100
0000
0002
0000
1003
0001
1000
0000
,
0100
0000
0020
0000
0130
1000
0100
0000
,
0010
0000
0002
0000
0013
0100
0010
0000
,
0002
2003
3200
0300
,
0020
0230
2300
3002
,
1003
0100
1000
0000
0002
0000
0003
0000
,
1000
0001
1000
0000
0200
0000
0320
0000
,
0032
0000
1003
0010
2000
0000
3000
0000
,
0002
2003
3200
0320
,
0031
0010
0001
0000
1000
0000
0010
0000
,
1000
0001
0000
0001
2000
0000
3020
0000
,
0230
0000
0300
0002
,
2003
0000
0000
3200
0000
0000
0000
0000
0320
0000
0000
0000
0030
0000
0001
0000
,
0020
0000
0230
0000
1300
0000
0001
1000
,
0002
0000
1003
0000
0200
0000
0300
0010
,
0002
0000
2003
0000
3010
0000
0100
0010
,
0200
0000
0302
0000
2003
0000
3000
0001
,
0020
0000
0230
0000
1300
0000
0001
0100
,
0002
2003
3020
0230
,
0301
0100
0002
0000
1003
0000
0200
0000
,
0320
0000
0000
0032
0000
0000
0000
0000
2003
0000
0000
0000
3000
0000
0001
0000
,
0200
0000
0320
0000
1030
0000
0001
0010
,
0002
0000
0003
1000
0200
0000
0300
0010
,
0002
0000
0023
0000
0130
0000
1000
0001
,
2000
0000
0000
3020
0000
0000
0000
0000
0230
0000
0000
0000
0300
0000
0001
0000
,
0200
0000
0320
0000
1030
0000
0001
1000
,
0002
0023
0230
2300
,
3001
1000
0002
0000
0023
0000
0000
0000
,
0130
0000
1000
0001
1000
0000
0010
1000
,
0010
0000
1000
0001
2000
0000
3000
0000
,
0001
0000
0010
0100
0010
0000
0100
1000
,
0100
0000
0010
0001
0020
0000
0030
0000
,
0100
0000
1000
0001
1000
0000
0010
1000
,
0010
0000
0100
0001
0200
0000
0300
0000
,
0010
0100
0010
0000
1000
0000
0001
0000
,
0010
0000
0000
0010
0000
0000
0001
0000
2000
0000
0000
0000
3000
0000
0000
0000
,
0010
0000
2000
0000
3001
0010
0001
0000
,
0010
0000
0200
0000
1300
0001
1000
0000
,
0010
0000
2000
0000
3010
0100
0010
0000
,
2000
3002
0023
0130
,
1000
0000
0002
0000
1003
0010
1000
0000
,
0002
0000
0023
0000
0130
1000
0100
0000
,
0020
0000
0032
0000
1003
0010
1000
0000
,
0002
0023
0230
2300
,
3002
0203
0320
2030
,
3001
0010
0001
0000
2000
0000
3000
0000
,
0010
1000
0010
0000
0200
0000
0302
0000
,
1003
0100
2000
0000
3002
0000
0003
0000
,
0020
0230
2300
3002
,
1003
0010
1000
0000
0001
0000
1000
0000
,
0010
0100
0000
0100
0020
0000
2030
0000
,
3002
0000
0003
0020
,
0230
0000
0000
2300
0000
0000
0000
0000
3002
0000
0000
0000
0003
0000
1000
0000
,
0020
0000
0230
0000
0301
0000
1000
0001
,
2000
0000
3200
0000
0320
0000
0030
0001
,
0020
0000
0230
0000
1300
0000
0001
0100
,
0002
0000
0000
2003
0000
0000
0000
0000
3200
0000
0000
0000
0300
0000
0010
0000
,
0002
0000
2003
0000
3010
0000
0100
0010
,
0200
0302
2003
3200
,
0310
0001
0010
0000
0100
0000
2000
0000
,
3002
0000
0000
0203
0000
0000
0000
0000
0320
0000
0000
0000
0030
0000
1000
0000
,
0002
0000
0203
0000
0310
0000
1000
0010
,
2000
0000
3002
0000
0023
0000
0030
0100
,
2000
0000
3002
0000
0103
0000
0010
0100
,
0020
0000
2030
0000
3002
0000
0003
0010
,
0200
0000
2300
0000
3002
0000
0013
0100
,
0020
0032
2003
3002
,
0103
0010
0200
0000
0320
0000
0000
0000
,
1030
0010
1000
0000
0001
0010
0001
0000
,
1000
0100
1000
0000
0001
0100
0001
0000
,
1000
0001
1000
0000
0001
1000
0001
0000
,
0010
0100
0010
0000
0100
0010
0100
0000
,
1000
0000
0000
1000
0000
0000
0000
0000
0001
0000
0000
0001
0000
0000
0000
0000
,
0010
0000
0000
0010
0000
0000
0000
0000
0100
0000
0000
0100
0000
0000
0000
0000
,
1000
0000
0000
1000
0000
0000
0000
0000
0001
0000
0000
0001
0000
0000
0000
0000
,
1000
0000
0000
1000
0000
0000
0000
0000
0010
0000
0000
0010
0000
0000
0000
0000
,
1000
0010
1000
0000
0001
0010
0004
0000
,
1003
0001
1000
0000
0010
1000
0040
0000
,
1030
0001
1000
0000
0001
0010
0001
0000
,
1000
0100
1000
0000
0001
0010
0004
0000
,
0043
0000
0430
0000
,
4300
0000
3000
0000
,
0001
0100
0001
0000
1000
0100
1000
0000
,
0002
2003
3400
0000
,
0310
0001
0020
0000
0031
1000
0002
0000
,
1003
0010
2000
0000
3002
0000
0000
0000
,
1003
0100
2000
0000
3001
0010
0004
0000
,
1003
0000
0000
1000
0000
0000
0010
0000
0200
0000
0000
0000
0300
0000
0000
0000
,
0020
2030
3002
2003
,
3001
0010
0100
0000
2000
0000
3000
0000
,
0001
1000
0001
0000
0200
0000
0320
0000
,
1030
0001
1000
0000
0200
0000
0300
0000
,
0020
0230
2300
3001
,
1000
0100
0010
0000
0001
0000
2000
0000
,
3001
0010
0000
0010
0002
0000
2003
0000
,
3200
0000
0300
0020
,
0032
0000
0000
2003
0000
0000
0000
0000
3200
0000
0000
0000
0300
0000
0010
0000
0002
0000
0000
0000
2003
0000
0000
0000
3010
0000
0000
0000
0100
0000
0010
0000
,
0200
0000
0302
0000
2003
0000
3000
0100
0020
0000
0230
0000
1300
0000
0001
0010
,
0002
0000
0000
2003
0000
0000
0000
0000
3020
0000
0000
0000
0030
0000
1000
0000
0002
0000
0000
0000
0023
0000
0000
0000
0130
0000
0000
0000
1000
0000
0100
0000
,
2000
3002
0203
0320
1030
0001
2000
0000
,
3100
0000
0000
0000
0020
0000
0000
0000
0032
0000
0000
2003
0000
0000
3010
0000
,
0020
0000
0030
1000
0020
0000
1030
0001
,
1000
0000
0001
0010
0002
0000
1003
0010
,
2000
0000
3000
0001
0020
0000
0031
1000
,
0001
0000
1000
0100
2000
0000
3001
0100
,
0002
0000
0003
1000
0200
0000
0310
0001
,
0010
0000
0100
0010
0200
0000
2300
0000
,
3002
0000
2003
0000
3100
0010
0200
0000
,
0320
0000
0000
0000
0031
0000
1000
0100
,
1000
0000
0001
1000
0001
0000
1000
0010
,
2000
0000
3000
0000
0010
0000
0100
0010
,
0100
0000
0001
0100
0001
0000
1000
0100
,
2000
0000
3000
0000
0001
0000
0010
0100
,
0010
0000
0001
0010
0001
0000
0010
0100
,
0020
0000
0030
0000
0001
1000
0001
0000
,
0100
0010
1000
0001
,
0020
0000
0130
0000
1000
0000
0001
0100
,
0001
0000
1000
0010
1000
0000
0001
0100
,
0002
0000
0003
0000
1000
0000
0100
0010
,
0100
0000
1000
0100
1000
0000
0001
0010
,
0002
0000
0003
0000
1000
0000
0010
0100
,
0010
0000
1000
0001
1000
0000
0010
0100
,
0020
0000
0030
0000
1000
0001
1000
0000
,
0100
0000
0000
0000
0010
0000
0000
0000
0001
0000
0000
0001
0000
0000
1000
0000
,
0002
0000
0000
0000
0003
0000
0000
0000
0010
0000
0000
0010
0000
0000
0100
0000
,
0020
0030
0000
0000
;

//---------------dance-single - Ace Of Hearts (2014)----------------
#NOTES:
     dance-single:
     Ace Of Hearts (2014):
     Easy:
     4:
     0.216,0.180,0.000,0.190,0.000:
0000
0000
0000
0000
,
0000
0000
0000
0000
,
1000
1000
1000
0000
,
0001
0001
0001
0000
,
0010
0000
0010
0000
,
0020
0000
0030
0000
,
0001
0000
0001
0000
,
0001
0000
0002
0003
,
1000
0000
1000
0000
,
1000
0000
2000
3000
,
0100
0000
0100
0000
,
0100
0000
0200
0300
,
0010
0000
0010
0000
,
0020
0000
0030
0000
,
0100
0000
0100
0000
,
0100
0000
0200
0300
,
1000
0000
1000
0000
,
1000
0000
2000
3000
,
0001
0000
0001
0000
,
0001
0000
0002
0003
,
0100
0000
0100
0000
,
0010
0010
0010
0000
,
1000
0000
1000
0000
,
0001
0000
0001
0000
,
0010
0000
0010
0000
,
0100
0100
0100
0000
,
1000
0000
1000
0000
,
0001
0000
0001
0000
,
0100
0000
0100
0000
,
0010
0010
0010
0000
,
2000
0000
3002
0000
,
1000
1000
1003
0000
,
1000
0000
1000
0000
,
0100
0100
0100
0000
,
1000
0000
2000
0000
,
0001
0001
3001
0000
,
0001
0000
0001
0000
,
0002
0000
0003
0000
,
0010
0010
0010
0000
,
0200
0000
0300
0000
,
1000
0000
1000
0000
,
0001
0000
0001
0000
,
0100
0100
0100
0000
,
0020
0000
0030
0000
,
1000
0000
1000
0000
,
0001
0000
0001
0000
,
1000
1000
1000
0000
,
0002
0000
0003
0000
,
0010
0000
0010
0000
,
0100
0000
0100
0000
,
0010
0010
0010
0000
,
0002
0000
0003
0000
,
1000
0000
1000
0000
,
0010
0010
0020
0000
,
1030
0000
1000
0000
,
1000
0000
2000
3000
,
0010
0000
0010
0000
,
0010
0000
0020
0030
,
0100
0000
0100
0000
,
0100
0000
0200
0300
,
0001
0000
0001
0000
,
1000
1000
1000
0000
,
0001
0000
0001
0000
,
0010
0000
0010
0000
,
0100
0000
0100
0000
,
1000
1000
1000
0000
,
0001
0000
0001
0000
,
0100
0000
0100
0000
,
0010
0000
0010
0000
,
1000
1000
1000
0000
,
0010
0000
0020
0000
,
0100
0100
0130
0000
,
0100
0000
0100
0000
,
0200
0000
0300
0000
,
0100
0000
0200
0000
,
0010
0010
0310
0000
,
0010
0000
0010
0000
,
0020
0000
0030
0000
,
1000
1000
1000
0000
,
0002
0000
0003
0000
,
0010
0000
0010
0000
,
0100
0000
0100
0000
,
1000
1000
1000
0000
,
0002
0000
0003
0000
,
0100
0000
0100
0000
,
0010
0010
0010
0000
,
1000
1000
1000
0000
,
0002
0000
0003
0000
,
0010
0000
0010
0000
,
0100
0100
0100
0000
,
1000
0000
1000
0000
,
0001
0001
0001
0000
,
1000
0000
1000
0000
,
0010
0010
0020
0000
,
1030
1000
1000
0000
,
0001
0001
0001
0000
,
0100
0100
0100
0000
,
0010
0010
0010
0000
,
1000
0000
1000
0000
,
0001
0000
0001
0000
,
0010
0000
0010
0000
,
0100
0000
0100
0000
,
1000
1000
1000
0000
,
0001
0001
0001
0000
,
0100
0100
0100
0000
,
0010
0010
0010
0000
,
4000
0000
3004
0000
,
0403
0000
0300
0000
,
0001
0000
0001
0000
,
0002
0000
4003
0000
,
3100
0000
0100
0000
,
0100
0000
0200
0000
,
0310
0000
0010
0000
,
0010
0010
0010
0000
,
0001
0000
0002
0000
,
0100
0100
0103
0000
,
0100
0000
0100
0000
,
0200
0000
0300
0000
,
0010
0000
0020
0000
,
1000
1000
1030
0000
,
1000
0000
1000
0000
,
2000
0000
3000
0000
,
0001
0001
0001
0000
2000
0000
3000
0000
,
0100
0100
0010
0010
,
0001
0001
0001
0000
2000
0000
3000
0000
,
0010
0010
0100
0100
,
0100
0000
0001
0001
,
0002
0000
1003
1000
,
1000
0000
0010
0000
,
0020
0000
0130
0100
,
0100
0000
0001
0000
,
0002
0000
1003
1000
,
1000
0000
0100
0000
,
0100
0000
0010
0010
,
0020
0000
0031
0000
,
0001
0000
0001
0000
,
0002
0003
1000
0000
,
1000
0000
1000
0000
,
2000
3000
0010
0000
,
0010
0000
0010
0000
,
0020
0030
0100
0000
,
0100
0000
0200
0000
,
0300
0000
0001
0000
,
0001
0000
0001
0000
,
0002
0003
0100
0000
,
0100
0000
0100
0000
,
0200
0300
0010
0000
,
0010
0000
0010
0000
,
0020
0030
1000
0000
,
1000
0000
1000
1000
,
1000
0000
0010
0010
,
0020
0030
0000
0000
;

//---------------dance-single - Ace Of Hearts (2014)----------------
#NOTES:
     dance-single:
     Ace Of Hearts (2014):
     Beginner:
     1:
     0.108,0.120,0.000,0.115,0.000:
0000
0000
0000
0000
,
0000
0000
0000
0000
,
0002
0000
0003
0000
,
0002
0000
0003
0000
,
0020
0000
0030
0000
,
0020
0000
0030
0000
,
0100
0000
0000
0000
,
0100
0000
0000
0000
,
1000
0000
0000
0000
,
1000
0000
0000
0000
,
0001
0000
0000
0000
,
0001
0000
0000
0000
,
0010
0000
0000
0000
,
0010
0000
0000
0000
,
0100
0000
0000
0000
,
0100
0000
0000
0000
,
1000
0000
0000
0000
,
1000
0000
0000
0000
,
0001
0000
0000
0000
,
0001
0000
0000
0000
,
0010
0000
0000
0000
,
0020
0000
0030
0000
,
0001
0000
0000
0000
,
0001
0000
0000
0000
,
0001
0000
0000
0000
,
0002
0000
0003
0000
,
1000
0000
0000
0000
,
1000
0000
0000
0000
,
1000
0000
0000
0000
,
2000
0000
3000
0000
,
0010
0000
0010
0000
,
0010
0000
0000
0000
,
0100
0000
0000
0000
,
0200
0000
0300
0000
,
0001
0000
0001
0000
,
0002
0000
0003
0000
,
1000
0000
0000
0000
,
2000
0000
3000
0000
,
0010
0000
0000
0000
,
0010
0000
0000
0000
,
0010
0000
0000
0000
,
0020
0000
0030
0000
,
0100
0000
0000
0000
,
0100
0000
0000
0000
,
0100
0000
0000
0000
,
0200
0000
0300
0000
,
0001
0000
0000
0000
,
0001
0000
0000
0000
,
0001
0000
0000
0000
,
0002
0000
0003
0000
,
1000
0000
0000
0000
,
1000
0000
0000
0000
,
1000
0000
0000
0000
,
2000
0000
3000
0000
,
0010
0000
0000
0000
,
0010
0000
0000
0000
,
0100
0000
0000
0000
,
0100
0000
0000
0000
,
0001
0000
0000
0000
,
0001
0000
0000
0000
,
1000
0000
0000
0000
,
1000
0000
0000
0000
,
0010
0000
0000
0000
,
0010
0000
0000
0000
,
0100
0000
0000
0000
,
0200
0000
0300
0000
,
0001
0000
0000
0000
,
0001
0000
0000
0000
,
1000
0000
0000
0000
,
2000
0000
3000
0000
,
0100
0000
0100
0000
,
0200
0000
0300
0000
,
0010
0000
0000
0000
,
0010
0000
0000
0000
,
0001
0000
0001
0000
,
0002
0000
0003
0000
,
1000
0000
0000
0000
,
2000
0000
3000
0000
,
0010
0000
0000
0000
,
0010
0000
0000
0000
,
0100
0000
0000
0000
,
0100
0000
0000
0000
,
0001
0000
0000
0000
,
0001
0000
0000
0000
,
1000
0000
0000
0000
,
1000
0000
0000
0000
,
0100
0000
0000
0000
,
0100
0000
0000
0000
,
0010
0000
0000
0000
,
0010
0000
0000
0000
,
0001
0000
0000
0000
,
0001
0000
0000
0000
,
0010
0000
0000
0000
,
0020
0000
0030
0000
,
0001
0000
0000
0000
,
0001
0000
0000
0000
,
1000
0000
0000
0000
,
1000
0000
0000
0000
,
0010
0000
0000
0000
,
0010
0000
0000
0000
,
0100
0000
0000
0000
,
0100
0000
0000
0000
,
0001
0000
0000
0000
,
0001
0000
0000
0000
,
1000
0000
0000
0000
,
1000
0000
0000
0000
,
0040
0000
0000
0000
,
0000
0000
0030
0000
,
1000
0000
0000
0000
,
1000
0000
0000
0000
,
0004
0000
0000
0000
,
0000
0000
0003
0000
,
0100
0000
0000
0000
,
0200
0000
0300
0000
,
0010
0000
0010
0000
,
0020
0000
0030
0000
,
1000
0000
0000
0000
,
1000
0000
0000
0000
,
0001
0000
0001
0000
,
0002
0000
0003
0000
,
0010
0000
0000
0000
,
0020
0000
0030
0000
,
0100
0000
0100
0000
,
1000
0000
1000
0000
,
0001
0000
0001
0000
,
0100
0000
0200
0000
,
0300
0000
0010
0000
,
0000
0000
0010
0000
,
0000
0000
1000
0000
,
0000
0000
1000
0000
,
0000
0000
0001
0000
,
0000
0000
0001
0000
,
0000
0000
0010
0000
,
0000
0000
0020
0000
,
0030
0000
0100
0000
,
0000
0000
0100
0000
,
0000
0000
1000
0000
,
0000
0000
1000
0000
,
0000
0000
0001
0000
,
0000
0000
0001
0000
,
0000
0000
0100
0000
,
0000
0000
0200
0000
,
0300
0000
0010
0000
,
0000
0000
0010
0000
,
0000
0000
1000
0000
,
0000
0000
1000
0000
,
0000
0000
0001
0000
,
0000
0000
0001
0000
,
0000
0000
1000
0000
,
0000
0000
1000
1000
,
2000
3000
0010
0010
,
0020
0030
0000
0000
;
