#TITLE:Samurai Pizza Cats Theme;
#SUBTITLE:;
#ARTIST:Michael Airington;
#TITLETRANSLIT:;
#SUBTITLETRANSLIT:;
#ARTISTTRANSLIT:;
#GENRE:Cartoon Theme;
#CREDIT:Ace Of Hearts;
#BANNER:Samurai Pizza Cats Theme - Bn.png;
#BACKGROUND:Samurai Pizza Cats Theme - Bg.jpg;
#LYRICSPATH:;
#CDTITLE:Ace Of Hearts.png;
#MUSIC:Samurai Pizza Cats Theme.ogg;
#OFFSET:1.510;
#SAMPLESTART:6.860;
#SAMPLELENGTH:12.000;
#SELECTABLE:YES;
#BPMS:0.000=160.300;
#STOPS:;
#BGCHANGES:3.875=Samurai Pizza Cats OP.avi=1.000=1=0=0=StretchNoLoop==CrossFade==,
99999=-nosongbg-=1.000=0=0=0 // don't automatically add -songbackground-
;
#KEYSOUNDS:;

//---------------dance-single - Big Cheese----------------
#NOTES:
     dance-single:
     Ace Of Hearts (2014):
     Challenge:
     9:
     0.759,0.000,0.538,1.000,0.209:
0000
0000
0000
0000
,
0000
0000
0000
0000
,
0000
0000
0000
0000
,
0000
0000
0000
0000
0000
0000
1000
0010
,
100M
000M
001M
000M
010M
0000
0000
0000
M110
M000
M000
M000
M000
0000
0010
0000
,
1000
0000
001M
000M
100M
001M
100M
0010
0100
0001
0100
0001
1000
0000
0001
0000
,
0201
0000
0000
0300
0110
0000
0010
0000
2020
0000
3030
0000
1000
0000
0001
0000
,
0100
0020
0200
0000
0330
0000
0200
0301
,
1000
0000
0100
0000
2000
0000
0000
0000
3002
0000
0013
0100
0000
0000
1000
0000
,
0100
0001
0100
2000
0000
3000
1001
0001
,
0022
0000
0000
0033
0110
0000
0100
0000
2200
0000
0000
0000
3300
0000
0000
0000
,
0000
2000
0002
0000
3003
0001
0100
0010
,
0100
0000
0202
0300
1003
0100
0010
0100
,
1000
0001
1000
0002
0003
1000
0010
0100
,
0010
1000
0000
1000
0001
0010
0100
0010
,
0001
1000
0001
0010
0210
1300
0001
0100
,
0010
1000
0001
0000
0011
0010
0110
0100
,
1000
2002
0000
3003
0000
0001
0100
0010
,
1000
0010
0100
0001
0000
0001
1000
0100
,
1000
0002
0000
1003
2000
3001
1000
0100
,
0001
0000
0100
0000
1000
0000
0010
0000
0001
0000
0010
0000
2000
0000
0000
3020
,
0000
0230
0002
0000
0303
0001
1000
0010
,
2000
0000
0000
3002
0000
0203
0000
0300
0000
0000
0010
0000
0200
0000
0301
0000
,
1000
0000
0100
0000
0010
0000
0001
0000
0000
0000
0001
0000
1000
0000
0000
0010
,
0000
0000
0200
0000
0300
0000
0200
0000
0300
0000
0001
0100
0002
0000
0000
0000
,
2003
0000
0000
3200
0000
0000
0320
0000
0000
0030
0000
0000
0210
0000
0000
0300
,
1100
1000
1001
0001
0202
0000
0303
0200
,
0000
0310
2000
0000
3002
0013
0100
1000
,
0000
0000
2002
0000
3000
0000
0013
0000
0100
1000
0000
1002
0000
0103
0000
0010
,
0000
0100
0000
0202
0000
0000
0303
0000
0000
0000
0100
0000
001M
0000
1M00
0000
,
00M1
0000
0000
0000
M022
0000
0033
0000
220M
0000
3300
0000
2000
0000
0000
3001
,
0000
0100
0010
0000
0000
2020
0000
0000
3030
0000
1000
0000
10M1
0000
0M01
0000
,
M202
0000
0303
0000
022M
0000
0330
0000
0020
0000
0000
0000
2030
0000
0000
3002
,
0000
0013
0000
0400
0000
0000
0300
0000
10M0
0000
0M01
0000
M010
0000
0M01
0000
,
20M0
0000
0M20
3000
0130
00M1
1000
0200
,
0000
M3M0
0M00
000M
M010
01M0
1M00
M001
,
100M
M000
220M
33M0
M200
0000
0320
0000
,
0032
0000
1003
0010
0100
0202
0300
1003
,
2020
3030
0110
0100
0202
0000
0303
0000
,
0400
0000
0000
0000
0340
0000
0000
2030
,
0000
0000
3001
0000
0020
0000
0000
0000
0030
0220
0000
0000
0000
0330
0000
0000
,
2200
3300
1001
0002
0003
2002
0000
3003
,
0000
0000
0000
0000
2220
0000
3330
0000
0000
MMM0
0000
0000
2200
0000
3300
0000
,
0000
MM00
0000
0000
2000
0000
3000
0000
0000
M000
0000
0000
1002
0000
0000
0000
,
0013
0210
1300
1002
,
0103
0000
0220
0000
0330
0010
1M00
0M01
,
0010
0100
M010
M001
0000
0001
10M0
00M1
,
M100
M200
0300
0000
0010
0100
0001
0001
,
0000
0000
2001
0000
0000
0000
3100
0000
0001
0000
0100
0000
1000
0001
0000
0000
,
1000
0010
0200
0000
0300
0001
0100
0010
,
1M00
0M01
M010
M010
0100
1000
00M1
00M1
,
M100
M010
M200
0300
0000
0001
1000
0100
,
0010
0100
1000
0001
0100
0010
0100
0001
,
1000
0001
0400
0000
0300
0000
0010
1000
,
0100
0M10
00M1
100M
M001
0010
0100
0010
,
0001
1000
0020
0000
0030
1000
0001
0100
,
0010
0000
1000
0000
0010
0000
0100
0000
0001
0000
0000
0000
1000
0100
0000
0010
,
0000
0100
0000
1000
0000
2002
0000
0000
3003
0000
0000
0000
0101
0000
0100
0000
,
0220
0330
1010
1000
2200
0000
0000
0000
,
0000
0000
0000
3300
,
0220
0000
0000
0000
0000
0000
0000
0330
,
2222
0000
0000
0330
0000
0000
0000
0000
3003
0000
0000
0000
0000
0000
0000
0000
;

//---------------dance-single - Cerviche----------------
#NOTES:
     dance-single:
     Ace Of Hearts (2014):
     Hard:
     8:
     0.540,0.000,0.022,0.670,0.093: // measure 1
0000
0000
0000
0000
,  // measure 2
0000
0000
0000
0000
,  // measure 3
0000
0000
0000
0000
,  // measure 4
0000
0000
0000
0000
0000
0000
0001
1000
,  // measure 5
00M1
1000
0100
0000
010M
0000
0000
0010
,  // measure 6
0001
0M10
0001
0000
0000
0000
1000
0010
,  // measure 7
2000
0000
3001
0010
0002
0000
0003
0000
,  // measure 8
0000
1000
0020
0000
0030
0000
0000
1000
,  // measure 9
0001
0010
0002
0000
1003
0100
1000
0001
,  // measure 10
1000
0010
1000
0020
0000
0030
1000
0001
,  // measure 11
2000
0000
3001
0010
0002
0000
0003
0000
,  // measure 12
0000
0010
0200
0000
0300
0010
0001
0010
,  // measure 13
0100
0000
0100
0000
0010
0001
1000
0001
,  // measure 14
1000
0010
1000
0010
0000
1000
0001
1000
,  // measure 15
0001
0010
0000
0001
1000
0001
0100
0010
,  // measure 16
0100
0010
1000
0000
0000
0001
0010
0001
,  // measure 17
0010
0100
1000
0000
0001
0100
0001
0100
,  // measure 18
0010
2000
0000
3000
0000
0001
1000
0001
,  // measure 19
0010
0100
0010
0100
0000
1000
0001
1000
,  // measure 20
0001
0200
0000
0300
0000
0001
1000
0010
,  // measure 21
1000
0000
0010
0000
0100
0000
0001
0000
0100
0000
0001
0000
2000
0000
0000
3002
,  // measure 22
0000
0013
0200
0000
0300
0010
0001
0010
,  // measure 23
0200
0000
0000
2300
0000
3002
0000
0003
0000
0000
1000
0000
0010
0000
1000
0000
,  // measure 24
0010
0000
0100
0000
0001
0000
0001
0000
0000
0000
1000
0000
0001
0000
0000
0010
,  // measure 25
0000
0200
0300
0200
0300
1000
0002
0000
,  // measure 26
2003
0000
0000
3020
0000
0000
0230
0000
0000
0300
0000
0000
0002
0000
0000
0000
,  // measure 27
1003
0010
1000
0001
2000
0000
3000
0002
,  // measure 28
0000
1003
0200
0000
0300
0010
0001
0010
,  // measure 29
0000
0000
0200
0000
0000
0000
1300
0000
0001
0010
0000
0001
0000
1000
0000
0001
,  // measure 30
0000
1000
0000
0200
0000
0000
0300
0000
0000
0000
0010
0000
M100
0000
0010
0000
,  // measure 31
M002
20M3
30M2
0003
,  // measure 32
0000
0000
0000
0000
0000
1000
010M
0010
,  // measure 33
020M
23M0
3000
0000
,  // measure 34
0000
0000
0000
0000
M001
0100
001M
0100
,  // measure 35
M002
2003
300M
M000
,  // measure 36
000M
0000
M000
0000
001M
0100
M001
0100
,  // measure 37
002M
2M30
300M
0000
,  // measure 38
0000
0000
0000
0000
0000
0002
0000
1003
,  // measure 39
0020
0000
1030
0001
0020
0000
0030
0000
,  // measure 40
0400
0000
0000
0000
0340
0000
0000
0032
,  // measure 41
0000
0000
1003
0000
0020
0000
0000
0000
0000
0230
0000
0000
0300
0000
0000
0000
,  // measure 42
0002
0000
1003
0100
0000
0220
0000
0330
,  // measure 43
0000
0000
0020
0030
0000
0000
0200
0300
,  // measure 44
0000
0000
2000
3000
0000
0000
0002
0000
,  // measure 45
0103
0010
0010
1000
,  // measure 46
0001
0000
2000
0000
3000
0001
0010
0001
,  // measure 47
1000
0010
0100
0100
0000
0001
0100
0001
,  // measure 48
0100
0200
0300
0000
0010
1000
0001
0001
,  // measure 49
0000
0020
0000
0031
0010
0100
1000
1000
,  // measure 50
0100
0010
0002
0000
0003
1000
0010
0100
,  // measure 51
0001
0001
1000
1000
0001
0010
0100
1000
,  // measure 52
0100
0010
0002
0003
0000
1000
0010
1000
,  // measure 53
0001
0001
1000
0100
1000
0001
0100
0010
,  // measure 54
0010
0100
0004
0000
0003
0000
1000
0100
,  // measure 55
0010
0100
10M0
0001
1M00
0001
0100
0010
,  // measure 56
0100
0001
2000
0000
3000
0001
0010
0001
,  // measure 57
1000
0000
0001
0000
0010
0000
0100
0000
0010
0000
0000
0000
0001
0010
0000
0001
,  // measure 58
0000
1000
0000
0001
0000
0200
0000
0000
0300
0000
0000
0000
0010
0000
0100
0000
,  // measure 59
0020
0000
1030
0001
0200
0000
0000
0000
,  // measure 60
0000
0000
0000
0300
,  // measure 61
0220
0000
0000
0000
,  // measure 62
0330
0000
0000
0000
;

//---------------dance-single - Guido----------------
#NOTES:
     dance-single:
     Ace Of Hearts (2014):
     Medium:
     6:
     0.392,0.000,0.022,0.593,0.000: // measure 1
0000
0000
0000
0000
,  // measure 2
0000
0000
0000
0000
,  // measure 3
0000
0000
0000
0000
,  // measure 4
0000
0000
0000
0000
0000
0000
1000
0001
,  // measure 5
1000
0000
0001
0000
0001
0000
0000
0100
,  // measure 6
0000
0100
0010
0000
0000
0000
1000
0001
,  // measure 7
2000
0000
3001
1000
0002
0000
0003
0000
,  // measure 8
0000
0000
0000
0000
,  // measure 9
1000
0000
2000
0000
3001
0100
0001
0000
,  // measure 10
1000
0000
2000
0000
3000
0000
0010
0100
,  // measure 11
0020
0000
0130
0010
0200
0000
0300
0000
,  // measure 12
0000
0000
0000
0000
0000
0010
1000
0000
,  // measure 13
0001
0000
2000
0000
3001
0010
0001
0000
,  // measure 14
1000
1000
0000
0001
,  // measure 15
1000
0200
0000
0300
0010
0000
0100
0000
,  // measure 16
1000
1000
0000
0001
,  // measure 17
1000
0100
0000
0000
0010
0000
0010
0000
,  // measure 18
0100
2000
0000
3000
0000
0000
0001
0000
,  // measure 19
1000
0100
1000
0000
0000
0000
0002
0000
,  // measure 20
0013
0100
0000
0000
0000
0000
0020
0000
,  // measure 21
0031
0010
0001
0000
1000
0000
0002
0000
,  // measure 22
1003
0010
1000
0000
0000
0000
0001
0000
,  // measure 23
0010
0000
0001
0000
0000
0000
1000
0100
,  // measure 24
2000
3001
0000
1000
,  // measure 25
0000
0100
0000
0200
0000
0300
0020
0000
,  // measure 26
0130
0200
0300
2000
,  // measure 27
3001
0000
1000
0010
2000
0000
3000
0000
,  // measure 28
0000
0001
0200
0000
0300
0000
0010
0100
,  // measure 29
0000
0020
0000
0030
1000
0000
0001
0000
,  // measure 30
1000
0100
2000
0000
3000
0000
0001
0100
,  // measure 31
0001
2000
3200
0300
,  // measure 32
0000
0000
0000
0000
0000
0000
0010
0001
,  // measure 33
0020
0230
0300
0000
,  // measure 34
0000
0000
0000
0000
1000
0000
0001
0010
,  // measure 35
0002
0000
2003
0000
3000
000M
0000
M000
,  // measure 36
0000
0000
0000
0000
0010
0000
100M
0010
,  // measure 37
200M
30M2
M003
0000
,  // measure 38
0000
0000
0000
0000
0000
2000
0000
3001
,  // measure 39
0020
0000
0031
1000
0002
0000
0003
0000
,  // measure 40
0400
0000
0000
0000
0000
0000
0300
0020
,  // measure 41
0000
1030
0002
0000
0203
0000
0300
0000
,  // measure 42
0020
0000
1030
0001
0000
2002
0000
3003
,  // measure 43
0000
0000
0002
0003
0000
0000
0020
0030
,  // measure 44
0000
0000
0200
0300
0000
0000
1000
0000
,  // measure 45
1000
0001
0001
0100
,  // measure 46
0010
0000
0200
0000
0300
0000
0001
1000
,  // measure 47
0002
0013
0000
0100
,  // measure 48
1000
0200
0000
0300
0000
0000
0020
0000
,  // measure 49
0000
0230
0000
0300
1000
0000
0001
0100
,  // measure 50
0002
0000
2003
0000
3000
0000
0010
0100
,  // measure 51
0010
0000
1000
0000
0001
0000
1000
0001
,  // measure 52
1000
0000
0100
0000
0000
0000
0010
0001
,  // measure 53
0010
0000
0100
0000
0100
0000
1000
0001
,  // measure 54
1000
0000
0004
0000
0003
0000
1000
0100
,  // measure 55
1000
0000
0001
M000
0001
0000
1000
0010
,  // measure 56
1000
0000
0020
0000
0030
0000
0100
0001
,  // measure 57
0100
0010
0010
1000
,  // measure 58
0001
0000
0020
0000
0030
0000
0001
1000
,  // measure 59
0002
0000
0103
0010
0200
0000
0000
0000
,  // measure 60
0000
0000
0000
0300
,  // measure 61
0202
0000
0000
0000
,  // measure 62
0303
0000
0000
0000
;

//---------------dance-single - Polly----------------
#NOTES:
     dance-single:
     Ace Of Hearts (2014):
     Easy:
     4:
     0.287,0.000,0.011,0.373,0.000: // measure 1
0000
0000
0000
0000
,  // measure 2
0000
0000
0000
0000
,  // measure 3
0000
0000
0000
0000
,  // measure 4
0000
0000
0000
0001
,  // measure 5
0001
0001
0000
0000
,  // measure 6
1000
1000
0000
0010
,  // measure 7
0020
0130
0200
0300
,  // measure 8
0000
0000
0000
0000
,  // measure 9
0001
0001
1000
1000
,  // measure 10
0100
0100
0000
1000
,  // measure 11
2000
3001
0002
0003
,  // measure 12
0000
0000
0000
0100
,  // measure 13
0100
0200
0301
0001
,  // measure 14
1000
1000
0000
0001
,  // measure 15
0000
0001
0000
0000
1000
0000
1000
0000
,  // measure 16
0010
0010
0000
1000
,  // measure 17
0000
1000
0000
0000
0000
0000
0001
0000
,  // measure 18
0000
0001
0000
0000
0000
0000
0100
0000
,  // measure 19
0100
0100
0000
0010
,  // measure 20
0000
0020
0000
0030
0000
0000
1000
0000
,  // measure 21
0001
1000
0000
0010
,  // measure 22
0100
0020
0030
1000
,  // measure 23
1000
0000
0000
0000
2000
0000
0000
3000
0000
0000
0000
0000
0001
0000
0000
0000
,  // measure 24
0001
0001
0000
0010
,  // measure 25
0000
0100
0000
0100
0000
0000
1000
0000
,  // measure 26
1000
2000
3000
0001
,  // measure 27
0001
0010
0020
0030
,  // measure 28
0000
0200
0300
1000
,  // measure 29
1000
1000
0000
0100
,  // measure 30
0100
0200
0300
1000
,  // measure 31
0001
1000
2000
3000
,  // measure 32
0000
0000
0000
0001
,  // measure 33
0100
0200
0300
0000
,  // measure 34
0000
0000
0010
1000
,  // measure 35
1000
0002
0003
000M
,  // measure 36
0000
0000
1000
010M
,  // measure 37
M100
002M
0030
0000
,  // measure 38
0000
0000
0000
0000
0000
0002
0000
0000
,  // measure 39
1003
0010
2000
3000
,  // measure 40
0000
0000
0000
0000
0000
0000
0000
0002
,  // measure 41
0000
2003
0000
0000
3020
0000
0030
0000
,  // measure 42
2000
0000
3002
0000
0000
0103
0000
0000
,  // measure 43
0000
0000
0020
0030
0000
0000
2000
3000
,  // measure 44
0000
0000
0002
0003
0000
0000
1000
0000
,  // measure 45
1000
0001
0001
1000
,  // measure 46
0001
2000
3000
0010
,  // measure 47
0010
0010
0000
0100
,  // measure 48
0000
0200
0000
0300
0000
0000
0001
0000
,  // measure 49
0000
0001
0000
0000
1000
0000
0100
0000
,  // measure 50
0100
0200
0300
0010
,  // measure 51
0001
0001
0000
1000
,  // measure 52
0010
0010
0000
0100
,  // measure 53
0100
0001
0001
1000
,  // measure 54
1000
4000
3000
0100
,  // measure 55
0100
0000
1000
0M00
1000
0000
0001
0000
,  // measure 56
0001
0002
0003
1000
,  // measure 57
1000
0100
0100
0010
,  // measure 58
0010
0020
0030
0100
,  // measure 59
0100
1000
0002
0000
,  // measure 60
0000
0000
0000
0003
,  // measure 61
0202
0000
0000
0000
,  // measure 62
0303
0000
0000
0000
;

//---------------dance-single - Bad Bird----------------
#NOTES:
     dance-single:
     Ace Of Hearts (2014):
     Beginner:
     2:
     0.171,0.000,0.000,0.362,0.000: // measure 1
0000
0000
0000
0000
,  // measure 2
0000
0000
0000
0000
,  // measure 3
0000
0000
0000
0000
,  // measure 4
0000
0000
0000
2000
,  // measure 5
0000
3000
0000
0000
,  // measure 6
0001
0001
0000
0020
,  // measure 7
0030
0020
0030
0000
,  // measure 8
0000
0000
0000
1000
,  // measure 9
0000
1000
0000
2000
,  // measure 10
0000
3000
0000
0002
,  // measure 11
0003
0002
0003
0000
,  // measure 12
0000
0000
0000
0100
,  // measure 13
0000
0100
0000
0200
,  // measure 14
0000
0300
0000
0001
,  // measure 15
0000
0001
0000
0002
,  // measure 16
0000
0003
0000
1000
,  // measure 17
0000
1000
0000
2000
,  // measure 18
0000
3000
0000
0100
,  // measure 19
0000
0100
0000
0200
,  // measure 20
0000
0300
0000
0010
,  // measure 21
0000
0010
0000
0020
,  // measure 22
0000
0030
0000
0001
,  // measure 23
0000
0001
0000
0002
,  // measure 24
0000
0003
0000
0100
,  // measure 25
0000
0100
0000
0200
,  // measure 26
0000
0300
0000
0002
,  // measure 27
0003
0002
0003
0000
,  // measure 28
0000
0000
0000
1000
,  // measure 29
0000
1000
0000
2000
,  // measure 30
0000
3000
0000
0010
,  // measure 31
0000
0020
0030
0000
,  // measure 32
0000
0000
0000
1000
,  // measure 33
0000
2000
3000
0000
,  // measure 34
0000
0000
0000
0100
,  // measure 35
0000
0200
0300
0M00
,  // measure 36
0000
0000
0000
1000
,  // measure 37
0000
2000
3000
M000
,  // measure 38
0000
0000
0000
0002
,  // measure 39
0003
0002
0003
0000
,  // measure 40
0000
0000
0000
0000
,  // measure 41
1000
0000
1000
0000
,  // measure 42
2000
0000
0000
3000
,  // measure 43
0000
0001
0000
0001
,  // measure 44
0000
0001
0000
1000
,  // measure 45
0000
1000
0000
2000
,  // measure 46
0000
3000
0000
0100
,  // measure 47
0000
0100
0000
0200
,  // measure 48
0000
0300
0000
0010
,  // measure 49
0000
0010
0000
0020
,  // measure 50
0000
0030
0000
0001
,  // measure 51
0000
0001
0000
0002
,  // measure 52
0000
0003
0000
1000
,  // measure 53
0000
1000
0000
2000
,  // measure 54
0000
3000
0000
0010
,  // measure 55
0000
M010
0000
0020
,  // measure 56
0000
0030
0000
1000
,  // measure 57
0000
1000
0000
2000
,  // measure 58
0000
3000
0000
0002
,  // measure 59
0003
0002
0000
0000
,  // measure 60
0000
0000
0000
0003
,  // measure 61
0200
0000
0000
0000
,  // measure 62
0300
0000
0000
0000
;
